<?xml version="1.0" standalone="no"?>
<!DOCTYPE svg PUBLIC "-//W3C//DTD SVG 1.1//EN" "http://www.w3.org/Graphics/SVG/1.1/DTD/svg11.dtd" >
<svg xmlns="http://www.w3.org/2000/svg">
<metadata>Generated by IcoMoon</metadata>
<defs>
<font id="Microbiome" horiz-adv-x="1024">
<font-face units-per-em="1024" ascent="960" descent="-64" />
<missing-glyph horiz-adv-x="1024" />
<glyph unicode="&#x20;" horiz-adv-x="512" d="" />
<glyph unicode="&#xe900;" glyph-name="FR" d="M1022.327 451.678c0 280.733-227.592 508.322-508.322 508.322-280.737 0-508.326-227.589-508.326-508.322s227.591-508.326 508.326-508.326c280.73 0 508.322 227.591 508.322 508.326zM51.889 451.678c0 255.224 206.886 462.113 462.115 462.113 255.224 0 462.115-206.888 462.115-462.113 0-255.227-206.888-462.113-462.115-462.113-255.229 0-462.115 206.883-462.115 462.113zM237.421 634.612h261.97v-79.419h-175.932v-79.419h162.697v-79.419h-162.697v-152.218h-86.036v390.474zM521.445 634.612h151.114c19.854 0 38.693-1.929 56.529-5.791 17.83-3.862 33.454-10.297 46.88-19.302 13.419-9.015 24.079-21.148 31.988-36.401 7.903-15.261 11.858-34.289 11.858-57.081 0-27.576-7.17-51.014-21.509-70.318-14.339-19.302-35.298-31.532-62.872-36.675l99.273-164.904h-103.133l-81.624 156.078h-42.468v-156.078h-86.036v390.472zM607.481 473.018h50.738c7.722 0 15.899 0.276 24.543 0.827 8.634 0.552 16.451 2.205 23.44 4.964 6.981 2.756 12.772 7.076 17.373 12.961 4.593 5.876 6.894 14.149 6.894 24.817 0 9.929-2.025 17.83-6.065 23.716-4.052 5.878-9.196 10.384-15.444 13.511-6.254 3.121-13.424 5.24-21.507 6.343-8.092 1.103-15.994 1.655-23.714 1.655h-56.255v-88.794z" />
<glyph unicode="&#xe901;" glyph-name="Plus" horiz-adv-x="1056" d="M528.203 28.873c-223.375 0-405.102 188.027-405.102 419.127 0 231.113 181.728 419.127 405.102 419.127 223.362 0 405.102-188.014 405.102-419.127 0-231.1-181.741-419.127-405.102-419.127zM528.203 854.165c-216.245 0-392.14-182.207-392.14-406.165 0-223.945 175.895-406.165 392.14-406.165 216.233 0 392.14 182.22 392.14 406.165 0 223.958-175.908 406.165-392.14 406.165zM796.089 467.249h-255.132v255.119h-25.509v-255.119h-255.119v-25.522h255.119v-255.119h25.509v255.119h255.132z" />
<glyph unicode="&#xe902;" glyph-name="Cancel" horiz-adv-x="1056" d="M528.203 28.873c-223.375 0-405.102 188.027-405.102 419.127 0 231.113 181.728 419.127 405.102 419.127 223.362 0 405.102-188.014 405.102-419.127 0-231.1-181.741-419.127-405.102-419.127zM528.203 854.165c-216.245 0-392.14-182.207-392.14-406.165s175.895-406.165 392.14-406.165c216.22 0 392.14 182.207 392.14 406.165s-175.921 406.165-392.14 406.165zM501.708 444.189l-215.105-215.131c-5.975-5.95-5.975-15.645 0-21.621 2.981-2.994 6.896-4.485 10.81-4.485 3.927 0 7.829 1.478 10.81 4.485l216.725 216.738 216.738-216.738c2.994-2.994 6.909-4.485 10.81-4.485 3.927 0 7.829 1.478 10.81 4.485 5.988 5.975 5.988 15.671 0 21.621l-215.092 215.131 215.247 215.26c5.963 5.975 5.963 15.658 0 21.634-5.988 5.963-15.671 5.963-21.634 0l-216.868-216.881-216.881 216.881c-5.975 5.963-15.658 5.963-21.621 0-5.975-5.975-5.975-15.658 0-21.634l215.247-215.26z" />
<glyph unicode="&#xe903;" glyph-name="Email" d="M1024 448c0 282.765-229.239 512-512 512-282.765 0-512-229.235-512-512 0-282.763 229.235-512 512-512 282.761 0 512 229.237 512 512zM46.545 448c0 257.071 208.384 465.455 465.455 465.455s465.455-208.384 465.455-465.455c0-257.073-208.384-465.457-465.455-465.457-257.071 0.002-465.455 208.386-465.455 465.457zM767.779 655.805h-511.558c-30.042 0-54.55-24.482-54.55-54.551v-363.669c0-29.967 24.4-54.551 54.55-54.551h511.56c29.965 0 54.551 24.399 54.551 54.551v363.669c-0.002 29.965-24.4 54.551-54.553 54.551zM760.248 619.438l-247.090-247.095-249.229 247.095h496.319zM238.036 245.114v348.782l175.141-173.64-175.141-175.142zM263.752 219.402l175.251 175.25 61.408-60.879c7.109-7.049 18.581-7.024 25.657 0.055l59.877 59.876 174.303-174.303h-496.496zM785.965 245.116l-174.304 174.303 174.304 174.304v-348.607z" />
<glyph unicode="&#xe904;" glyph-name="facebook" d="M1024 448c0 282.765-229.239 512-512 512-282.765 0-512-229.235-512-512 0-282.763 229.235-512 512-512 282.761 0 512 229.237 512 512zM46.545 448c0 257.071 208.384 465.455 465.455 465.455s465.455-208.384 465.455-465.455c0-257.073-208.384-465.457-465.455-465.457-257.071 0.002-465.455 208.386-465.455 465.457zM531.642 152.484v295.516h97.513l15.407 97.929h-112.919v49.107c0 25.551 8.379 49.943 45.058 49.943h73.308v97.745h-104.075c-87.505 0-111.382-57.622-111.382-137.495v-59.253h-60.043v-97.976h60.043v-295.516h97.091z" />
<glyph unicode="&#xe905;" glyph-name="linkedin" d="M1022.327 448c0 282.765-229.239 512-512 512-282.765 0-512-229.235-512-512 0-282.761 229.235-512 512-512 282.761 0 512 229.239 512 512zM44.872 448c0 257.071 208.384 465.455 465.455 465.455s465.455-208.384 465.455-465.455c0-257.073-208.384-465.455-465.455-465.455-257.071 0.002-465.455 208.384-465.455 465.455zM262.221 533.129h109.312v-328.262h-109.312v328.262zM730.274 503.145c-22.963 25.065-53.332 37.602-91.091 37.602-13.911 0-26.559-1.713-37.933-5.137-11.371-3.423-20.977-8.227-28.819-14.41-7.837-6.184-14.078-11.925-18.713-17.222-4.406-5.031-8.716-10.893-12.922-17.523v46.677h-108.984l0.335-15.902c0.224-10.601 0.335-43.282 0.335-98.046 0-54.771-0.221-126.21-0.663-214.321h108.979v183.182c0 11.261 1.208 20.202 3.643 26.833 4.641 11.267 11.645 20.703 21.037 28.317 9.39 7.628 21.034 11.435 34.952 11.435 18.988 0 32.959-6.569 41.904-19.709 8.943-13.138 13.414-31.304 13.414-54.49v-175.559h108.981v188.137c-0.010 48.366-11.483 85.077-34.453 110.135zM317.54 691.136c-18.327 0-33.176-5.359-44.552-16.068s-17.058-24.23-17.058-40.575c0-16.115 5.52-29.591 16.561-40.41s25.615-16.232 43.722-16.232h0.663c18.552 0 33.516 5.408 44.887 16.232 11.371 10.819 16.946 24.288 16.727 40.41-0.221 16.344-5.856 29.867-16.893 40.575-11.040 10.714-25.731 16.068-44.057 16.068z" />
<glyph unicode="&#xe906;" glyph-name="tweeter" d="M1024 448c0 282.765-229.239 512-512 512-282.765 0-512-229.235-512-512 0-282.763 229.235-512 512-512 282.761 0 512 229.237 512 512zM46.545 448c0 257.071 208.384 465.455 465.455 465.455 257.073 0 465.455-208.384 465.455-465.455 0-257.073-208.382-465.457-465.455-465.457-257.071 0.002-465.455 208.386-465.455 465.457zM770.774 485.005c9.281-3.962 21.268-6.76 36.004-8.386 6.761-0.572 13.268-0.825 19.709-0.825 7.471 0 14.483 0.412 20.877 1.236-8.043-7.541-18.402-14.072-30.916-19.638-12.651-5.594-28.921-8.368-48.996-8.368-9.189-34.331-26.219-65.176-51.105-92.311-24.797-27.225-54.317-49.708-88.509-67.447s-71.755-30.069-112.893-37.056c-23.145-4.171-46.269-6.236-69.508-6.236-17.532 0-35.132 1.262-52.642 3.76-40.587 5.269-79.569 17.647-117.292 37.055-37.699 19.366-70.631 47.076-98.866 83.054 15.951-14.207 34.56-25.23 55.758-32.883 21.198-7.633 43.222-11.53 66.093-11.53 22.894 0 45.399 4.195 67.469 12.375 22.001 8.204 41.802 21.015 59.447 38.318-3.345-0.527-6.691-0.825-10.106-0.825-6.395 0-12.238 1.123-17.508 3.345-8.411 3.346-14.209 7.908-17.349 13.613-3.253 5.706-3.253 12.010 0 18.862 3.141 6.828 11.297 12.877 24.454 18.151-4.493-0.482-8.87-0.78-12.972-0.78-6.485 0-12.467 0.55-17.945 1.605-9.305 1.718-17.279 4.581-24.109 8.595-6.944 4.101-12.536 8.478-17.027 13.222-4.447 4.769-8.227 9.832-11.323 15.126 5.639 5.020 11.871 8.846 18.86 11.435 6.991 2.659 16.18 4.308 27.616 4.837-25.622 5.568-43.933 13.889-54.796 24.705-10.886 10.888-17.808 23.421-20.51 37.654 7.563 1.17 15.057 2.475 22.781 3.989 7.631 1.581 13.749 1.742 18.241 0.663-21.84 10.888-36.988 23.584-45.697 38.090-7.494 12.81-11.276 24.865-11.276 36.027 0 1.397 0.139 2.91 0.435 4.606 39.35-13.705 72.49-26.286 99.393-37.677 26.975-11.482 50.9-22.642 71.824-33.573 8.090-3.254 16.133-8.272 24.293-15.012l26.378-22.665c5.615 14.851 11.938 29.54 19.183 44.208 7.354 14.691 15.079 28.716 23.304 42.099 8.229 13.362 17.465 25.69 27.8 36.851 10.337 11.115 22.091 20.283 35.154 27.615-0.525-6.372-3.827-12.72-9.991-18.837 7.563 6.372 15.696 11.527 24.454 15.514 8.866 3.897 18.148 6.485 27.866 7.908-1.124-6.417-5.682-11.687-13.842-15.698-8.088-4.058-15.148-7.196-21.313-9.395 2.202 0.527 6.648 1.993 13.156 4.33 6.576 2.383 13.565 4.583 20.967 6.485 7.474 1.971 14.095 3.301 20.147 3.758 5.958 0.574 9.556-0.48 10.633-3.323 1.646-3.346 0.686-6.209-2.911-8.572-3.597-2.384-8.046-4.355-13.222-6.119-5.088-1.65-10.337-3.002-15.425-4.17-5.202-1.148-8.595-1.971-10.245-2.476l-15.512-5.431c3.045 0.298 6.141 0.413 9.189 0.413 12.81 0 25.438-1.924 37.677-5.843 15.101-4.767 28.921-12.032 41.48-21.84 12.511-9.693 23.582-21.176 33.022-34.307 9.487-13.131 16.478-27.203 20.948-42.26l1.697-6.715c0.48-2.224 1.098-4.7 1.65-7.473 5.592-1.742 12.261-2.749 20.144-3.184 7.79-0.39 15.512 0 23.239 1.262 7.608 1.235 14.599 2.818 20.83 4.789 6.326 1.948 11.324 3.781 14.922 5.431-4.447-10.909-13.043-20.032-25.761-27.41-12.762-7.332-28.622-11.572-47.527-12.72z" />
<glyph unicode="&#xe907;" glyph-name="Eye_icon" horiz-adv-x="1255" d="M618.323 72.69c-202.446 0-367.149 164.703-367.149 367.149s164.703 367.149 367.149 367.149c202.42 0 367.123-164.703 367.123-367.149s-164.703-367.149-367.123-367.149zM618.323 780.833c-188.008 0-340.993-152.985-340.993-340.993s152.985-340.993 340.993-340.993 340.967 152.985 340.967 340.993-152.933 340.993-340.967 340.993zM618.323 302.234c-147.937 0-265.298 123.403-270.216 128.66l-8.37 8.945 8.37 8.945c4.917 5.257 122.278 128.687 270.216 128.687 147.911 0 265.272-123.429 270.19-128.687l8.37-8.945-8.37-8.945c-4.917-5.257-122.278-128.66-270.19-128.66zM376.277 439.866c29.608-27.908 127.797-111.45 242.046-111.45 114.222 0 212.385 83.516 241.994 111.45-29.608 27.908-127.771 111.476-241.994 111.476-114.432-0.026-212.49-83.568-242.046-111.476zM618.323 346.699c-62.748 0-113.804 51.056-113.804 113.83 0 62.748 51.056 113.804 113.804 113.804 62.722 0 113.804-51.056 113.804-113.804 0-62.774-51.056-113.83-113.804-113.83zM618.323 548.151c-48.336 0-87.648-39.312-87.648-87.648s39.312-87.674 87.648-87.674 87.648 39.338 87.648 87.674-39.312 87.648-87.648 87.648zM618.297 426.761c-26.156 0-47.447 21.265-47.447 47.42s21.291 47.447 47.447 47.447c26.182 0 47.447-21.291 47.447-47.447 0.026-26.13-21.265-47.42-47.447-47.42zM618.297 495.499c-11.744 0-21.291-9.547-21.291-21.291s9.547-21.265 21.291-21.265c11.744 0 21.291 9.547 21.291 21.265 0.026 11.744-9.547 21.291-21.291 21.291z" />
<glyph unicode="&#xe908;" glyph-name="globe_icon" horiz-adv-x="1255" d="M620.782 58.958c-202.446 0-367.149 164.703-367.149 367.149s164.703 367.149 367.149 367.149 367.149-164.703 367.149-367.149-164.703-367.149-367.149-367.149zM620.782 767.101c-188.008 0-340.993-152.985-340.993-340.993s152.985-340.993 340.993-340.993 340.993 152.985 340.993 340.993-152.985 340.993-340.993 340.993zM620.782 58.958c-106.611 0-190.127 161.277-190.127 367.149s83.516 367.149 190.127 367.149 190.127-161.277 190.127-367.149-83.516-367.149-190.127-367.149zM620.782 767.101c-88.877 0-163.971-156.15-163.971-340.993 0-184.817 75.093-340.993 163.971-340.993 88.851 0 163.971 156.176 163.971 340.993-0.026 184.843-75.119 340.993-163.971 340.993zM266.711 439.185h708.142v-26.156h-708.142v26.156zM607.704 780.179h26.156v-708.142h-26.156v708.142zM631.846 577.681c-122.88 0-233.31 32.433-288.237 84.666l18.021 18.963c49.487-47.054 155.549-77.474 270.216-77.474 105.042 0 203.754 25.58 257.609 66.75l15.877-20.768c-59.060-45.171-161.303-72.138-273.485-72.138zM888.356 193.792c-49.461 47.080-155.47 77.474-270.19 77.474-105.042 0-203.754-25.607-257.609-66.776l-15.877 20.794c59.086 45.171 161.329 72.138 273.511 72.138 122.906 0 233.336-32.433 288.211-84.666l-18.048-18.963z" />
<glyph unicode="&#xe909;" glyph-name="Heart_icon" horiz-adv-x="1056" d="M733.262 646.967c-81.894 27.817-146.030-8.814-205.189-74.272h-1.53c-59.159 65.458-123.295 102.089-205.202 74.272-132.977-45.16-128.428-319.099 204.191-479.193 0-0.583 1.167-1.141 1.763-0.855 0.583-0.272 1.763 0.272 1.763 0.855 332.644 160.094 337.194 434.033 204.204 479.193zM245.527 763.69c0-1.102-2.693-1.996-6.014-1.996s-6.014 0.894-6.014 1.996c0 1.102 2.693 1.996 6.014 1.996s6.014-0.894 6.014-1.996zM527.321 29.871c-223.375 0-405.102 188.027-405.102 419.127 0 231.113 181.728 419.127 405.102 419.127s405.102-188.014 405.102-419.127c0.013-231.1-181.728-419.127-405.102-419.127zM527.321 855.163c-216.233 0-392.14-182.207-392.14-406.165s175.908-406.165 392.14-406.165c216.233 0 392.14 182.207 392.14 406.165s-175.908 406.165-392.14 406.165z" />
<glyph unicode="&#xe90a;" glyph-name="Menu_icon" horiz-adv-x="1255" d="M623.11 64.765c-202.472 0-367.175 164.729-367.175 367.175 0 202.472 164.703 367.175 367.175 367.175s367.175-164.703 367.175-367.175c0-202.446-164.703-367.175-367.175-367.175zM623.11 772.96c-188.034 0-341.019-152.985-341.019-341.019s152.985-341.019 341.019-341.019c188.034 0 341.019 152.985 341.019 341.019s-152.985 341.019-341.019 341.019zM424.090 542.815h398.013v-26.156h-398.013v26.156zM424.090 445.018h398.013v-26.156h-398.013v26.156zM424.090 347.169h398.013v-26.156h-398.013v26.156z" />
<glyph unicode="&#xe90b;" glyph-name="search_icon" horiz-adv-x="1255" d="M627.347 76.457c-202.472 0-367.175 164.703-367.175 367.149 0 202.472 164.703 367.175 367.175 367.175 202.446 0 367.175-164.703 367.175-367.175 0-202.446-164.729-367.149-367.175-367.149zM627.347 784.651c-188.034 0-341.019-152.985-341.019-341.019 0-188.008 152.985-340.993 341.019-340.993s341.019 152.985 341.019 340.993c0 188.034-152.985 341.019-341.019 341.019zM597.425 297.447c-91.571 0-166.089 74.518-166.089 166.116 0 91.571 74.518 166.089 166.089 166.089s166.089-74.518 166.089-166.089c0-91.624-74.518-166.116-166.089-166.116zM597.425 603.47c-77.16 0-139.934-62.774-139.934-139.934s62.774-139.96 139.934-139.96 139.934 62.774 139.934 139.96c0 77.16-62.774 139.934-139.934 139.934zM714.661 382.763l110.987-110.987-18.495-18.495-110.987 110.987 18.495 18.495z" />
<glyph unicode="&#xe90c;" glyph-name="share_icon" horiz-adv-x="1255" d="M638.96 58.958c-202.446 0-367.149 164.703-367.149 367.149s164.703 367.149 367.149 367.149c202.42 0 367.123-164.703 367.123-367.149s-164.703-367.149-367.123-367.149zM638.96 767.101c-188.008 0-340.993-152.985-340.993-340.993s152.985-340.993 340.993-340.993 340.967 152.985 340.967 340.993-152.933 340.993-340.967 340.993zM707.619 451.060c-53.75 0-97.483 43.733-97.483 97.509 0 53.75 43.733 97.483 97.483 97.483 53.776 0 97.509-43.733 97.509-97.483 0-53.776-43.733-97.509-97.509-97.509zM707.619 619.87c-39.338 0-71.327-31.989-71.327-71.327s31.989-71.353 71.327-71.353 71.353 32.015 71.353 71.353c0 39.338-32.015 71.327-71.353 71.327zM459.715 313.899c-53.75 0-97.483 43.733-97.483 97.509 0 53.75 43.733 97.483 97.483 97.483s97.483-43.733 97.483-97.483c0-53.803-43.733-97.509-97.483-97.509zM459.715 482.709c-39.338 0-71.327-31.989-71.327-71.327s31.989-71.353 71.327-71.353 71.327 32.015 71.327 71.353c0 39.338-31.989 71.327-71.327 71.327zM707.619 182.022c-53.75 0-97.483 43.733-97.483 97.509 0 53.75 43.733 97.483 97.483 97.483 53.776 0 97.509-43.733 97.509-97.483 0-53.803-43.733-97.509-97.509-97.509zM707.619 350.831c-39.338 0-71.327-31.989-71.327-71.327s31.989-71.353 71.327-71.353 71.353 32.015 71.353 71.353-32.015 71.327-71.353 71.327zM627.677 523.119l12.186-23.145-100.196-52.753-12.186 23.145 100.196 52.753zM534.813 385.771l100.24-58.013-13.101-22.638-100.24 58.013 13.101 22.638z" />
<glyph unicode="&#xe90d;" glyph-name="x-circle" d="M981.333 448c0 63.488-12.629 124.16-35.541 179.499-23.808 57.472-58.667 109.141-101.888 152.363s-94.891 78.123-152.363 101.888c-55.381 22.955-116.053 35.584-179.541 35.584s-124.16-12.629-179.499-35.541c-57.472-23.808-109.141-58.667-152.363-101.931s-78.123-94.891-101.931-152.363c-22.912-55.339-35.541-116.011-35.541-179.499s12.629-124.16 35.541-179.499c23.808-57.472 58.667-109.141 101.888-152.363s94.891-78.123 152.363-101.888c55.381-22.955 116.053-35.584 179.541-35.584s124.16 12.629 179.499 35.541c57.472 23.808 109.141 58.667 152.363 101.888s78.123 94.891 101.888 152.363c22.955 55.381 35.584 116.053 35.584 179.541zM896 448c0-52.096-10.368-101.675-29.056-146.859-19.456-46.976-47.957-89.259-83.413-124.672s-77.739-63.957-124.672-83.413c-45.184-18.688-94.763-29.056-146.859-29.056s-101.675 10.368-146.859 29.056c-46.976 19.456-89.259 47.957-124.672 83.413-35.456 35.456-63.957 77.739-83.413 124.672-18.688 45.184-29.056 94.763-29.056 146.859s10.368 101.675 29.056 146.859c19.456 46.976 47.957 89.259 83.413 124.672s77.739 63.957 124.672 83.413c45.184 18.688 94.763 29.056 146.859 29.056s101.675-10.368 146.859-29.056c46.976-19.456 89.259-47.957 124.672-83.413 35.456-35.456 63.957-77.739 83.413-124.672 18.688-45.184 29.056-94.763 29.056-146.859zM353.835 545.835l97.835-97.835-97.835-97.835c-16.683-16.683-16.683-43.691 0-60.331s43.691-16.683 60.331 0l97.835 97.835 97.835-97.835c16.683-16.683 43.691-16.683 60.331 0s16.683 43.691 0 60.331l-97.835 97.835 97.835 97.835c16.683 16.683 16.683 43.691 0 60.331s-43.691 16.683-60.331 0l-97.835-97.835-97.835 97.835c-16.683 16.683-43.691 16.683-60.331 0s-16.683-43.691 0-60.331z" />
<glyph unicode="&#xe90e;" glyph-name="heart-outline" horiz-adv-x="1056" d="M526.919 153.879c-0.13 0-0.259 0-0.376 0.026l-2.242 0.22c-2.515 0.441-4.822 1.53-6.688 3.098-224.243 108.777-296.649 267.018-290.414 369.703 3.953 65.069 37.577 114.519 89.969 132.316 19.715 6.701 39.262 10.084 58.122 10.084 52.496 0 101.039-24.978 152.019-78.407 50.967 53.429 99.522 78.407 152.006 78.407 18.86 0 38.406-3.396 58.096-10.084 52.405-17.797 86.029-67.247 89.969-132.316 6.222-102.685-66.132-260.874-290.298-369.664l-4.783-3.098-5.379-0.285zM375.302 643.403c-16.021 0-32.768-2.929-49.787-8.71-42.075-14.284-69.139-55.166-72.432-109.348-5.729-94.454 62.775-240.886 274.225-344.038 211.45 103.152 279.954 249.584 274.238 344.038-3.292 54.181-30.37 95.051-72.432 109.335-67.701 22.956-126.004 1.672-191.423-70.695l-3.85-4.277h-13.040l-3.85 4.277c-48.983 54.194-93.988 79.418-141.649 79.418zM527.321 29.871c-223.375 0-405.102 188.027-405.102 419.127 0 231.113 181.728 419.127 405.102 419.127s405.102-188.014 405.102-419.127c0.013-231.1-181.728-419.127-405.102-419.127zM527.321 855.163c-216.233 0-392.14-182.207-392.14-406.165s175.908-406.165 392.14-406.165c216.22 0 392.14 182.207 392.14 406.165 0.013 223.958-175.921 406.165-392.14 406.165z" />
<glyph unicode="&#xe90f;" glyph-name="Arrow-1" horiz-adv-x="1056" d="M528.203 28.873c-223.375 0-405.102 188.027-405.102 419.127 0 231.113 181.728 419.127 405.102 419.127 223.362 0 405.102-188.014 405.102-419.127 0-231.1-181.741-419.127-405.102-419.127zM528.203 854.165c-216.245 0-392.14-182.207-392.14-406.165 0-223.945 175.895-406.165 392.14-406.165 216.233 0 392.14 182.22 392.14 406.165 0 223.958-175.908 406.165-392.14 406.165zM713.21 441.013c0-3.824-0.272-7.414-0.804-10.771s-1.167-6.287-1.931-8.853-1.75-4.627-2.916-6.222-2.411-2.709-3.668-3.357l-309.118-193.38c-2.333-1.594-4.342-2.554-6.014-2.891-1.685-0.298-3.046 0.311-4.083 1.905s-1.75 4.226-2.139 7.894c-0.389 3.655-0.583 8.698-0.583 15.075 0 6.714 0.13 12.197 0.389 16.501s0.843 7.829 1.75 10.538c0.907 2.709 2.191 4.939 3.889 6.714 1.672 1.763 3.94 3.435 6.792 5.029l265.229 163.697-265.229 160.379c-2.852 1.918-5.12 3.668-6.792 5.263-1.685 1.594-2.981 3.746-3.889 6.468-0.907 2.709-1.491 6.222-1.75 10.538s-0.389 9.968-0.389 16.993c0 6.377 0.194 11.407 0.583 15.075s1.089 6.3 2.139 7.894c1.037 1.594 2.398 2.229 4.083 1.918 1.672-0.324 3.694-1.283 6.014-2.878l310.674-194.34c2.074-1.283 3.902-4.472 5.444-9.566 1.542-5.107 2.32-11.653 2.32-19.625z" />
<glyph unicode="&#xe910;" glyph-name="Arrow-2" horiz-adv-x="1056" d="M528.203 28.873c-223.375 0-405.102 188.027-405.102 419.127 0 231.113 181.728 419.127 405.102 419.127 223.362 0 405.102-188.014 405.102-419.127 0-231.1-181.741-419.127-405.102-419.127zM528.203 854.165c-216.245 0-392.14-182.207-392.14-406.165 0-223.945 175.895-406.165 392.14-406.165 216.233 0 392.14 182.22 392.14 406.165 0 223.958-175.908 406.165-392.14 406.165zM325.334 460.638c1.555 5.107 3.37 8.296 5.431 9.566l310.674 194.34c2.333 1.594 4.329 2.554 6.014 2.878 1.685 0.311 3.046-0.324 4.083-1.918 1.037-1.607 1.75-4.239 2.126-7.894 0.376-3.668 0.583-8.698 0.583-15.075 0-7.025-0.13-12.69-0.376-16.993s-0.843-7.829-1.75-10.538c-0.907-2.709-2.204-4.861-3.902-6.468-1.672-1.607-3.94-3.344-6.779-5.263l-265.242-160.353 265.242-163.71c2.852-1.594 5.12-3.266 6.779-5.016 1.698-1.776 2.981-4.005 3.902-6.714 0.894-2.709 1.491-6.222 1.75-10.538s0.376-9.812 0.376-16.501c0-6.39-0.207-11.42-0.583-15.088s-1.089-6.3-2.126-7.894-2.411-2.229-4.083-1.905-3.681 1.283-6.014 2.878l-309.118 193.38c-1.296 0.648-2.528 1.763-3.694 3.357s-2.139 3.668-2.916 6.222c-0.778 2.541-1.413 5.496-1.944 8.853-0.518 3.357-0.778 6.948-0.778 10.771 0 7.972 0.791 14.517 2.346 19.625z" />
<glyph unicode="&#xe911;" glyph-name="envelope" d="M1004.6 578.4c7.8 6.2 19.4 0.4 19.4-9.4v-409c0-53-43-96-96-96h-832c-53 0-96 43-96 96v408.8c0 10 11.4 15.6 19.4 9.4 44.8-34.8 104.2-79 308.2-227.2 42.2-30.8 113.4-95.6 184.4-95.2 71.4-0.6 144 65.6 184.6 95.2 204 148.2 263.2 192.6 308 227.4zM512 320c46.4-0.8 113.2 58.4 146.8 82.8 265.4 192.6 285.6 209.4 346.8 257.4 11.6 9 18.4 23 18.4 37.8v38c0 53-43 96-96 96h-832c-53 0-96-43-96-96v-38c0-14.8 6.8-28.6 18.4-37.8 61.2-47.8 81.4-64.8 346.8-257.4 33.6-24.4 100.4-83.6 146.8-82.8z" />
<glyph unicode="&#xe912;" glyph-name="twitter-square" horiz-adv-x="896" d="M800 896h-704c-53 0-96-43-96-96v-704c0-53 43-96 96-96h704c53 0 96 43 96 96v704c0 53-43 96-96 96zM702.2 578.4c0.4-5.6 0.4-11.4 0.4-17 0-173.4-132-373.2-373.2-373.2-74.4 0-143.4 21.6-201.4 58.8 10.6-1.2 20.8-1.6 31.6-1.6 61.4 0 117.8 20.8 162.8 56-57.6 1.2-106 39-122.6 91 20.2-3 38.4-3 59.2 2.4-60 12.2-105 65-105 128.8v1.6c17.4-9.8 37.8-15.8 59.2-16.6-35.411 23.8-58.4 63.708-58.4 108.986 0 0.075 0 0.151 0 0.226v-0.012c0 24.4 6.4 46.8 17.8 66.2 64.6-79.6 161.6-131.6 270.4-137.2-18.6 89 48 161.2 128 161.2 37.8 0 71.8-15.8 95.8-41.4 29.6 5.6 58 16.6 83.2 31.6-9.8-30.4-30.4-56-57.6-72.2 26.4 2.8 52 10.2 75.6 20.4-17.8-26.2-40.2-49.4-65.8-68z" />
<glyph unicode="&#xe913;" glyph-name="facebook-square" horiz-adv-x="896" d="M896 800v-704c0-53-43-96-96-96h-170.6v354.4h121.2l17.4 135.2h-138.6v86.4c0 39.2 10.8 65.8 67 65.8h71.6v120.8c-12.4 1.6-54.8 5.4-104.4 5.4-103.2 0-174-63-174-178.8v-99.8h-121.6v-135.2h121.8v-354.2h-393.8c-53 0-96 43-96 96v704c0 53 43 96 96 96h704c53 0 96-43 96-96z" />
<glyph unicode="&#xe914;" glyph-name="linkedin-brands" horiz-adv-x="896" d="M832 896h-768.2c-35.2 0-63.8-29-63.8-64.6v-766.8c0-35.6 28.6-64.6 63.8-64.6h768.2c35.2 0 64 29 64 64.6v766.8c0 35.6-28.8 64.6-64 64.6zM270.8 128h-132.8v427.6h133v-427.6zM204.4 614c-42.6 0-77 34.6-77 77s34.4 77 77 77c42.4 0 77-34.6 77-77 0-42.6-34.4-77-77-77zM768.6 128h-132.8v208c0 49.6-1 113.4-69 113.4-69.2 0-79.8-54-79.8-109.8v-211.6h-132.8v427.6h127.4v-58.4h1.8c17.8 33.6 61.2 69 125.8 69 134.4 0 159.4-88.6 159.4-203.8v-234.4z" />
<glyph unicode="&#x1f315;" glyph-name="DE" d="M1018.323 451.678c0 280.733-227.594 508.322-508.324 508.322-280.735 0-508.326-227.589-508.326-508.322s227.591-508.326 508.326-508.326c280.73 0 508.324 227.592 508.324 508.326zM47.884 451.678c0 255.224 206.886 462.112 462.115 462.112 255.224 0 462.113-206.888 462.113-462.112 0-255.227-206.888-462.113-462.113-462.113-255.227 0-462.115 206.885-462.115 462.113zM201.706 634.612h129.054c31.247 0 60.941-3.499 89.070-10.479 28.128-6.989 52.671-18.295 73.628-33.917 20.959-15.631 37.588-35.942 49.913-60.941 12.313-25.008 18.474-55.341 18.474-90.999 0-31.627-5.98-59.479-17.923-83.556-11.953-24.086-28.041-44.31-48.257-60.667-20.226-16.364-43.57-28.772-70.042-37.227-26.473-8.463-54.239-12.685-83.279-12.685h-140.636v390.472zM287.741 323.557h44.673c19.854 0 38.33 2.016 55.427 6.067 17.097 4.041 31.893 10.754 44.397 20.129 12.495 9.377 22.336 21.691 29.505 36.953 7.17 15.251 10.755 33.917 10.755 55.979 0 19.113-3.586 35.753-10.755 49.912-7.17 14.15-16.821 25.826-28.955 35.022-12.134 9.186-26.388 16.079-42.742 20.681-16.364 4.593-33.556 6.895-51.566 6.895h-50.738v-231.636zM582.797 634.612h265.278v-79.417h-179.242v-72.801h169.313v-79.417h-169.313v-79.419h189.169v-79.419h-275.205v390.472z" />
<glyph unicode="&#x1f316;" glyph-name="UK" d="M1025.673 448c0 282.765-229.24 512-512 512-282.765 0-512-229.235-512-512 0-282.761 229.235-512 512-512 282.76 0 512 229.239 512 512zM48.218 448c0 257.071 208.384 465.455 465.455 465.455s465.455-208.384 465.455-465.455c0-257.074-208.384-465.457-465.455-465.457-257.071 0.003-465.455 208.386-465.455 465.457zM481.315 390.614c0-23.329-3.524-44.813-10.555-64.438-7.039-19.633-17.498-36.663-31.386-51.106s-31.204-25.744-51.94-33.886c-20.744-8.142-44.631-12.221-71.66-12.221-27.41 0-51.479 4.079-72.215 12.221-20.744 8.142-38.052 19.443-51.94 33.886s-24.355 31.473-31.386 51.106c-7.039 19.625-10.555 41.107-10.555 64.438v241.644h86.659v-238.311c0-12.221 1.944-23.522 5.833-33.886 3.889-10.372 9.348-19.356 16.387-26.942 7.031-7.595 15.459-13.524 25.275-17.776 9.808-4.263 20.458-6.388 31.941-6.388 11.475 0 22.029 2.127 31.664 6.388 9.626 4.252 17.958 10.181 24.998 17.776 7.031 7.585 12.499 16.568 16.387 26.942 3.889 10.364 5.833 21.665 5.833 33.886v238.311h86.659v-241.644zM524.644 632.258h86.657v-163.316l152.765 163.316h113.321l-174.982-182.759 189.98-210.536h-121.098l-159.987 186.649v-186.649h-86.657v393.295z" />
</font>
</defs>
</svg>
