<?xml version="1.0" standalone="no"?>
<!DOCTYPE svg PUBLIC "-//W3C//DTD SVG 1.1//EN" "http://www.w3.org/Graphics/SVG/1.1/DTD/svg11.dtd" >
<svg xmlns="http://www.w3.org/2000/svg" xmlns:xlink="http://www.w3.org/1999/xlink" version="1.1">
<metadata>
Created by FontForge 20170731 at Wed Feb  6 03:45:44 2013
 By Aleksey,,,
Copyright (c) 2012 by TypeTogether. All rights reserved.
</metadata>
<defs>
<font id="AdelleSans-Heavy" horiz-adv-x="570" >
  <font-face 
    font-family="Adelle Sans"
    font-weight="900"
    font-stretch="normal"
    units-per-em="1000"
    panose-1="2 0 5 3 0 0 0 2 0 4"
    ascent="750"
    descent="-250"
    x-height="528"
    cap-height="724"
    bbox="-125 -265 1072 978"
    underline-thickness="50"
    underline-position="-150"
    unicode-range="U+000D-2122"
  />
<missing-glyph horiz-adv-x="500" 
d="M50 500h400v-500h-400v500zM400 50v400h-300v-400h300z" />
    <glyph glyph-name=".notdef" horiz-adv-x="500" 
d="M50 500h400v-500h-400v500zM400 50v400h-300v-400h300z" />
    <glyph glyph-name=".null" horiz-adv-x="0" 
 />
    <glyph glyph-name="nonmarkingreturn" unicode="&#xd;" horiz-adv-x="134" 
 />
    <glyph glyph-name="NULL" horiz-adv-x="0" 
 />
    <glyph glyph-name="NULL" horiz-adv-x="0" 
 />
    <glyph glyph-name="space" unicode=" " horiz-adv-x="134" 
 />
    <glyph glyph-name="exclam" unicode="!" horiz-adv-x="315" 
d="M66 206l-20 518h226l-21 -518h-185zM269 82q0 -45 -27 -69.5t-84 -24.5q-58 0 -85 23t-27 71q0 46 27 71t85 25q56 0 83.5 -25t27.5 -71z" />
    <glyph glyph-name="quotedbl" unicode="&#x22;" horiz-adv-x="471" 
d="M30 465v259h180v-259h-180zM261 465v259h180v-259h-180z" />
    <glyph glyph-name="numbersign" unicode="#" horiz-adv-x="607" 
d="M276 0l21 134h-52l-21 -134h-136l21 134h-84l28 137h77l12 78h-85l27 137h78l20 139h136l-20 -139h52l20 139h136l-20 -139h87l-26 -137h-81l-12 -78h88l-27 -137h-82l-21 -134h-136zM330 349h-52l-12 -78h52z" />
    <glyph glyph-name="dollar" unicode="$" 
d="M283 563q-26 0 -42 -12t-16 -34q0 -21 11 -33.5t28.5 -20.5t39.5 -14t45 -13q34 -10 71 -23t67.5 -36t50.5 -60t20 -94q0 -52 -17 -91.5t-46 -68t-67 -46t-79 -25.5v-76h-178v77q-29 6 -58 19.5t-53 37.5t-41 60.5t-22 89.5l180 26q3 -21 8 -38.5t16 -29.5t28.5 -19
t45.5 -7q37 0 57.5 15t20.5 42q0 19 -9.5 31.5t-27 21t-40.5 15t-50 14.5q-35 10 -72 24t-67 38t-49.5 61.5t-19.5 94.5q0 40 13 73t35.5 58.5t52.5 43.5t65 30v98h178v-89q33 -5 64 -17.5t55 -35.5t39 -58t16 -85l-185 -19q-4 42 -18.5 58.5t-49.5 16.5z" />
    <glyph glyph-name="percent" unicode="%" horiz-adv-x="861" 
d="M202 374q-50 0 -83.5 13.5t-54 37.5t-29.5 56t-9 69q0 87 43 137t141 50q95 0 135.5 -46.5t40.5 -127.5q0 -87 -45.5 -138t-138.5 -51zM118 -11l437 735h181l-437 -735h-181zM652 -12q-50 0 -84 13.5t-54.5 37.5t-29.5 56t-9 69q0 87 43.5 137t141.5 50q94 0 134.5 -46.5
t40.5 -127.5q0 -88 -45 -138.5t-138 -50.5zM657 92q13 0 21.5 15.5t8.5 65.5q0 45 -8.5 59t-22.5 14q-6 0 -11.5 -2.5t-10 -10.5t-7 -22t-2.5 -38q0 -25 2.5 -40.5t6.5 -24.5t10 -12.5t13 -3.5zM208 478q13 0 21.5 15.5t8.5 65.5q0 45 -8.5 59t-22.5 14q-6 0 -11.5 -2.5
t-10 -10.5t-7 -22t-2.5 -38q0 -25 2.5 -40.5t6.5 -24.5t10 -12.5t13 -3.5z" />
    <glyph glyph-name="ampersand" unicode="&#x26;" horiz-adv-x="794" 
d="M599 555q0 -22 -5.5 -45.5t-22.5 -47t-48.5 -47.5t-83.5 -46q22 -28 45.5 -54t47.5 -54q8 27 9 55t-1 56h186q3 -47 -9 -98.5t-49 -105.5q27 -8 56 -8h14t15 2l16 -156q-48 -12 -93 -12q-42 0 -85 10t-79 33q-29 -21 -81.5 -35t-127.5 -14q-72 0 -124.5 17t-86.5 46.5
t-50.5 68t-16.5 81.5q0 72 36 122t120 79q-18 29 -24.5 52.5t-6.5 49.5q0 49 19 86.5t52.5 63t79 38t97.5 12.5q42 0 78.5 -8.5t63.5 -27t43 -46.5t16 -67zM250 280q-18 -29 -18 -59q0 -42 27 -70t75 -28q11 0 23.5 1t25.5 5q-38 32 -69.5 69t-63.5 82zM354 541
q0 -17 6.5 -32.5t17.5 -32.5q17 8 33.5 24.5t16.5 42.5q0 37 -36 37q-14 0 -26 -9.5t-12 -29.5z" />
    <glyph glyph-name="quotesingle" unicode="'" horiz-adv-x="240" 
d="M30 465v259h180v-259h-180z" />
    <glyph glyph-name="parenleft" unicode="(" horiz-adv-x="412" 
d="M181 -153q-28 37 -55 84.5t-48.5 102t-34.5 116.5t-13 130q0 67 12 126.5t33.5 113.5t51.5 104.5t67 99.5h218q-30 -42 -58 -87.5t-49.5 -98.5t-34.5 -115.5t-13 -137.5q0 -72 13.5 -133.5t34.5 -115t47 -100.5t52 -89h-223z" />
    <glyph glyph-name="parenright" unicode=")" horiz-adv-x="412" 
d="M231 723q28 -38 55 -85t48.5 -101.5t34.5 -117t13 -129.5t-12 -126.5t-33.5 -113.5t-51.5 -104.5t-67 -99.5h-218q30 42 58 87.5t49.5 98.5t34.5 115.5t13 137.5q0 72 -13.5 133.5t-34.5 115t-47 100.5t-52 89h223z" />
    <glyph glyph-name="asterisk" unicode="*" horiz-adv-x="482" 
d="M299 644l103 26l29 -98l-94 -49l64 -97l-80 -61l-88 84l-87 -87l-81 62l63 99l-96 48l30 98l106 -25l15 111h102z" />
    <glyph glyph-name="plus" unicode="+" 
d="M206 114v134h-120v153h120v130h156v-130h121v-153h-121v-134h-156z" />
    <glyph glyph-name="comma" unicode="," horiz-adv-x="314" 
d="M80 157h214l-112 -301l-172 14z" />
    <glyph glyph-name="hyphen" unicode="-" horiz-adv-x="310" 
d="M20 206v166h271v-166h-271z" />
    <glyph glyph-name="period" unicode="." horiz-adv-x="296" 
d="M266 95q0 -52 -28.5 -79.5t-88.5 -27.5q-62 0 -90.5 26.5t-28.5 80.5t28.5 81.5t90.5 27.5q117 0 117 -109z" />
    <glyph glyph-name="slash" unicode="/" horiz-adv-x="507" 
d="M11 -92l281 847h192l-280 -847h-193z" />
    <glyph glyph-name="zero" unicode="0" horiz-adv-x="608" 
d="M300 -12q-76 0 -129 22t-86.5 68.5t-48.5 118t-15 170.5q0 98 16.5 168t52 115t90 66t130.5 21q77 0 130 -21t85.5 -66t47 -114t14.5 -165q0 -102 -16 -174.5t-51 -119t-89.5 -68t-130.5 -21.5zM305 140q15 0 25.5 9t17.5 33.5t10.5 68.5t3.5 115q0 68 -3 110.5t-10 66
t-17 32t-25 8.5t-26 -8t-18.5 -31.5t-11.5 -65.5t-4 -111q0 -70 3 -114.5t10 -69.5t18 -34t27 -9z" />
    <glyph glyph-name="one" unicode="1" horiz-adv-x="471" 
d="M183 0v500q-12 -6 -33 -11t-43.5 -8.5t-43.5 -5.5t-33 -2l-7 168q63 5 121 25t96 58h155v-724h-212z" />
    <glyph glyph-name="two" unicode="2" horiz-adv-x="562" 
d="M281 737q65 0 111.5 -14t76 -39.5t43 -61t13.5 -78.5q0 -36 -8.5 -67t-27.5 -62t-49.5 -65.5t-73.5 -77.5l-89 -90v-6h259v-176h-504v174l141 160q61 67 98.5 113.5t37.5 87.5q0 17 -8.5 30.5t-35.5 13.5q-28 0 -44 -20.5t-21 -68.5l-191 30q5 57 28 98.5t59 67.5
t83.5 38.5t101.5 12.5z" />
    <glyph glyph-name="three" unicode="3" horiz-adv-x="569" 
d="M194 223q5 -45 21.5 -62t48.5 -17q30 0 48.5 18t18.5 57q0 40 -18 57.5t-64 17.5h-78v147h47q103 0 103 83q0 27 -11.5 42t-39.5 15q-30 0 -44.5 -19.5t-21.5 -58.5l-187 33q10 56 34 94.5t58.5 62t79.5 34t99 10.5q113 0 176 -45.5t63 -135.5q0 -30 -11 -56.5t-29 -47.5
t-41.5 -37t-48.5 -26v-5q73 -20 110.5 -61.5t37.5 -115.5q0 -52 -20.5 -93t-57.5 -69t-88.5 -42.5t-113.5 -14.5q-48 0 -91.5 9t-78.5 31.5t-58.5 61t-30.5 96.5z" />
    <glyph glyph-name="four" unicode="4" horiz-adv-x="641" 
d="M346 0v146h-314v144l259 434h259v-415h77v-163h-77v-146h-204zM346 309v237l-140 -237h140z" />
    <glyph glyph-name="five" unicode="5" horiz-adv-x="578" 
d="M87 724h416v-172h-265l-15 -137q23 20 55 34t80 14q86 0 136 -55t50 -166q0 -63 -22.5 -110.5t-60.5 -79.5t-89.5 -48t-108.5 -16q-46 0 -88.5 10t-76.5 33t-56.5 62t-29.5 97l179 34q3 -43 23 -61.5t52 -18.5q33 0 53 23.5t20 66.5q0 27 -6 42.5t-15 23t-19.5 9.5
t-19.5 2q-26 0 -47.5 -13.5t-35.5 -28.5l-135 53z" />
    <glyph glyph-name="six" unicode="6" horiz-adv-x="590" 
d="M384 513q-3 42 -18 59t-44 17q-18 0 -33.5 -7.5t-27 -28t-18.5 -55.5t-8 -89q26 17 58.5 27.5t75.5 10.5q38 0 74 -11t64 -35.5t45 -64.5t17 -97q0 -68 -22 -116t-58.5 -78t-85 -43.5t-102.5 -13.5q-80 0 -131.5 27t-82.5 75t-43 114.5t-12 144.5q0 66 13.5 134.5
t47.5 125t93 92.5t151 36q40 0 76.5 -7.5t67 -27t52.5 -54.5t34 -89zM243 283q0 -30 3 -56.5t10 -45.5t19 -30t30 -11q17 0 27 7t15.5 18.5t7.5 26t2 28.5q0 42 -12.5 62t-43.5 20q-12 0 -28.5 -5t-29.5 -14z" />
    <glyph glyph-name="seven" unicode="7" horiz-adv-x="549" 
d="M41 -1l262 553h-277v172h495v-154l-258 -571h-222z" />
    <glyph glyph-name="eight" unicode="8" horiz-adv-x="602" 
d="M460 398q70 -35 99.5 -78t29.5 -107q0 -45 -20.5 -86t-59.5 -71.5t-95.5 -49t-128.5 -18.5q-75 0 -127.5 17t-86 44.5t-49 63t-15.5 72.5q0 57 29 101t105 73q-32 16 -52.5 36t-32 41.5t-15.5 44t-4 44.5q0 47 19 86t54 67t86 43.5t114 15.5q64 0 112 -13.5t79.5 -37.5
t47.5 -56.5t16 -70.5q0 -30 -7.5 -53.5t-21 -42.5t-33 -34.5t-43.5 -30.5zM254 289q-16 -14 -29.5 -34t-13.5 -50q0 -31 18 -52t60 -21q32 0 52.5 18t20.5 48q0 36 -28.5 54t-79.5 37zM334 464q22 19 31 39t9 43t-15 38.5t-42 15.5q-29 0 -43.5 -14.5t-14.5 -36.5
q0 -21 14 -41t61 -44z" />
    <glyph glyph-name="nine" unicode="9" horiz-adv-x="589" 
d="M200 228q3 -18 7.5 -34t12.5 -27.5t20.5 -18.5t30.5 -7q38 0 62.5 42t24.5 133q-50 -34 -136 -34q-38 0 -74.5 10.5t-65 35t-46 64.5t-17.5 99q0 66 23.5 113t62.5 76.5t89 43t104 13.5q75 0 125.5 -27t80.5 -75t42.5 -114.5t12.5 -144.5q0 -41 -4.5 -85.5t-16.5 -87.5
t-33 -82t-54 -68.5t-79 -47t-109 -17.5q-45 0 -85.5 9t-73.5 30.5t-56 57t-32 88.5zM346 438q-2 75 -12.5 111.5t-47.5 36.5q-17 0 -27.5 -7t-16 -18t-7.5 -26t-2 -30q0 -40 13 -61.5t45 -21.5q10 0 24.5 3.5t30.5 12.5z" />
    <glyph glyph-name="colon" unicode=":" horiz-adv-x="316" 
d="M276 95q0 -52 -28.5 -79.5t-88.5 -27.5q-62 0 -90.5 26.5t-28.5 80.5t28.5 81.5t90.5 27.5q117 0 117 -109zM276 401q0 -52 -28.5 -79.5t-88.5 -27.5q-62 0 -90.5 26.5t-28.5 80.5t28.5 81.5t90.5 27.5q117 0 117 -109z" />
    <glyph glyph-name="semicolon" unicode=";" horiz-adv-x="337" 
d="M75 157h214l-112 -301l-172 14zM307 401q0 -52 -28.5 -79.5t-88.5 -27.5q-62 0 -90.5 26.5t-28.5 80.5t28.5 81.5t90.5 27.5q117 0 117 -109z" />
    <glyph glyph-name="less" unicode="&#x3c;" 
d="M55 204v181l402 129v-162l-225 -58l225 -63v-157z" />
    <glyph glyph-name="equal" unicode="=" 
d="M85 100v152h398v-152h-398zM85 311v152h398v-152h-398z" />
    <glyph glyph-name="greater" unicode="&#x3e;" 
d="M103 73v159l225 62l-225 60v160l402 -129v-182z" />
    <glyph glyph-name="question" unicode="?" horiz-adv-x="585" 
d="M162 206v187q32 2 65 9t60 21.5t44.5 38t17.5 58.5q0 28 -12.5 44.5t-41.5 16.5q-39 0 -53.5 -26.5t-18.5 -68.5l-208 30q6 59 30 101.5t62 69.5t87.5 40t107.5 13q52 0 101 -11.5t87 -38t61 -70.5t23 -109q0 -87 -47.5 -148.5t-152.5 -90.5v-66h-212zM377 82
q0 -45 -27 -69.5t-84 -24.5q-112 0 -112 94q0 46 27.5 71t84.5 25q56 0 83.5 -25t27.5 -71z" />
    <glyph glyph-name="at" unicode="@" horiz-adv-x="867" 
d="M630 -184q-29 -8 -75.5 -16.5t-119.5 -8.5q-83 0 -156 23.5t-128 71.5t-86.5 121t-31.5 173q0 90 30.5 165.5t86.5 130t136 85.5t178 31q84 0 152.5 -25t117 -70t74.5 -108.5t26 -139.5q0 -68 -16 -117.5t-43.5 -82t-65.5 -48t-83 -15.5q-49 0 -83.5 16t-46.5 39
q-23 -29 -49 -39t-53 -10q-31 0 -57.5 13t-45.5 37.5t-30 59t-11 77.5q0 46 11 86t32 69t51 46t68 17q28 0 48.5 -10t31.5 -24l11 28h100v-270q0 -31 35 -31q25 0 38.5 20t19.5 46.5t7 52.5t1 38q0 44 -12 85.5t-40.5 73.5t-76 51.5t-119.5 19.5q-87 0 -143 -28.5t-89 -71.5
t-45.5 -94t-12.5 -96q0 -76 20.5 -129.5t57.5 -87.5t89 -49.5t116 -15.5q41 0 78 6t78 17zM483 289q-5 7 -17 10.5t-21 3.5q-31 0 -48.5 -24.5t-17.5 -79.5q0 -47 12 -78t44 -31q13 0 22 4t26 15v180z" />
    <glyph glyph-name="A" unicode="A" horiz-adv-x="731" 
d="M486 724l260 -724h-236l-48 141h-205l-40 -141h-226l232 724h263zM356 524h-6l-63 -220h133z" />
    <glyph glyph-name="B" unicode="B" horiz-adv-x="646" 
d="M51 0v724h322q64 0 107 -13.5t68.5 -37.5t36 -56.5t10.5 -69.5q0 -35 -10.5 -62.5t-28.5 -48t-41 -35t-48 -22.5v-3q85 -9 124 -54t39 -120q0 -56 -21.5 -94.5t-59 -62.5t-88 -34.5t-109.5 -10.5h-301zM303 148q47 0 71.5 14.5t24.5 58.5q0 25 -7 39t-19 21t-27.5 8.5
t-32.5 1.5h-45v-143h35zM278 437q24 0 44 2.5t34 10.5t22 22t8 38t-9 37t-22.5 19t-29.5 7t-30 1h-27v-137h10z" />
    <glyph glyph-name="C" unicode="C" horiz-adv-x="698" 
d="M375 -12q-94 0 -160.5 25t-108.5 72.5t-61.5 116t-19.5 155.5q0 81 21.5 150.5t66.5 120.5t113 80t161 29q64 0 118.5 -16t94.5 -49.5t63 -86t25 -125.5l-196 -19q-2 73 -30 100.5t-79 27.5q-64 0 -98.5 -47.5t-34.5 -156.5q0 -113 32.5 -161t101.5 -48q31 0 51 9.5
t32 24.5t18.5 34.5t10.5 39.5l192 -30q-7 -69 -38 -116t-75.5 -76t-97 -41.5t-102.5 -12.5z" />
    <glyph glyph-name="D" unicode="D" horiz-adv-x="721" 
d="M51 0v724h286q94 0 162 -24.5t111.5 -70t64.5 -110.5t21 -146q0 -83 -22.5 -152t-68.5 -118t-117 -76t-168 -27h-269zM305 166q54 0 87.5 14t52 40.5t25 64t6.5 84.5q0 54 -8 90.5t-26.5 59t-48.5 32t-73 9.5h-52v-394h37z" />
    <glyph glyph-name="E" unicode="E" horiz-adv-x="591" 
d="M268 176h303v-176h-520v724h495v-172h-278v-113h264v-165h-264v-98z" />
    <glyph glyph-name="F" unicode="F" horiz-adv-x="559" 
d="M268 0h-217v724h491v-172h-274v-125h250v-164h-250v-263z" />
    <glyph glyph-name="G" unicode="G" horiz-adv-x="741" 
d="M527 80q-14 -25 -35.5 -42.5t-47.5 -28.5t-55.5 -16t-58.5 -5q-81 0 -139 27t-95 75t-54 114t-17 144q0 84 21.5 155t66.5 123t113.5 81.5t162.5 29.5q62 0 115 -14t93.5 -45.5t65 -81t29.5 -121.5l-201 -19q-1 15 -4.5 35t-14 37t-30.5 29t-56 12q-38 0 -64 -14t-42 -40
t-22.5 -63.5t-6.5 -84.5t4 -86.5t18 -68t40.5 -44.5t70.5 -16q50 0 76.5 19.5t26.5 61.5v6h-71v140h288v-379h-156z" />
    <glyph glyph-name="H" unicode="H" horiz-adv-x="738" 
d="M687 0h-217v269h-202v-269h-217v724h217v-276h202v276h217v-724z" />
    <glyph glyph-name="I" unicode="I" horiz-adv-x="319" 
d="M268 0h-217v724h217v-724z" />
    <glyph glyph-name="J" unicode="J" horiz-adv-x="560" 
d="M296 724h217v-503q0 -107 -66.5 -170t-189.5 -63q-49 0 -94 9.5t-79.5 35t-56 70t-23.5 115.5l209 30q1 -22 2.5 -40t6 -30.5t13.5 -19.5t24 -7q23 0 30 16.5t7 43.5v513z" />
    <glyph glyph-name="K" unicode="K" horiz-adv-x="702" 
d="M268 445l235 279h224l-244 -292l222 -432h-252l-126 267l-60 -67v-200h-216v724h216z" />
    <glyph glyph-name="L" unicode="L" horiz-adv-x="585" 
d="M268 176h295v-176h-512v724h217v-548z" />
    <glyph glyph-name="M" unicode="M" horiz-adv-x="933" 
d="M882 0h-201v515h-7l-123 -515h-182l-113 517h-8v-517h-197v724h320l93 -449h8l91 449h319v-724z" />
    <glyph glyph-name="N" unicode="N" horiz-adv-x="745" 
d="M451 0l-204 424v-424h-196v724h248l201 -432v432h194v-724h-243z" />
    <glyph glyph-name="O" unicode="O" horiz-adv-x="761" 
d="M375 -12q-95 0 -161.5 27.5t-108.5 76t-61 116t-19 148.5t22.5 150.5t68 120.5t115 80.5t162.5 29.5q94 0 159 -29t106 -79t59.5 -117t18.5 -142q0 -88 -21.5 -158.5t-65.5 -120t-112 -76.5t-162 -27zM383 156q29 0 53 9.5t41.5 33t27 63t9.5 99.5q0 57 -7.5 96
t-23.5 63.5t-39.5 35t-55.5 10.5q-69 0 -104 -46.5t-35 -158.5q0 -59 8.5 -98.5t25 -63t42 -33.5t58.5 -10z" />
    <glyph glyph-name="P" unicode="P" horiz-adv-x="626" 
d="M267 0h-216v724h313q69 0 115.5 -20t74.5 -53t39.5 -75t11.5 -85q0 -132 -69.5 -204.5t-220.5 -72.5h-48v-214zM287 372q20 0 37.5 4.5t30.5 16t20.5 31t7.5 49.5q0 31 -8.5 49t-21.5 27t-28 11.5t-27 2.5h-31v-191h20z" />
    <glyph glyph-name="Q" unicode="Q" horiz-adv-x="761" 
d="M375 -12q-95 0 -161.5 27.5t-108.5 76t-61 116t-19 148.5t22.5 150.5t68 120.5t115 80.5t162.5 29.5q94 0 159 -29t106 -79t59.5 -117t18.5 -142q0 -79 -20 -142t-55 -111l79 -78l-117 -104l-83 84q-35 -14 -75 -22.5t-90 -8.5zM326 255l111 107l59 -69l22 -47q5 26 7 56
t2 56q0 57 -10 96.5t-28 64.5t-43.5 36t-57.5 11q-69 0 -104 -46.5t-35 -158.5q0 -59 8.5 -100t25 -66t42 -36t58.5 -11q8 0 18.5 1.5t17.5 3.5z" />
    <glyph glyph-name="R" unicode="R" horiz-adv-x="659" 
d="M655 0h-234l-120 256h-34v-256h-216v724h317q67 0 114 -17t76.5 -45.5t42.5 -67t13 -80.5q0 -80 -31 -128.5t-80 -77.5zM291 412q18 0 35.5 3t32 12t23.5 24.5t9 41.5q0 30 -17 50t-62 20h-45v-151h24z" />
    <glyph glyph-name="S" unicode="S" horiz-adv-x="608" 
d="M300 585q-31 0 -50 -11.5t-19 -37.5q0 -29 27 -44t67.5 -26.5t87.5 -24.5t87.5 -37t67.5 -64.5t27 -106.5t-25 -112.5t-66.5 -76t-95.5 -43t-112 -13.5q-27 0 -59 2.5t-64.5 10.5t-63 23.5t-54.5 42.5t-39 66.5t-17 95.5l192 26q3 -24 8.5 -44.5t17 -35.5t32 -24t53.5 -9
q38 0 61.5 14t23.5 47q0 29 -27 43.5t-67.5 25t-87.5 22.5t-87.5 35.5t-67.5 64t-27 109.5q0 58 22.5 102t61.5 73t90.5 44t109.5 15q49 0 97.5 -7.5t87.5 -30.5t64 -65t27 -112l-196 -22q0 50 -21.5 67.5t-65.5 17.5z" />
    <glyph glyph-name="T" unicode="T" horiz-adv-x="636" 
d="M211 0v552h-208v172h630v-172h-205v-552h-217z" />
    <glyph glyph-name="U" unicode="U" horiz-adv-x="702" 
d="M353 156q33 0 51.5 9t27.5 27.5t11 47t2 66.5v418h215v-447q0 -78 -23.5 -133t-65 -89.5t-99 -50.5t-125.5 -16q-80 0 -138 17t-95.5 53t-55.5 91.5t-18 133.5v441h217v-414q0 -36 1.5 -64.5t10.5 -48.5t28.5 -30.5t55.5 -10.5z" />
    <glyph glyph-name="V" unicode="V" horiz-adv-x="704" 
d="M209 0l-224 724h246l126 -515h9l132 515h221l-219 -724h-291z" />
    <glyph glyph-name="W" unicode="W" horiz-adv-x="1040" 
d="M606 0l-80 411h-6l-76 -411h-292l-152 724h225l81 -505h6l99 505h227l106 -503h8l69 503h219l-157 -724h-277z" />
    <glyph glyph-name="X" unicode="X" horiz-adv-x="678" 
d="M465 361l229 -361h-252l-116 190l-110 -190h-232l229 363l-218 361h240l116 -206l116 206h222z" />
    <glyph glyph-name="Y" unicode="Y" horiz-adv-x="646" 
d="M441 0h-218v264l-253 460h236l125 -271h8l119 271h218l-236 -460z" />
    <glyph glyph-name="Z" unicode="Z" horiz-adv-x="596" 
d="M278 176h300v-176h-558v154l299 398h-293v172h540v-155z" />
    <glyph glyph-name="bracketleft" unicode="[" horiz-adv-x="365" 
d="M46 -143v867h285v-117h-79v-633h79v-117h-285z" />
    <glyph glyph-name="backslash" unicode="\" horiz-adv-x="513" 
d="M309 -92l-280 847h192l281 -847h-193z" />
    <glyph glyph-name="bracketright" unicode="]" horiz-adv-x="365" 
d="M34 -143v117h79v633h-79v117h285v-867h-285z" />
    <glyph glyph-name="asciicircum" unicode="^" horiz-adv-x="795" 
d="M506 299l-108 195l-105 -195h-197l197 365h213l199 -365h-199z" />
    <glyph glyph-name="underscore" unicode="_" horiz-adv-x="500" 
d="M0 -181v146h500v-146h-500z" />
    <glyph glyph-name="grave" unicode="`" horiz-adv-x="500" 
d="M63 739h214l52 -161l-136 -6z" />
    <glyph glyph-name="a" unicode="a" horiz-adv-x="571" 
d="M505 155q0 -21 5.5 -30.5t25.5 -9.5q11 0 31 6l4 -110q-8 -4 -22.5 -8t-31.5 -7.5t-35 -6t-32 -2.5q-52 0 -87.5 16.5t-49.5 59.5q-23 -34 -56.5 -54.5t-87.5 -20.5q-49 0 -79.5 14t-48 35t-24 45.5t-6.5 45.5q0 58 25.5 93.5t67 54.5t93 25.5t103.5 8.5v24q0 13 -0.5 25
t-4.5 21t-13 14.5t-25 5.5q-26 0 -37 -14t-19 -47l-173 30q6 37 21.5 68.5t44 54t72 35t105.5 12.5q115 0 174.5 -45.5t59.5 -145.5v-193zM301 207q-9 0 -22.5 -1.5t-25.5 -6t-21 -13.5t-9 -25q0 -13 7.5 -24.5t27.5 -11.5q16 0 27 4t16 9v69z" />
    <glyph glyph-name="b" unicode="b" horiz-adv-x="603" 
d="M36 0v755h210v-272q28 31 62.5 43.5t74.5 12.5q39 0 74.5 -14t63 -45.5t43.5 -81.5t16 -123q0 -78 -15.5 -132.5t-44 -89t-69 -50t-89.5 -15.5q-51 0 -84 18.5t-54 44.5l-6 -1l-9 -50h-173zM246 166q23 -18 50 -18t44 25t17 93q0 18 -1.5 37.5t-8 36t-19 27t-34.5 10.5
q-25 0 -48 -18v-193z" />
    <glyph glyph-name="c" unicode="c" horiz-adv-x="550" 
d="M285 -12q-67 0 -117 19.5t-83 54.5t-49.5 83.5t-16.5 106.5q0 135 73 211t210 76q107 0 168.5 -53t71.5 -156l-184 -27q-2 20 -4.5 36.5t-8.5 28t-16 17.5t-27 6q-31 0 -46.5 -25t-15.5 -94t12 -101t51 -32q35 0 51 22t21 65l167 -31q-14 -107 -82.5 -157t-174.5 -50z
" />
    <glyph glyph-name="d" unicode="d" horiz-adv-x="604" 
d="M567 0h-174l-12 49l-5 1q-43 -62 -138 -62q-48 0 -87 15t-67.5 46.5t-44 81.5t-15.5 120q0 81 20.5 136t52.5 88.5t71.5 48.5t78.5 15q38 0 63.5 -9t47.5 -29v254h209v-755zM358 367q-11 8 -20.5 10.5t-17.5 2.5q-20 0 -33.5 -10t-22.5 -26.5t-13 -38t-4 -45.5
q0 -48 16 -80.5t54 -32.5q8 0 18.5 1.5t22.5 11.5v207z" />
    <glyph glyph-name="e" unicode="e" horiz-adv-x="548" 
d="M291 -12q-76 0 -128 23t-84 61t-46 87.5t-14 102.5q0 70 21 122.5t57.5 86.5t85 51t103.5 17q64 0 110 -17.5t76 -50.5t44 -80.5t14 -106.5v-28t-2 -28h-287q0 -48 12.5 -69.5t49.5 -21.5q27 0 42.5 16t19.5 41l165 -41q-6 -35 -23.5 -65t-47 -52.5t-71.5 -35t-97 -12.5z
M315 333q0 24 -3 38t-8.5 21t-12 9t-13.5 2q-17 0 -27 -14t-10 -56h74z" />
    <glyph glyph-name="f" unicode="f" horiz-adv-x="405" 
d="M419 611q-15 5 -32 9t-35 4t-32.5 -2.5t-25 -11t-16.5 -24.5t-6 -43v-15h133v-143h-133v-385h-211v385h-65v143h65v39q0 54 17.5 92t48 62t72.5 35.5t91 11.5q51 0 87.5 -8t49.5 -14z" />
    <glyph glyph-name="g" unicode="g" horiz-adv-x="568" 
d="M279 539q38 0 74.5 -5t61.5 -18q3 17 10.5 34t19.5 30.5t29 21.5t38 8q17 0 38 -6v-122q-20 2 -40.5 -0.5t-30.5 -7.5q29 -30 40 -61t11 -63q0 -88 -65.5 -136t-178.5 -48q-28 0 -49.5 2.5t-46.5 7.5q-17 -17 -12 -29.5t27 -13.5l169 -9q87 -5 136.5 -41.5t49.5 -116.5
q0 -98 -75.5 -144.5t-207.5 -46.5q-143 0 -207 27.5t-64 88.5q0 30 24 52.5t78 24.5v5q-50 14 -72.5 40t-22.5 64q0 43 24 71t70 56q-35 23 -54.5 55.5t-19.5 82.5q0 41 15.5 77t46 62.5t76.5 42t108 15.5zM344 350q0 28 -15 42.5t-41 14.5t-43 -14t-17 -45q0 -54 58 -54
q24 0 41 14.5t17 41.5zM360 -78q0 11 -8.5 17t-37.5 8l-118 7q-4 -5 -6 -11.5t-2 -11.5q0 -13 10 -20.5t25 -11t33 -4.5t34 -1q26 0 48 5.5t22 22.5z" />
    <glyph glyph-name="h" unicode="h" horiz-adv-x="584" 
d="M552 0h-211v325q0 32 -12.5 42.5t-30.5 10.5q-17 0 -31 -6t-22 -15v-357h-211v755h208v-275q19 21 52.5 40t90.5 19q85 0 126 -42.5t41 -133.5v-363z" />
    <glyph glyph-name="i" unicode="i" horiz-adv-x="286" 
d="M249 0h-211v528h211v-528zM261 683q0 -56 -30.5 -86.5t-87.5 -30.5q-56 0 -86 30.5t-30 86.5q0 55 30 84.5t86 29.5q57 0 87.5 -29.5t30.5 -84.5z" />
    <glyph glyph-name="j" unicode="j" horiz-adv-x="286" 
d="M24 -223q-57 0 -95 12t-54 23l12 139q11 -6 35 -14t53 -8q12 0 23 2.5t20 10.5t14.5 22t5.5 38v526h211v-545q0 -56 -17.5 -95t-48 -64t-71.5 -36t-88 -11zM260 681q0 -56 -30 -86.5t-87 -30.5q-56 0 -86.5 30.5t-30.5 86.5q0 55 30.5 84.5t86.5 29.5q57 0 87 -29.5
t30 -84.5z" />
    <glyph glyph-name="k" unicode="k" horiz-adv-x="597" 
d="M247 384l124 144h231l-168 -189l181 -339h-234l-111 213l-23 -22v-191h-211v755h211v-371z" />
    <glyph glyph-name="l" unicode="l" horiz-adv-x="286" 
d="M249 0h-211v755h211v-755z" />
    <glyph glyph-name="m" unicode="m" horiz-adv-x="842" 
d="M245 0h-211v528h177l9 -44q23 22 57.5 38.5t82.5 16.5q43 0 79.5 -14t58.5 -49q18 27 56 45t89 18q76 0 121 -41.5t45 -129.5v-368h-211v333q0 45 -37 45q-21 0 -35 -16v-362h-211v333q0 23 -10 34t-25 11q-7 0 -17 -2t-18 -12v-364z" />
    <glyph glyph-name="n" unicode="n" horiz-adv-x="584" 
d="M552 0h-211v325q0 32 -12.5 42.5t-30.5 10.5q-17 0 -31 -6t-22 -15v-357h-211v528h187l10 -49q20 24 57.5 42t91.5 18q89 0 130.5 -42.5t41.5 -133.5v-363z" />
    <glyph glyph-name="o" unicode="o" horiz-adv-x="597" 
d="M290 -12q-75 0 -126.5 20t-84 56.5t-46.5 86.5t-14 110q0 63 16.5 114.5t51.5 87.5t89 56t128 20q75 0 127 -20t85 -56t47.5 -85t14.5 -107q0 -65 -16.5 -117t-51.5 -89t-89.5 -57t-130.5 -20zM298 128q16 0 27.5 6.5t18.5 22.5t10.5 42.5t3.5 66.5q0 37 -2.5 62t-9 40
t-17.5 21.5t-28 6.5t-28.5 -6t-18.5 -20.5t-10.5 -40t-3.5 -64.5t2.5 -65.5t9 -42t17.5 -22.5t29 -7z" />
    <glyph glyph-name="p" unicode="p" horiz-adv-x="602" 
d="M36 528h178l12 -53q33 38 74.5 51t74.5 13q42 0 79 -14t64.5 -45.5t43.5 -81.5t16 -123q0 -80 -16.5 -134.5t-45 -88.5t-66 -49t-80.5 -15q-47 0 -75 10.5t-50 32.5v-243h-209v740zM245 167q6 -8 22 -13.5t27 -5.5q32 0 47 28.5t15 89.5q0 63 -16 87.5t-45 24.5
q-24 0 -50 -18v-193z" />
    <glyph glyph-name="q" unicode="q" horiz-adv-x="605" 
d="M567 -212h-209v246q-23 -23 -53 -34.5t-71 -11.5q-47 0 -86 15t-66.5 47t-42.5 82.5t-15 121.5q0 79 20.5 133.5t53 88.5t72 48.5t78.5 14.5q43 0 76 -15t54 -50l21 54h168v-740zM358 367q-13 8 -21.5 10.5t-19.5 2.5q-37 0 -53.5 -33t-16.5 -82q0 -22 3 -42.5t10.5 -37
t21.5 -26.5t35 -10q8 0 18.5 1.5t22.5 9.5v207z" />
    <glyph glyph-name="r" unicode="r" horiz-adv-x="423" 
d="M419 343q-53 2 -96.5 -8t-77.5 -33v-302h-211v528h181l15 -90q9 16 22.5 34t32 33t44 24.5t58.5 9.5q8 0 16 -0.5t16 -1.5v-194z" />
    <glyph glyph-name="s" unicode="s" horiz-adv-x="516" 
d="M265 539q87 0 145.5 -32.5t84.5 -96.5l-160 -57q-10 23 -30.5 39.5t-45.5 16.5q-17 0 -27 -6t-10 -20q0 -10 8 -16.5t21 -10.5t30 -6.5t36 -5.5q30 -4 63 -11.5t60.5 -24.5t45.5 -46.5t18 -78.5q0 -52 -22 -89t-58 -60.5t-82.5 -34.5t-96.5 -11q-56 0 -97.5 10t-70.5 27
t-46.5 39.5t-24.5 48.5l165 65q4 -10 10 -20.5t15.5 -19.5t23 -14.5t32.5 -5.5q29 0 40 7t11 19q0 20 -27 28t-63 14q-30 5 -63.5 13.5t-61.5 26t-46.5 48.5t-18.5 81q0 46 19.5 81t52.5 57.5t77 34t93 11.5z" />
    <glyph glyph-name="t" unicode="t" horiz-adv-x="444" 
d="M440 32q-10 -6 -27.5 -14t-41 -14.5t-51.5 -11t-59 -4.5q-92 0 -140.5 44t-48.5 145v208h-76v143h76v158l211 26v-184h135v-143h-135v-185q0 -29 11.5 -42.5t37.5 -13.5q23 0 45.5 7t37.5 15z" />
    <glyph glyph-name="u" unicode="u" horiz-adv-x="575" 
d="M31 528h211v-325q0 -32 10 -42.5t29 -10.5q14 0 27 6t21 15v357h211v-528h-180l-16 59q-19 -32 -56 -51.5t-91 -19.5q-81 0 -123.5 42t-42.5 130v368z" />
    <glyph glyph-name="v" unicode="v" horiz-adv-x="568" 
d="M158 0l-172 528h228l71 -334h6l72 334h219l-176 -528h-248z" />
    <glyph glyph-name="w" unicode="w" horiz-adv-x="868" 
d="M132 0l-146 528h209l67 -318h3l71 318h201l74 -316h5l59 316h207l-152 -528h-233l-62 280h-4l-49 -280h-250z" />
    <glyph glyph-name="x" unicode="x" horiz-adv-x="571" 
d="M408 263l167 -263h-224l-75 125l-76 -125h-197l167 257l-174 271h227l76 -139l74 139h200z" />
    <glyph glyph-name="y" unicode="y" horiz-adv-x="567" 
d="M-16 528h227l77 -323h5l72 323h218l-194 -558q-18 -51 -36.5 -87.5t-43.5 -60t-59 -34.5t-83 -11q-16 0 -35 2t-37 5t-33.5 7.5t-24.5 9.5l13 144q51 -16 75 -16q25 0 36.5 9.5t18.5 25.5l9 20z" />
    <glyph glyph-name="z" unicode="z" horiz-adv-x="473" 
d="M258 156h199v-156h-433v137l191 248h-191v143h415v-137z" />
    <glyph glyph-name="braceleft" unicode="{" horiz-adv-x="369" 
d="M333 -145h-98q-84 0 -128.5 33t-44.5 111q0 21 2.5 40.5t5 41t5 46t2.5 54.5q0 23 -10 41.5t-43 18.5h-25v113h26q32 0 42 17.5t10 42.5q0 30 -2.5 53.5t-5 44.5t-5 40.5t-2.5 40.5q0 77 44 110.5t129 33.5h98v-129h-5q-24 0 -30 -11.5t-6 -30.5q0 -44 9 -84.5t9 -82.5
q0 -43 -22.5 -64.5t-71.5 -38.5q24 -8 42 -17t29.5 -20.5t17 -26.5t5.5 -36q0 -42 -9 -84t-9 -87q0 -18 5.5 -28.5t28.5 -10.5h7v-131z" />
    <glyph glyph-name="bar" unicode="|" horiz-adv-x="280" 
d="M44 -143v898h192v-898h-192z" />
    <glyph glyph-name="braceright" unicode="}" horiz-adv-x="369" 
d="M36 737h98q84 0 128.5 -33t44.5 -111q0 -21 -2.5 -40.5t-5 -41t-5 -46t-2.5 -54.5q0 -23 10 -41.5t43 -18.5h25v-113h-26q-32 0 -42 -17.5t-10 -42.5q0 -30 2.5 -53.5t5 -44.5t5 -40.5t2.5 -40.5q0 -77 -44 -110.5t-129 -33.5h-98v129h5q24 0 30 11.5t6 30.5
q0 44 -9 84.5t-9 82.5q0 43 22.5 64.5t71.5 38.5q-49 16 -71.5 37t-22.5 63t9 84t9 87q0 18 -5.5 28.5t-28.5 10.5h-7v131z" />
    <glyph glyph-name="asciitilde" unicode="~" horiz-adv-x="683" 
d="M214 477q25 0 61.5 -6.5t73 -14t68.5 -14t49 -6.5q15 0 18 9.5t3 27.5l109 -6q4 -31 1 -61t-15 -54t-35.5 -38.5t-60.5 -14.5q-28 0 -65.5 6.5t-74.5 14.5t-68 14.5t-46 6.5q-17 0 -22.5 -9t-0.5 -32l-119 4q-4 34 0 65.5t18.5 55.5t40.5 38t65 14z" />
    <glyph glyph-name="uni00A0" unicode="&#xa0;" horiz-adv-x="134" 
 />
    <glyph glyph-name="exclamdown" unicode="&#xa1;" horiz-adv-x="315" 
d="M248 321l20 -518h-226l21 518h185zM45 445q0 45 27 69.5t84 24.5q58 0 85 -23t27 -71q0 -46 -27 -71t-85 -25q-56 0 -83.5 25t-27.5 71z" />
    <glyph glyph-name="cent" unicode="&#xa2;" horiz-adv-x="559" 
d="M389 721v-107q66 -17 105.5 -64t47.5 -120l-187 -25q-4 38 -13.5 57.5t-37.5 19.5q-15 0 -26 -4t-18.5 -15.5t-11.5 -33t-4 -56.5q0 -36 4 -59t12 -36.5t20 -18.5t28 -5q29 0 43.5 17.5t19.5 58.5l172 -28q-11 -76 -54.5 -121.5t-113.5 -62.5v-118h-178v118
q-83 23 -125.5 86t-42.5 150q0 102 46.5 168t134.5 90v109h179z" />
    <glyph glyph-name="sterling" unicode="&#xa3;" horiz-adv-x="625" 
d="M79 153q24 20 38 42.5t14 56.5q0 24 -10 51h-103v144h62q-11 18 -23.5 43.5t-12.5 62.5q0 40 18 73.5t52.5 58t85.5 38.5t116 14q53 0 97 -10t77 -32.5t54 -59t29 -90.5l-191 -33q-3 13 -7 27t-11.5 25.5t-19.5 19t-30 7.5q-28 0 -41.5 -14.5t-13.5 -38.5q0 -23 9 -44
t23 -47h171v-144h-138q17 -45 2.5 -82.5t-46.5 -67.5h45q34 0 55 4.5t34 15t19.5 27t10.5 40.5l170 -27q-6 -109 -67 -161t-196 -52h-342v153h70z" />
    <glyph glyph-name="currency" unicode="&#xa4;" 
d="M448 -13l-83 84q-46 -23 -106 -23q-31 0 -58.5 6.5t-49.5 17.5q-25 -26 -45.5 -46.5t-37.5 -38.5l-104 105l88 88q-8 23 -13 48t-5 50q0 23 4.5 47.5t14.5 45.5l-86 86l106 106l81 -81q49 26 111 26q64 0 109 -23l78 77l102 -104l-81 -81q16 -42 16 -95q0 -26 -5.5 -53
t-15.5 -50l87 -86zM263 190q35 0 53 25.5t18 62.5q0 41 -18 63.5t-55 22.5q-35 0 -53 -24t-18 -62q0 -37 17.5 -62.5t55.5 -25.5z" />
    <glyph glyph-name="yen" unicode="&#xa5;" horiz-adv-x="619" 
d="M465 400h77v-161h-125v-239h-211v239h-121v161h68l-152 324h225l89 -239h6l86 239h211z" />
    <glyph glyph-name="brokenbar" unicode="&#xa6;" horiz-adv-x="280" 
d="M44 -143v388h192v-388h-192zM44 422v333h192v-333h-192z" />
    <glyph glyph-name="section" unicode="&#xa7;" horiz-adv-x="589" 
d="M28 218q0 54 24 87t69 62q-22 23 -37 55.5t-15 79.5t20 85.5t54 65.5t79.5 41.5t97.5 14.5q41 0 80 -8.5t71 -29.5t53.5 -57t27.5 -92l-176 -19q-2 37 -15.5 55.5t-46.5 18.5q-19 0 -35 -10t-16 -35q0 -26 21.5 -40.5t54.5 -26t70.5 -23t70.5 -31t54.5 -51t21.5 -81.5
t-22.5 -86.5t-63.5 -66.5q22 -23 38 -55t16 -78q0 -47 -18.5 -85.5t-52.5 -65.5t-80.5 -41.5t-101.5 -14.5q-41 0 -80 8.5t-71 29.5t-54 57t-28 92l177 19q1 -37 15 -55.5t46 -18.5q19 0 35.5 10t16.5 34q0 27 -22 41.5t-55.5 25.5t-72.5 22t-72.5 30.5t-55.5 51.5t-22 85z
M216 309q-15 -17 -15 -33q0 -15 7.5 -25.5t34.5 -21.5q9 -4 22.5 -8.5t29.5 -10t31.5 -10t28.5 -8.5q8 5 13.5 15.5t5.5 21.5q0 18 -13.5 26.5t-42.5 19.5q-20 8 -49.5 16.5t-52.5 17.5z" />
    <glyph glyph-name="dieresis" unicode="&#xa8;" horiz-adv-x="500" 
d="M234 686q0 -48 -31.5 -76t-82.5 -28q-52 0 -84.5 28t-32.5 76t32.5 76t84.5 28q51 0 82.5 -28t31.5 -76zM496 686q0 -48 -31.5 -76t-83.5 -28t-84 28t-32 76t32 76t84 28t83.5 -28t31.5 -76z" />
    <glyph glyph-name="copyright" unicode="&#xa9;" horiz-adv-x="833" 
d="M783 354q0 -83 -26.5 -150.5t-75 -115.5t-116 -74t-149.5 -26q-90 0 -158.5 26.5t-114.5 74t-69.5 111.5t-23.5 139q0 85 29 153t79 114.5t117 71.5t143 25q85 0 152.5 -24.5t115 -70.5t72.5 -110.5t25 -143.5zM418 89q121 0 188.5 68.5t67.5 190.5q0 62 -19 109.5
t-53 80t-81 49t-103 16.5q-55 0 -102 -17.5t-81.5 -51.5t-54 -82.5t-19.5 -111.5q0 -118 67 -184.5t190 -66.5zM587 282q-5 -39 -23.5 -64.5t-42.5 -40.5t-50.5 -21t-48.5 -6q-48 0 -82 14.5t-55 41t-30.5 62t-9.5 77.5t12 78t35 61.5t57 40t78 14.5q29 0 56 -8.5t49 -25.5
t35.5 -43t15.5 -61l-88 -8q-5 37 -23.5 52.5t-49.5 15.5q-36 0 -58 -26.5t-22 -91.5q0 -22 3 -42.5t12 -36.5t24.5 -26t41.5 -10q34 0 53 20t24 49z" />
    <glyph glyph-name="ordfeminine" unicode="&#xaa;" horiz-adv-x="416" 
d="M366 391q0 -14 4 -20t18 -6q9 0 21 4l3 -79q-5 -2 -16 -5t-23.5 -5.5t-26 -4t-24.5 -1.5q-38 0 -64 10t-37 40q-16 -23 -39 -36.5t-61 -13.5q-35 0 -56.5 9.5t-34.5 23.5t-17.5 30.5t-4.5 30.5q0 38 18 61t47 35t65 16t73 5q0 24 -2.5 40.5t-24.5 16.5q-15 0 -22 -8.5
t-12 -30.5l-130 23q4 25 15 46t32 36.5t52.5 24t76.5 8.5q82 0 126 -31t44 -97v-122zM212 416q-20 1 -31.5 -5.5t-12.5 -17.5q-2 -21 21 -21q8 0 13.5 1.5t9.5 3.5v39z" />
    <glyph glyph-name="guillemotleft" unicode="&#xab;" horiz-adv-x="492" 
d="M101 103l-84 152l89 153h162l-91 -148l84 -157h-160zM312 103l-84 152l89 153h162l-91 -148l84 -157h-160z" />
    <glyph glyph-name="logicalnot" unicode="&#xac;" 
d="M332 152v95h-256v153h397v-248h-141z" />
    <glyph glyph-name="uni00AD" unicode="&#xad;" horiz-adv-x="311" 
d="M20 206v166h271v-166h-271z" />
    <glyph glyph-name="registered" unicode="&#xae;" horiz-adv-x="477" 
d="M437 470q0 -44 -14.5 -80.5t-41 -62.5t-63 -40.5t-81.5 -14.5q-48 0 -85 14.5t-61.5 40t-37.5 60.5t-13 75q0 46 15.5 83.5t42.5 63t63.5 39.5t78.5 14q45 0 81.5 -13.5t62 -39t39.5 -61t14 -78.5zM380 467q0 34 -11 60.5t-29.5 44.5t-44 27t-55.5 9t-55.5 -10t-45 -28.5
t-30.5 -45t-11 -60.5q0 -64 38 -100.5t104 -36.5q64 0 102 37.5t38 102.5zM339 380h-64l-40 69h-10v-69h-55v190h76q44 0 60.5 -17t16.5 -39q0 -23 -11 -34t-24 -16zM239 487q28 0 28 21q0 14 -8.5 18t-16.5 4h-17v-43h14z" />
    <glyph glyph-name="macron" unicode="&#xaf;" horiz-adv-x="500" 
d="M84 580v130h331v-130h-331z" />
    <glyph glyph-name="degree" unicode="&#xb0;" horiz-adv-x="341" 
d="M171 582q17 0 28 13.5t11 31.5q0 17 -11 30.5t-28 13.5q-16 0 -28 -13.5t-12 -32.5q0 -17 11 -30t29 -13zM294 627q0 -27 -9 -49.5t-25.5 -39t-39 -25.5t-49.5 -9t-50 9t-39.5 25t-25.5 38t-9 48q0 28 10 51t27 39.5t39.5 25.5t47.5 9t47.5 -9t39.5 -25t26.5 -38.5
t9.5 -49.5z" />
    <glyph glyph-name="plusminus" unicode="&#xb1;" 
d="M86 0v152h120v96h-120v153h120v130h156v-130h121v-153h-121v-96h121v-152h-397z" />
    <glyph glyph-name="twosuperior" unicode="&#xb2;" horiz-adv-x="424" 
d="M218 816q46 0 79 -10t54 -27.5t30.5 -40.5t9.5 -48q0 -27 -8.5 -50t-27.5 -46t-48 -47.5t-70 -54.5v-3h161v-140h-374v134l96 82q33 28 51.5 46t28 30t11.5 20.5t2 17.5q0 8 -5 11.5t-10 3.5q-10 0 -21 -10.5t-16 -37.5l-151 16q4 41 22 70.5t46 48t64 27t76 8.5z" />
    <glyph glyph-name="threesuperior" unicode="&#xb3;" horiz-adv-x="425" 
d="M151 503q4 -22 13.5 -30.5t23.5 -8.5q31 0 31 31q0 11 -6.5 20.5t-31.5 9.5h-53v104h32q29 0 41.5 13.5t12.5 30.5q0 23 -19 23q-23 0 -29 -35l-149 23q7 40 26.5 66t46.5 41t59.5 20.5t65.5 5.5q79 0 126 -27.5t47 -84.5q0 -44 -26 -70t-62 -40v-3q101 -22 101 -106
q0 -35 -15.5 -62t-43 -45t-64.5 -27.5t-80 -9.5q-30 0 -61.5 5.5t-58.5 21t-46.5 42t-25.5 68.5z" />
    <glyph glyph-name="acute" unicode="&#xb4;" horiz-adv-x="500" 
d="M306 572l-136 6l52 161h214z" />
    <glyph glyph-name="mu" unicode="&#xb5;" horiz-adv-x="629" 
d="M62 528h211v-334q0 -27 6.5 -38.5t23.5 -11.5q16 0 25.5 4t17.5 7v373h211v-528h-167l-10 42h-8q-21 -17 -47 -31t-61 -19l18 -168h-220v704z" />
    <glyph glyph-name="paragraph" unicode="&#xb6;" horiz-adv-x="619" 
d="M567 -133h-132v740h-49v-740h-132v372q-61 3 -103.5 20t-69.5 47.5t-39 72.5t-12 94q0 69 22 117t60.5 78t91 43t113.5 13h250v-857z" />
    <glyph glyph-name="periodcentered" unicode="&#xb7;" horiz-adv-x="283" 
d="M247 314q0 -45 -25.5 -69t-79.5 -24q-55 0 -80.5 23t-25.5 70q0 45 25.5 69t80.5 24q54 0 79.5 -24t25.5 -69z" />
    <glyph glyph-name="cedilla" unicode="&#xb8;" horiz-adv-x="500" 
d="M144 -166q14 -2 26 -3t22 -1q23 0 37.5 6.5t14.5 26.5q0 22 -17.5 27t-39.5 6l17 134l86 -8l-9 -68q18 -3 34.5 -9.5t29 -17.5t20.5 -27.5t8 -40.5q0 -32 -11.5 -55.5t-32 -38.5t-48.5 -22.5t-61 -7.5q-17 0 -38.5 2.5t-45.5 7.5z" />
    <glyph glyph-name="onesuperior" unicode="&#xb9;" horiz-adv-x="350" 
d="M129 347v279q-8 -3 -22 -5.5t-29 -5t-29.5 -3.5t-22.5 -1l-5 143q20 1 41.5 5t42 10.5t38.5 15.5t31 21h138v-459h-183z" />
    <glyph glyph-name="ordmasculine" unicode="&#xba;" horiz-adv-x="433" 
d="M210 274q-54 0 -91 13t-60 37t-33.5 57.5t-10.5 74.5q0 84 49 134.5t156 50.5q54 0 92 -13.5t61.5 -37t34 -56t10.5 -71.5q0 -87 -49.5 -138t-158.5 -51zM216 374q20 0 27.5 18.5t7.5 66.5q0 43 -6 61.5t-27 18.5q-20 0 -27.5 -17.5t-7.5 -62.5q0 -48 5.5 -66.5
t27.5 -18.5z" />
    <glyph glyph-name="guillemotright" unicode="&#xbb;" horiz-adv-x="492" 
d="M175 408l89 -151l-84 -154h-160l86 156l-93 149h162zM386 408l89 -151l-84 -154h-160l86 156l-93 149h162z" />
    <glyph glyph-name="onequarter" unicode="&#xbc;" horiz-adv-x="1125" 
d="M258 -12l354 736h191l-352 -736h-193zM144 279v279q-8 -3 -22 -5.5t-29 -5t-29.5 -3.5t-22.5 -1l-5 143q20 1 41.5 5t42 10.5t38.5 15.5t31 21h138v-459h-183zM845 0v81h-207v114l164 264h217v-249h51v-129h-49v-81h-176zM844 210v110l-64 -110h64z" />
    <glyph glyph-name="onehalf" unicode="&#xbd;" horiz-adv-x="1125" 
d="M261 -12l354 736h191l-352 -736h-193zM142 279v279q-8 -3 -22 -5.5t-29 -5t-29.5 -3.5t-22.5 -1l-5 143q20 1 41.5 5t42 10.5t38.5 15.5t31 21h138v-459h-183zM883 467q46 0 79 -10t54 -27.5t30.5 -40.5t9.5 -48q0 -27 -8.5 -50t-27.5 -46t-48 -47.5t-70 -54.5v-3h161
v-140h-374v134l96 82q33 28 51.5 46t28 30t11.5 20.5t2 17.5q0 8 -5 11.5t-10 3.5q-10 0 -21 -10.5t-16 -37.5l-151 16q4 41 22 70.5t46 48t64 27t76 8.5z" />
    <glyph glyph-name="threequarters" unicode="&#xbe;" horiz-adv-x="1125" 
d="M285 -12l354 736h191l-352 -736h-193zM847 0v81h-207v114l164 264h217v-249h51v-129h-49v-81h-176zM846 210v110l-64 -110h64zM174 435q4 -22 13.5 -30.5t23.5 -8.5q31 0 31 31q0 11 -6.5 20.5t-31.5 9.5h-53v104h32q29 0 41.5 13.5t12.5 30.5q0 23 -19 23q-23 0 -29 -35
l-149 23q7 40 26.5 66t46.5 41t59.5 20.5t65.5 5.5q79 0 126 -27.5t47 -84.5q0 -44 -26 -70t-62 -40v-3q101 -22 101 -106q0 -35 -15.5 -62t-43 -45t-64.5 -27.5t-80 -9.5q-30 0 -61.5 5.5t-58.5 21t-46.5 42t-25.5 68.5z" />
    <glyph glyph-name="questiondown" unicode="&#xbf;" horiz-adv-x="593" 
d="M430 321v-187q-32 -2 -65 -9t-60 -21.5t-44.5 -38t-17.5 -58.5q0 -28 12.5 -44.5t41.5 -16.5q39 0 53.5 26.5t18.5 68.5l208 -30q-6 -59 -30 -101.5t-62 -69.5t-87.5 -40t-107.5 -13q-52 0 -101 11.5t-87 38t-61 70.5t-23 109q0 87 47.5 148.5t152.5 90.5v66h212z
M215 445q0 45 27 69.5t84 24.5q112 0 112 -94q0 -46 -27.5 -71t-84.5 -25q-56 0 -83.5 25t-27.5 71z" />
    <glyph glyph-name="Agrave" unicode="&#xc0;" horiz-adv-x="731" 
d="M486 724l260 -724h-236l-48 141h-205l-40 -141h-226l232 724h263zM356 524h-6l-63 -220h133zM144 919h214l83 -145l-144 -6z" />
    <glyph glyph-name="Aacute" unicode="&#xc1;" horiz-adv-x="731" 
d="M486 724l260 -724h-236l-48 141h-205l-40 -141h-226l232 724h263zM356 524h-6l-63 -220h133zM398 768l-144 6l83 145h214z" />
    <glyph glyph-name="Acircumflex" unicode="&#xc2;" horiz-adv-x="731" 
d="M486 724l260 -724h-236l-48 141h-205l-40 -141h-226l232 724h263zM356 524h-6l-63 -220h133zM353 836l-65 -68l-134 5l97 155h202l88 -154l-129 -5z" />
    <glyph glyph-name="Atilde" unicode="&#xc3;" horiz-adv-x="731" 
d="M486 724l260 -724h-236l-48 141h-205l-40 -141h-226l232 724h263zM356 524h-6l-63 -220h133zM277 954q25 0 45 -6.5t36.5 -14t32 -14t32.5 -6.5q15 0 18.5 9.5t3.5 27.5l96 -5q4 -31 1.5 -59.5t-13 -50.5t-31.5 -35.5t-54 -13.5q-28 0 -49 6.5t-38.5 14.5t-32 14.5
t-29.5 6.5q-17 0 -22.5 -9t-0.5 -32l-107 4q-4 34 1 64t19.5 52t37 34.5t54.5 12.5z" />
    <glyph glyph-name="Adieresis" unicode="&#xc4;" horiz-adv-x="731" 
d="M486 724l260 -724h-236l-48 141h-205l-40 -141h-226l232 724h263zM356 524h-6l-63 -220h133zM335 874q0 -48 -31.5 -76t-82.5 -28q-52 0 -84.5 28t-32.5 76t32.5 76t84.5 28q51 0 82.5 -28t31.5 -76zM597 874q0 -48 -31.5 -76t-83.5 -28t-84 28t-32 76t32 76t84 28
t83.5 -28t31.5 -76z" />
    <glyph glyph-name="Aring" unicode="&#xc5;" horiz-adv-x="731" 
d="M498 793q0 -40 -17 -69l265 -724h-236l-48 141h-205l-40 -141h-226l238 724q-8 14 -12 29.5t-4 35.5q0 33 11.5 58.5t31 42.5t45 25.5t54.5 8.5t55 -8.5t45.5 -25.5t31 -41.5t11.5 -55.5zM356 524h-6l-63 -220h133zM354 743q23 0 37.5 12t14.5 41q0 26 -14 38.5t-37 12.5
t-38.5 -12t-15.5 -38q0 -29 15 -41.5t38 -12.5z" />
    <glyph glyph-name="AE" unicode="&#xc6;" horiz-adv-x="1005" 
d="M684 176h303v-176h-520v262h-146l-103 -262h-223l313 724h654v-172h-278v-123h263v-165h-263v-88zM467 552h-42l-49 -130h91v130z" />
    <glyph glyph-name="Ccedilla" unicode="&#xc7;" horiz-adv-x="698" 
d="M269 -166q14 -2 26 -3t22 -1q23 0 37.5 6.5t14.5 26.5q0 22 -17.5 27t-39.5 6l12 94q-80 7 -137 35t-93 75t-52.5 111.5t-16.5 145.5t21.5 150.5t66.5 120.5t113 80t161 29q64 0 118.5 -16t94.5 -49.5t63 -86t25 -125.5l-196 -19q-2 73 -30 100.5t-79 27.5
q-64 0 -98.5 -47.5t-34.5 -156.5q0 -113 32.5 -161t101.5 -48q31 0 51 9.5t32 24.5t18.5 34.5t10.5 39.5l192 -30q-7 -63 -33.5 -107.5t-65 -73.5t-85.5 -44t-94 -19l-4 -36q18 -3 34.5 -9.5t29 -17.5t20.5 -27.5t8 -40.5q0 -32 -11.5 -55.5t-32 -38.5t-48.5 -22.5t-61 -7.5
q-17 0 -38.5 2.5t-45.5 7.5z" />
    <glyph glyph-name="Egrave" unicode="&#xc8;" horiz-adv-x="591" 
d="M268 176h303v-176h-520v724h495v-172h-278v-113h264v-165h-264v-98zM94 919h214l83 -145l-144 -6z" />
    <glyph glyph-name="Eacute" unicode="&#xc9;" horiz-adv-x="591" 
d="M268 176h303v-176h-520v724h495v-172h-278v-113h264v-165h-264v-98zM354 768l-144 6l83 145h214z" />
    <glyph glyph-name="Ecircumflex" unicode="&#xca;" horiz-adv-x="591" 
d="M268 176h303v-176h-520v724h495v-172h-278v-113h264v-165h-264v-98zM303 836l-65 -68l-134 5l97 155h202l88 -154l-129 -5z" />
    <glyph glyph-name="Edieresis" unicode="&#xcb;" horiz-adv-x="591" 
d="M268 176h303v-176h-520v724h495v-172h-278v-113h264v-165h-264v-98zM285 874q0 -48 -31.5 -76t-82.5 -28q-52 0 -84.5 28t-32.5 76t32.5 76t84.5 28q51 0 82.5 -28t31.5 -76zM547 874q0 -48 -31.5 -76t-83.5 -28t-84 28t-32 76t32 76t84 28t83.5 -28t31.5 -76z" />
    <glyph glyph-name="Igrave" unicode="&#xcc;" horiz-adv-x="319" 
d="M268 0h-217v724h217v-724zM-48 919h214l83 -145l-144 -6z" />
    <glyph glyph-name="Iacute" unicode="&#xcd;" horiz-adv-x="319" 
d="M268 0h-217v724h217v-724zM212 768l-144 6l83 145h214z" />
    <glyph glyph-name="Icircumflex" unicode="&#xce;" horiz-adv-x="319" 
d="M268 0h-217v724h217v-724zM161 836l-65 -68l-134 5l97 155h202l88 -154l-129 -5z" />
    <glyph glyph-name="Idieresis" unicode="&#xcf;" horiz-adv-x="319" 
d="M268 0h-217v724h217v-724zM143 874q0 -48 -31.5 -76t-82.5 -28q-52 0 -84.5 28t-32.5 76t32.5 76t84.5 28q51 0 82.5 -28t31.5 -76zM405 874q0 -48 -31.5 -76t-83.5 -28t-84 28t-32 76t32 76t84 28t83.5 -28t31.5 -76z" />
    <glyph glyph-name="Eth" unicode="&#xd0;" horiz-adv-x="764" 
d="M94 0v290h-54v156h54v278h286q94 0 162 -24.5t111.5 -70t64.5 -110.5t21 -146q0 -83 -22.5 -152t-68.5 -118t-117 -76t-168 -27h-269zM348 166q54 0 87.5 14t52 40.5t25 64t6.5 84.5q0 54 -8 90.5t-26.5 59t-48.5 32t-73 9.5h-52v-114h115v-156h-115v-124h37z" />
    <glyph glyph-name="Ntilde" unicode="&#xd1;" horiz-adv-x="745" 
d="M451 0l-204 424v-424h-196v724h248l201 -432v432h194v-724h-243zM293 954q25 0 45 -6.5t36.5 -14t32 -14t32.5 -6.5q15 0 18.5 9.5t3.5 27.5l96 -5q4 -31 1.5 -59.5t-13 -50.5t-31.5 -35.5t-54 -13.5q-28 0 -49 6.5t-38.5 14.5t-32 14.5t-29.5 6.5q-17 0 -22.5 -9
t-0.5 -32l-107 4q-4 34 1 64t19.5 52t37 34.5t54.5 12.5z" />
    <glyph glyph-name="Ograve" unicode="&#xd2;" horiz-adv-x="761" 
d="M375 -12q-95 0 -161.5 27.5t-108.5 76t-61 116t-19 148.5t22.5 150.5t68 120.5t115 80.5t162.5 29.5q94 0 159 -29t106 -79t59.5 -117t18.5 -142q0 -88 -21.5 -158.5t-65.5 -120t-112 -76.5t-162 -27zM383 156q29 0 53 9.5t41.5 33t27 63t9.5 99.5q0 57 -7.5 96
t-23.5 63.5t-39.5 35t-55.5 10.5q-69 0 -104 -46.5t-35 -158.5q0 -59 8.5 -98.5t25 -63t42 -33.5t58.5 -10zM182 919h214l83 -145l-144 -6z" />
    <glyph glyph-name="Oacute" unicode="&#xd3;" horiz-adv-x="761" 
d="M375 -12q-95 0 -161.5 27.5t-108.5 76t-61 116t-19 148.5t22.5 150.5t68 120.5t115 80.5t162.5 29.5q94 0 159 -29t106 -79t59.5 -117t18.5 -142q0 -88 -21.5 -158.5t-65.5 -120t-112 -76.5t-162 -27zM383 156q29 0 53 9.5t41.5 33t27 63t9.5 99.5q0 57 -7.5 96
t-23.5 63.5t-39.5 35t-55.5 10.5q-69 0 -104 -46.5t-35 -158.5q0 -59 8.5 -98.5t25 -63t42 -33.5t58.5 -10zM442 768l-144 6l83 145h214z" />
    <glyph glyph-name="Ocircumflex" unicode="&#xd4;" horiz-adv-x="761" 
d="M375 -12q-95 0 -161.5 27.5t-108.5 76t-61 116t-19 148.5t22.5 150.5t68 120.5t115 80.5t162.5 29.5q94 0 159 -29t106 -79t59.5 -117t18.5 -142q0 -88 -21.5 -158.5t-65.5 -120t-112 -76.5t-162 -27zM383 156q29 0 53 9.5t41.5 33t27 63t9.5 99.5q0 57 -7.5 96
t-23.5 63.5t-39.5 35t-55.5 10.5q-69 0 -104 -46.5t-35 -158.5q0 -59 8.5 -98.5t25 -63t42 -33.5t58.5 -10zM391 836l-65 -68l-134 5l97 155h202l88 -154l-129 -5z" />
    <glyph glyph-name="Otilde" unicode="&#xd5;" horiz-adv-x="761" 
d="M375 -12q-95 0 -161.5 27.5t-108.5 76t-61 116t-19 148.5t22.5 150.5t68 120.5t115 80.5t162.5 29.5q94 0 159 -29t106 -79t59.5 -117t18.5 -142q0 -88 -21.5 -158.5t-65.5 -120t-112 -76.5t-162 -27zM383 156q29 0 53 9.5t41.5 33t27 63t9.5 99.5q0 57 -7.5 96
t-23.5 63.5t-39.5 35t-55.5 10.5q-69 0 -104 -46.5t-35 -158.5q0 -59 8.5 -98.5t25 -63t42 -33.5t58.5 -10zM315 954q25 0 45 -6.5t36.5 -14t32 -14t32.5 -6.5q15 0 18.5 9.5t3.5 27.5l96 -5q4 -31 1.5 -59.5t-13 -50.5t-31.5 -35.5t-54 -13.5q-28 0 -49 6.5t-38.5 14.5
t-32 14.5t-29.5 6.5q-17 0 -22.5 -9t-0.5 -32l-107 4q-4 34 1 64t19.5 52t37 34.5t54.5 12.5z" />
    <glyph glyph-name="Odieresis" unicode="&#xd6;" horiz-adv-x="761" 
d="M375 -12q-95 0 -161.5 27.5t-108.5 76t-61 116t-19 148.5t22.5 150.5t68 120.5t115 80.5t162.5 29.5q94 0 159 -29t106 -79t59.5 -117t18.5 -142q0 -88 -21.5 -158.5t-65.5 -120t-112 -76.5t-162 -27zM383 156q29 0 53 9.5t41.5 33t27 63t9.5 99.5q0 57 -7.5 96
t-23.5 63.5t-39.5 35t-55.5 10.5q-69 0 -104 -46.5t-35 -158.5q0 -59 8.5 -98.5t25 -63t42 -33.5t58.5 -10zM373 874q0 -48 -31.5 -76t-82.5 -28q-52 0 -84.5 28t-32.5 76t32.5 76t84.5 28q51 0 82.5 -28t31.5 -76zM635 874q0 -48 -31.5 -76t-83.5 -28t-84 28t-32 76t32 76
t84 28t83.5 -28t31.5 -76z" />
    <glyph glyph-name="multiply" unicode="&#xd7;" 
d="M285 212l-92 -92l-111 110l93 92l-93 92l111 111l92 -92l93 92l110 -111l-92 -92l92 -92l-110 -110z" />
    <glyph glyph-name="Oslash" unicode="&#xd8;" horiz-adv-x="761" 
d="M375 -12q-14 0 -26.5 0.5t-24.5 1.5l-27 -69h-206l54 132q-64 48 -92 126t-28 177q0 81 22.5 150.5t68 120.5t115 80.5t162.5 29.5q12 0 24 -0.5t23 -1.5l26 60h206l-54 -127q63 -51 90.5 -128.5t27.5 -169.5q0 -88 -21.5 -158.5t-65.5 -120t-112 -76.5t-162 -27z
M383 156q29 0 53 9.5t41.5 33t27 63t9.5 99.5q0 57 -7.5 96t-23.5 63.5t-39.5 35t-55.5 10.5q-69 0 -104 -46.5t-35 -158.5q0 -59 8.5 -98.5t25 -63t42 -33.5t58.5 -10z" />
    <glyph glyph-name="Ugrave" unicode="&#xd9;" horiz-adv-x="702" 
d="M353 156q33 0 51.5 9t27.5 27.5t11 47t2 66.5v418h215v-447q0 -78 -23.5 -133t-65 -89.5t-99 -50.5t-125.5 -16q-80 0 -138 17t-95.5 53t-55.5 91.5t-18 133.5v441h217v-414q0 -36 1.5 -64.5t10.5 -48.5t28.5 -30.5t55.5 -10.5zM143 919h214l83 -145l-144 -6z" />
    <glyph glyph-name="Uacute" unicode="&#xda;" horiz-adv-x="702" 
d="M353 156q33 0 51.5 9t27.5 27.5t11 47t2 66.5v418h215v-447q0 -78 -23.5 -133t-65 -89.5t-99 -50.5t-125.5 -16q-80 0 -138 17t-95.5 53t-55.5 91.5t-18 133.5v441h217v-414q0 -36 1.5 -64.5t10.5 -48.5t28.5 -30.5t55.5 -10.5zM403 768l-144 6l83 145h214z" />
    <glyph glyph-name="Ucircumflex" unicode="&#xdb;" horiz-adv-x="702" 
d="M353 156q33 0 51.5 9t27.5 27.5t11 47t2 66.5v418h215v-447q0 -78 -23.5 -133t-65 -89.5t-99 -50.5t-125.5 -16q-80 0 -138 17t-95.5 53t-55.5 91.5t-18 133.5v441h217v-414q0 -36 1.5 -64.5t10.5 -48.5t28.5 -30.5t55.5 -10.5zM352 836l-65 -68l-134 5l97 155h202
l88 -154l-129 -5z" />
    <glyph glyph-name="Udieresis" unicode="&#xdc;" horiz-adv-x="702" 
d="M353 156q33 0 51.5 9t27.5 27.5t11 47t2 66.5v418h215v-447q0 -78 -23.5 -133t-65 -89.5t-99 -50.5t-125.5 -16q-80 0 -138 17t-95.5 53t-55.5 91.5t-18 133.5v441h217v-414q0 -36 1.5 -64.5t10.5 -48.5t28.5 -30.5t55.5 -10.5zM334 874q0 -48 -31.5 -76t-82.5 -28
q-52 0 -84.5 28t-32.5 76t32.5 76t84.5 28q51 0 82.5 -28t31.5 -76zM596 874q0 -48 -31.5 -76t-83.5 -28t-84 28t-32 76t32 76t84 28t83.5 -28t31.5 -76z" />
    <glyph glyph-name="Yacute" unicode="&#xdd;" horiz-adv-x="646" 
d="M441 0h-218v264l-253 460h236l125 -271h8l119 271h218l-236 -460zM387 768l-144 6l83 145h214z" />
    <glyph glyph-name="Thorn" unicode="&#xde;" horiz-adv-x="626" 
d="M267 0h-216v724h216v-107h97q69 0 115.5 -20t74.5 -53t39.5 -75t11.5 -85q0 -132 -69.5 -204.5t-220.5 -72.5h-48v-107zM287 265q20 0 37.5 4.5t30.5 16t20.5 31t7.5 49.5q0 31 -8.5 49t-21.5 27t-28 11.5t-27 2.5h-31v-191h20z" />
    <glyph glyph-name="germandbls" unicode="&#xdf;" horiz-adv-x="648" 
d="M34 0v487q0 81 22.5 135t61.5 86.5t92 46t114 13.5t110.5 -13.5t85 -39t54.5 -63t19 -86.5q0 -40 -12 -70t-28.5 -50.5t-34.5 -32t-31 -15.5v-4q24 -6 49.5 -17t46.5 -32t34 -55t13 -87q0 -39 -11.5 -77t-37.5 -69t-68 -50t-103 -19q-17 0 -36 1.5t-35.5 3.5t-30 4
t-20.5 4v138q6 -2 14.5 -3.5t16.5 -2.5t14.5 -1h9.5q29 0 52 20t23 72q0 49 -26 66.5t-65 17.5h-26v138h18q35 0 49 22.5t14 68.5q0 47 -18.5 67.5t-47.5 20.5q-15 0 -27.5 -4.5t-22.5 -16.5t-15.5 -34t-5.5 -57v-513h-211z" />
    <glyph glyph-name="agrave" unicode="&#xe0;" horiz-adv-x="571" 
d="M505 155q0 -21 5.5 -30.5t25.5 -9.5q11 0 31 6l4 -110q-8 -4 -22.5 -8t-31.5 -7.5t-35 -6t-32 -2.5q-52 0 -87.5 16.5t-49.5 59.5q-23 -34 -56.5 -54.5t-87.5 -20.5q-49 0 -79.5 14t-48 35t-24 45.5t-6.5 45.5q0 58 25.5 93.5t67 54.5t93 25.5t103.5 8.5v24q0 13 -0.5 25
t-4.5 21t-13 14.5t-25 5.5q-26 0 -37 -14t-19 -47l-173 30q6 37 21.5 68.5t44 54t72 35t105.5 12.5q115 0 174.5 -45.5t59.5 -145.5v-193zM301 207q-9 0 -22.5 -1.5t-25.5 -6t-21 -13.5t-9 -25q0 -13 7.5 -24.5t27.5 -11.5q16 0 27 4t16 9v69zM86 739h214l52 -161l-136 -6z
" />
    <glyph glyph-name="aacute" unicode="&#xe1;" horiz-adv-x="571" 
d="M505 155q0 -21 5.5 -30.5t25.5 -9.5q11 0 31 6l4 -110q-8 -4 -22.5 -8t-31.5 -7.5t-35 -6t-32 -2.5q-52 0 -87.5 16.5t-49.5 59.5q-23 -34 -56.5 -54.5t-87.5 -20.5q-49 0 -79.5 14t-48 35t-24 45.5t-6.5 45.5q0 58 25.5 93.5t67 54.5t93 25.5t103.5 8.5v24q0 13 -0.5 25
t-4.5 21t-13 14.5t-25 5.5q-26 0 -37 -14t-19 -47l-173 30q6 37 21.5 68.5t44 54t72 35t105.5 12.5q115 0 174.5 -45.5t59.5 -145.5v-193zM301 207q-9 0 -22.5 -1.5t-25.5 -6t-21 -13.5t-9 -25q0 -13 7.5 -24.5t27.5 -11.5q16 0 27 4t16 9v69zM329 572l-136 6l52 161h214z
" />
    <glyph glyph-name="acircumflex" unicode="&#xe2;" horiz-adv-x="571" 
d="M505 155q0 -21 5.5 -30.5t25.5 -9.5q11 0 31 6l4 -110q-8 -4 -22.5 -8t-31.5 -7.5t-35 -6t-32 -2.5q-52 0 -87.5 16.5t-49.5 59.5q-23 -34 -56.5 -54.5t-87.5 -20.5q-49 0 -79.5 14t-48 35t-24 45.5t-6.5 45.5q0 58 25.5 93.5t67 54.5t93 25.5t103.5 8.5v24q0 13 -0.5 25
t-4.5 21t-13 14.5t-25 5.5q-26 0 -37 -14t-19 -47l-173 30q6 37 21.5 68.5t44 54t72 35t105.5 12.5q115 0 174.5 -45.5t59.5 -145.5v-193zM301 207q-9 0 -22.5 -1.5t-25.5 -6t-21 -13.5t-9 -25q0 -13 7.5 -24.5t27.5 -11.5q16 0 27 4t16 9v69zM332 574l-57 77l-65 -77
l-134 5l99 164h199l89 -164z" />
    <glyph glyph-name="atilde" unicode="&#xe3;" horiz-adv-x="571" 
d="M505 155q0 -21 5.5 -30.5t25.5 -9.5q11 0 31 6l4 -110q-8 -4 -22.5 -8t-31.5 -7.5t-35 -6t-32 -2.5q-52 0 -87.5 16.5t-49.5 59.5q-23 -34 -56.5 -54.5t-87.5 -20.5q-49 0 -79.5 14t-48 35t-24 45.5t-6.5 45.5q0 58 25.5 93.5t67 54.5t93 25.5t103.5 8.5v24q0 13 -0.5 25
t-4.5 21t-13 14.5t-25 5.5q-26 0 -37 -14t-19 -47l-173 30q6 37 21.5 68.5t44 54t72 35t105.5 12.5q115 0 174.5 -45.5t59.5 -145.5v-193zM301 207q-9 0 -22.5 -1.5t-25.5 -6t-21 -13.5t-9 -25q0 -13 7.5 -24.5t27.5 -11.5q16 0 27 4t16 9v69zM202 746q25 0 45 -6.5
t36.5 -14t32 -14t32.5 -6.5q15 0 18.5 9.5t3.5 27.5l96 -5q4 -31 1.5 -59.5t-13 -50.5t-31.5 -35.5t-54 -13.5q-28 0 -49 6.5t-38.5 14.5t-32 14.5t-29.5 6.5q-17 0 -22.5 -9t-0.5 -32l-107 4q-4 34 1 64t19.5 52t37 34.5t54.5 12.5z" />
    <glyph glyph-name="adieresis" unicode="&#xe4;" horiz-adv-x="571" 
d="M505 155q0 -21 5.5 -30.5t25.5 -9.5q11 0 31 6l4 -110q-8 -4 -22.5 -8t-31.5 -7.5t-35 -6t-32 -2.5q-52 0 -87.5 16.5t-49.5 59.5q-23 -34 -56.5 -54.5t-87.5 -20.5q-49 0 -79.5 14t-48 35t-24 45.5t-6.5 45.5q0 58 25.5 93.5t67 54.5t93 25.5t103.5 8.5v24q0 13 -0.5 25
t-4.5 21t-13 14.5t-25 5.5q-26 0 -37 -14t-19 -47l-173 30q6 37 21.5 68.5t44 54t72 35t105.5 12.5q115 0 174.5 -45.5t59.5 -145.5v-193zM301 207q-9 0 -22.5 -1.5t-25.5 -6t-21 -13.5t-9 -25q0 -13 7.5 -24.5t27.5 -11.5q16 0 27 4t16 9v69zM257 686q0 -48 -31.5 -76
t-82.5 -28q-52 0 -84.5 28t-32.5 76t32.5 76t84.5 28q51 0 82.5 -28t31.5 -76zM519 686q0 -48 -31.5 -76t-83.5 -28t-84 28t-32 76t32 76t84 28t83.5 -28t31.5 -76z" />
    <glyph glyph-name="aring" unicode="&#xe5;" horiz-adv-x="571" 
d="M505 155q0 -21 5.5 -30.5t25.5 -9.5q11 0 31 6l4 -110q-8 -4 -22.5 -8t-31.5 -7.5t-35 -6t-32 -2.5q-52 0 -87.5 16.5t-49.5 59.5q-23 -34 -56.5 -54.5t-87.5 -20.5q-49 0 -79.5 14t-48 35t-24 45.5t-6.5 45.5q0 58 25.5 93.5t67 54.5t93 25.5t103.5 8.5v24q0 13 -0.5 25
t-4.5 21t-13 14.5t-25 5.5q-26 0 -37 -14t-19 -47l-173 30q6 37 21.5 68.5t44 54t72 35t105.5 12.5q115 0 174.5 -45.5t59.5 -145.5v-193zM301 207q-9 0 -22.5 -1.5t-25.5 -6t-21 -13.5t-9 -25q0 -13 7.5 -24.5t27.5 -11.5q16 0 27 4t16 9v69zM392 675q0 -54 -34 -81
t-85 -27q-52 0 -85.5 27t-33.5 79q0 28 9.5 49t26 35t38 21.5t45.5 7.5q50 0 84.5 -28.5t34.5 -82.5zM272 637q16 0 27.5 8.5t11.5 29.5q0 19 -11 28.5t-27 9.5q-17 0 -28.5 -9.5t-11.5 -27.5q0 -22 11 -30.5t28 -8.5z" />
    <glyph glyph-name="ae" unicode="&#xe6;" horiz-adv-x="818" 
d="M560 -12q-74 0 -123 21t-80 56q-18 -22 -39.5 -36.5t-45 -23.5t-48.5 -13t-49 -4q-49 0 -80.5 14t-50 35t-26 46t-7.5 48q0 58 27.5 92t69.5 52.5t93 25t99 10.5v14q0 37 -6.5 56t-36.5 19q-26 0 -38.5 -14t-17.5 -49l-173 31q11 82 68 126.5t165 44.5q56 0 93.5 -14.5
t61.5 -49.5q55 64 167 64q59 0 100.5 -20.5t67.5 -55.5t38 -81.5t12 -98.5q0 -27 -3 -55h-287q1 -48 12.5 -69.5t49.5 -21.5q26 0 41.5 16t19.5 41l165 -41q-6 -35 -23.5 -65t-47 -52.5t-71.5 -35t-97 -12.5zM261 127q14 0 28.5 6t22.5 12q-5 14 -7.5 29.5t-4.5 31.5
q-35 -5 -56 -13.5t-21 -34.5q0 -14 9 -22.5t29 -8.5zM587 333q0 24 -3.5 38t-9 21t-12 9t-12.5 2q-7 0 -14 -2.5t-12 -10t-8.5 -21.5t-2.5 -36h74z" />
    <glyph glyph-name="ccedilla" unicode="&#xe7;" horiz-adv-x="550" 
d="M181 -166q14 -2 26 -3t22 -1q23 0 37.5 6.5t14.5 26.5q0 22 -17.5 27t-39.5 6l12 95q-54 7 -95 29t-68 56t-40.5 79t-13.5 97q0 135 73 211t210 76q107 0 168.5 -53t71.5 -156l-184 -27q-2 20 -4.5 36.5t-8.5 28t-16 17.5t-27 6q-31 0 -46.5 -25t-15.5 -94t12 -101
t51 -32q35 0 51 22t21 65l167 -31q-14 -97 -71.5 -147t-148.5 -58l-4 -36q18 -3 34.5 -9.5t29 -17.5t20.5 -27.5t8 -40.5q0 -32 -11.5 -55.5t-32 -38.5t-48.5 -22.5t-61 -7.5q-17 0 -38.5 2.5t-45.5 7.5z" />
    <glyph glyph-name="egrave" unicode="&#xe8;" horiz-adv-x="548" 
d="M291 -12q-76 0 -128 23t-84 61t-46 87.5t-14 102.5q0 70 21 122.5t57.5 86.5t85 51t103.5 17q64 0 110 -17.5t76 -50.5t44 -80.5t14 -106.5v-28t-2 -28h-287q0 -48 12.5 -69.5t49.5 -21.5q27 0 42.5 16t19.5 41l165 -41q-6 -35 -23.5 -65t-47 -52.5t-71.5 -35t-97 -12.5z
M315 333q0 24 -3 38t-8.5 21t-12 9t-13.5 2q-17 0 -27 -14t-10 -56h74zM99 739h214l52 -161l-136 -6z" />
    <glyph glyph-name="eacute" unicode="&#xe9;" horiz-adv-x="548" 
d="M291 -12q-76 0 -128 23t-84 61t-46 87.5t-14 102.5q0 70 21 122.5t57.5 86.5t85 51t103.5 17q64 0 110 -17.5t76 -50.5t44 -80.5t14 -106.5v-28t-2 -28h-287q0 -48 12.5 -69.5t49.5 -21.5q27 0 42.5 16t19.5 41l165 -41q-6 -35 -23.5 -65t-47 -52.5t-71.5 -35t-97 -12.5z
M315 333q0 24 -3 38t-8.5 21t-12 9t-13.5 2q-17 0 -27 -14t-10 -56h74zM342 572l-136 6l52 161h214z" />
    <glyph glyph-name="ecircumflex" unicode="&#xea;" horiz-adv-x="548" 
d="M291 -12q-76 0 -128 23t-84 61t-46 87.5t-14 102.5q0 70 21 122.5t57.5 86.5t85 51t103.5 17q64 0 110 -17.5t76 -50.5t44 -80.5t14 -106.5v-28t-2 -28h-287q0 -48 12.5 -69.5t49.5 -21.5q27 0 42.5 16t19.5 41l165 -41q-6 -35 -23.5 -65t-47 -52.5t-71.5 -35t-97 -12.5z
M315 333q0 24 -3 38t-8.5 21t-12 9t-13.5 2q-17 0 -27 -14t-10 -56h74zM345 574l-57 77l-65 -77l-134 5l99 164h199l89 -164z" />
    <glyph glyph-name="edieresis" unicode="&#xeb;" horiz-adv-x="548" 
d="M291 -12q-76 0 -128 23t-84 61t-46 87.5t-14 102.5q0 70 21 122.5t57.5 86.5t85 51t103.5 17q64 0 110 -17.5t76 -50.5t44 -80.5t14 -106.5v-28t-2 -28h-287q0 -48 12.5 -69.5t49.5 -21.5q27 0 42.5 16t19.5 41l165 -41q-6 -35 -23.5 -65t-47 -52.5t-71.5 -35t-97 -12.5z
M315 333q0 24 -3 38t-8.5 21t-12 9t-13.5 2q-17 0 -27 -14t-10 -56h74zM270 686q0 -48 -31.5 -76t-82.5 -28q-52 0 -84.5 28t-32.5 76t32.5 76t84.5 28q51 0 82.5 -28t31.5 -76zM532 686q0 -48 -31.5 -76t-83.5 -28t-84 28t-32 76t32 76t84 28t83.5 -28t31.5 -76z" />
    <glyph glyph-name="igrave" unicode="&#xec;" horiz-adv-x="286" 
d="M249 0h-211v528h211v-528zM-44 739h214l52 -161l-136 -6z" />
    <glyph glyph-name="iacute" unicode="&#xed;" horiz-adv-x="286" 
d="M249 0h-211v528h211v-528zM199 572l-136 6l52 161h214z" />
    <glyph glyph-name="icircumflex" unicode="&#xee;" horiz-adv-x="286" 
d="M249 0h-211v528h211v-528zM202 574l-57 77l-65 -77l-134 5l99 164h199l89 -164z" />
    <glyph glyph-name="idieresis" unicode="&#xef;" horiz-adv-x="286" 
d="M249 0h-211v528h211v-528zM127 686q0 -48 -31.5 -76t-82.5 -28q-52 0 -84.5 28t-32.5 76t32.5 76t84.5 28q51 0 82.5 -28t31.5 -76zM389 686q0 -48 -31.5 -76t-83.5 -28t-84 28t-32 76t32 76t84 28t83.5 -28t31.5 -76z" />
    <glyph glyph-name="eth" unicode="&#xf0;" horiz-adv-x="600" 
d="M16 256q0 50 13.5 95.5t42 80.5t72 56t102.5 21q23 0 53.5 -5.5t62.5 -21.5l4 4q-14 25 -39 48t-56.5 41.5t-66 32t-68.5 19.5l73 166q88 -22 152 -58l90 79l107 -117l-72 -66q28 -35 46.5 -73t29.5 -77.5t15.5 -79t4.5 -76.5q0 -176 -75 -256.5t-220 -80.5
q-70 0 -121 19t-84.5 54t-49.5 84.5t-16 110.5zM237 256q0 -45 6 -70t15 -37.5t20 -15.5t21 -3q13 0 25 5.5t21.5 24t15 52.5t5.5 91q0 14 -1.5 27.5t-3.5 30.5q-15 8 -29 11t-26 3t-24.5 -2.5t-22.5 -14.5t-16 -36t-6 -66z" />
    <glyph glyph-name="ntilde" unicode="&#xf1;" horiz-adv-x="584" 
d="M552 0h-211v325q0 32 -12.5 42.5t-30.5 10.5q-17 0 -31 -6t-22 -15v-357h-211v528h187l10 -49q20 24 57.5 42t91.5 18q89 0 130.5 -42.5t41.5 -133.5v-363zM222 746q25 0 45 -6.5t36.5 -14t32 -14t32.5 -6.5q15 0 18.5 9.5t3.5 27.5l96 -5q4 -31 1.5 -59.5t-13 -50.5
t-31.5 -35.5t-54 -13.5q-28 0 -49 6.5t-38.5 14.5t-32 14.5t-29.5 6.5q-17 0 -22.5 -9t-0.5 -32l-107 4q-4 34 1 64t19.5 52t37 34.5t54.5 12.5z" />
    <glyph glyph-name="ograve" unicode="&#xf2;" horiz-adv-x="597" 
d="M290 -12q-75 0 -126.5 20t-84 56.5t-46.5 86.5t-14 110q0 63 16.5 114.5t51.5 87.5t89 56t128 20q75 0 127 -20t85 -56t47.5 -85t14.5 -107q0 -65 -16.5 -117t-51.5 -89t-89.5 -57t-130.5 -20zM298 128q16 0 27.5 6.5t18.5 22.5t10.5 42.5t3.5 66.5q0 37 -2.5 62t-9 40
t-17.5 21.5t-28 6.5t-28.5 -6t-18.5 -20.5t-10.5 -40t-3.5 -64.5t2.5 -65.5t9 -42t17.5 -22.5t29 -7zM114 739h214l52 -161l-136 -6z" />
    <glyph glyph-name="oacute" unicode="&#xf3;" horiz-adv-x="597" 
d="M290 -12q-75 0 -126.5 20t-84 56.5t-46.5 86.5t-14 110q0 63 16.5 114.5t51.5 87.5t89 56t128 20q75 0 127 -20t85 -56t47.5 -85t14.5 -107q0 -65 -16.5 -117t-51.5 -89t-89.5 -57t-130.5 -20zM298 128q16 0 27.5 6.5t18.5 22.5t10.5 42.5t3.5 66.5q0 37 -2.5 62t-9 40
t-17.5 21.5t-28 6.5t-28.5 -6t-18.5 -20.5t-10.5 -40t-3.5 -64.5t2.5 -65.5t9 -42t17.5 -22.5t29 -7zM357 572l-136 6l52 161h214z" />
    <glyph glyph-name="ocircumflex" unicode="&#xf4;" horiz-adv-x="597" 
d="M290 -12q-75 0 -126.5 20t-84 56.5t-46.5 86.5t-14 110q0 63 16.5 114.5t51.5 87.5t89 56t128 20q75 0 127 -20t85 -56t47.5 -85t14.5 -107q0 -65 -16.5 -117t-51.5 -89t-89.5 -57t-130.5 -20zM298 128q16 0 27.5 6.5t18.5 22.5t10.5 42.5t3.5 66.5q0 37 -2.5 62t-9 40
t-17.5 21.5t-28 6.5t-28.5 -6t-18.5 -20.5t-10.5 -40t-3.5 -64.5t2.5 -65.5t9 -42t17.5 -22.5t29 -7zM360 574l-57 77l-65 -77l-134 5l99 164h199l89 -164z" />
    <glyph glyph-name="otilde" unicode="&#xf5;" horiz-adv-x="597" 
d="M290 -12q-75 0 -126.5 20t-84 56.5t-46.5 86.5t-14 110q0 63 16.5 114.5t51.5 87.5t89 56t128 20q75 0 127 -20t85 -56t47.5 -85t14.5 -107q0 -65 -16.5 -117t-51.5 -89t-89.5 -57t-130.5 -20zM298 128q16 0 27.5 6.5t18.5 22.5t10.5 42.5t3.5 66.5q0 37 -2.5 62t-9 40
t-17.5 21.5t-28 6.5t-28.5 -6t-18.5 -20.5t-10.5 -40t-3.5 -64.5t2.5 -65.5t9 -42t17.5 -22.5t29 -7zM230 746q25 0 45 -6.5t36.5 -14t32 -14t32.5 -6.5q15 0 18.5 9.5t3.5 27.5l96 -5q4 -31 1.5 -59.5t-13 -50.5t-31.5 -35.5t-54 -13.5q-28 0 -49 6.5t-38.5 14.5t-32 14.5
t-29.5 6.5q-17 0 -22.5 -9t-0.5 -32l-107 4q-4 34 1 64t19.5 52t37 34.5t54.5 12.5z" />
    <glyph glyph-name="odieresis" unicode="&#xf6;" horiz-adv-x="597" 
d="M290 -12q-75 0 -126.5 20t-84 56.5t-46.5 86.5t-14 110q0 63 16.5 114.5t51.5 87.5t89 56t128 20q75 0 127 -20t85 -56t47.5 -85t14.5 -107q0 -65 -16.5 -117t-51.5 -89t-89.5 -57t-130.5 -20zM298 128q16 0 27.5 6.5t18.5 22.5t10.5 42.5t3.5 66.5q0 37 -2.5 62t-9 40
t-17.5 21.5t-28 6.5t-28.5 -6t-18.5 -20.5t-10.5 -40t-3.5 -64.5t2.5 -65.5t9 -42t17.5 -22.5t29 -7zM285 686q0 -48 -31.5 -76t-82.5 -28q-52 0 -84.5 28t-32.5 76t32.5 76t84.5 28q51 0 82.5 -28t31.5 -76zM547 686q0 -48 -31.5 -76t-83.5 -28t-84 28t-32 76t32 76t84 28
t83.5 -28t31.5 -76z" />
    <glyph glyph-name="divide" unicode="&#xf7;" 
d="M378 145q0 -39 -22.5 -61.5t-70.5 -22.5t-71 22t-23 62q0 35 23 59.5t71 24.5t70.5 -24.5t22.5 -59.5zM86 245v152h397v-152h-397zM378 496q0 -38 -22.5 -61t-70.5 -23t-71 22t-23 62q0 35 23 59.5t71 24.5t70.5 -24.5t22.5 -59.5z" />
    <glyph glyph-name="oslash" unicode="&#xf8;" horiz-adv-x="597" 
d="M113 34q-51 36 -72.5 94t-21.5 133q0 63 16.5 114.5t51.5 87.5t89 56t128 20h12t12 -1l25 56h184l-48 -106q48 -36 68.5 -92t20.5 -125q0 -65 -16.5 -117t-51.5 -89t-89.5 -57t-130.5 -20h-16l-31 -75h-184zM298 128q16 0 27.5 6.5t18.5 22.5t10.5 42.5t3.5 66.5
q0 37 -2.5 62t-9 40t-17.5 21.5t-28 6.5t-28.5 -6t-18.5 -20.5t-10.5 -40t-3.5 -64.5t2.5 -65.5t9 -42t17.5 -22.5t29 -7z" />
    <glyph glyph-name="ugrave" unicode="&#xf9;" horiz-adv-x="575" 
d="M31 528h211v-325q0 -32 10 -42.5t29 -10.5q14 0 27 6t21 15v357h211v-528h-180l-16 59q-19 -32 -56 -51.5t-91 -19.5q-81 0 -123.5 42t-42.5 130v368zM98 739h214l52 -161l-136 -6z" />
    <glyph glyph-name="uacute" unicode="&#xfa;" horiz-adv-x="575" 
d="M31 528h211v-325q0 -32 10 -42.5t29 -10.5q14 0 27 6t21 15v357h211v-528h-180l-16 59q-19 -32 -56 -51.5t-91 -19.5q-81 0 -123.5 42t-42.5 130v368zM341 572l-136 6l52 161h214z" />
    <glyph glyph-name="ucircumflex" unicode="&#xfb;" horiz-adv-x="575" 
d="M31 528h211v-325q0 -32 10 -42.5t29 -10.5q14 0 27 6t21 15v357h211v-528h-180l-16 59q-19 -32 -56 -51.5t-91 -19.5q-81 0 -123.5 42t-42.5 130v368zM344 574l-57 77l-65 -77l-134 5l99 164h199l89 -164z" />
    <glyph glyph-name="udieresis" unicode="&#xfc;" horiz-adv-x="575" 
d="M31 528h211v-325q0 -32 10 -42.5t29 -10.5q14 0 27 6t21 15v357h211v-528h-180l-16 59q-19 -32 -56 -51.5t-91 -19.5q-81 0 -123.5 42t-42.5 130v368zM269 686q0 -48 -31.5 -76t-82.5 -28q-52 0 -84.5 28t-32.5 76t32.5 76t84.5 28q51 0 82.5 -28t31.5 -76zM531 686
q0 -48 -31.5 -76t-83.5 -28t-84 28t-32 76t32 76t84 28t83.5 -28t31.5 -76z" />
    <glyph glyph-name="yacute" unicode="&#xfd;" horiz-adv-x="567" 
d="M-16 528h227l77 -323h5l72 323h218l-194 -558q-18 -51 -36.5 -87.5t-43.5 -60t-59 -34.5t-83 -11q-16 0 -35 2t-37 5t-33.5 7.5t-24.5 9.5l13 144q51 -16 75 -16q25 0 36.5 9.5t18.5 25.5l9 20zM340 572l-136 6l52 161h214z" />
    <glyph glyph-name="thorn" unicode="&#xfe;" horiz-adv-x="603" 
d="M378 539q40 0 76.5 -14t64 -45.5t43.5 -81.5t16 -123q0 -80 -16.5 -134.5t-45 -88.5t-66 -49t-80.5 -15q-51 0 -79.5 12.5t-50.5 35.5v-248h-204v967h208v-274q28 32 60.5 45t73.5 13zM245 167q6 -8 22 -13.5t27 -5.5q32 0 47 28.5t15 89.5q0 63 -16 87.5t-45 24.5
q-24 0 -50 -18v-193z" />
    <glyph glyph-name="ydieresis" unicode="&#xff;" horiz-adv-x="567" 
d="M-16 528h227l77 -323h5l72 323h218l-194 -558q-18 -51 -36.5 -87.5t-43.5 -60t-59 -34.5t-83 -11q-16 0 -35 2t-37 5t-33.5 7.5t-24.5 9.5l13 144q51 -16 75 -16q25 0 36.5 9.5t18.5 25.5l9 20zM268 686q0 -48 -31.5 -76t-82.5 -28q-52 0 -84.5 28t-32.5 76t32.5 76
t84.5 28q51 0 82.5 -28t31.5 -76zM530 686q0 -48 -31.5 -76t-83.5 -28t-84 28t-32 76t32 76t84 28t83.5 -28t31.5 -76z" />
    <glyph glyph-name="apostrophe" unicode="&#x2bc;" horiz-adv-x="500" 
d="M186 729h184l-98 -236l-140 19z" />
    <glyph glyph-name="tilde" unicode="&#x2dc;" horiz-adv-x="500" 
d="M179 746q25 0 45 -6.5t36.5 -14t32 -14t32.5 -6.5q15 0 18.5 9.5t3.5 27.5l96 -5q4 -31 1.5 -59.5t-13 -50.5t-31.5 -35.5t-54 -13.5q-28 0 -49 6.5t-38.5 14.5t-32 14.5t-29.5 6.5q-17 0 -22.5 -9t-0.5 -32l-107 4q-4 34 1 64t19.5 52t37 34.5t54.5 12.5z" />
    <glyph glyph-name="endash" unicode="&#x2013;" horiz-adv-x="500" 
d="M0 207v145h500v-145h-500z" />
    <glyph glyph-name="emdash" unicode="&#x2014;" horiz-adv-x="1000" 
d="M0 207v145h1000v-145h-1000z" />
    <glyph glyph-name="quoteleft" unicode="&#x2018;" horiz-adv-x="266" 
d="M208 539h-193l96 261l150 -14z" />
    <glyph glyph-name="quoteright" unicode="&#x2019;" horiz-adv-x="268" 
d="M75 781h193l-96 -261l-150 14z" />
    <glyph glyph-name="quotedblleft" unicode="&#x201c;" horiz-adv-x="479" 
d="M421 539h-193l96 261l150 -14zM208 539h-193l96 261l150 -14z" />
    <glyph glyph-name="quotedblright" unicode="&#x201d;" horiz-adv-x="479" 
d="M286 781h193l-96 -261l-150 14zM75 781h193l-96 -261l-150 14z" />
    <glyph glyph-name="quotedblbase" unicode="&#x201e;" horiz-adv-x="495" 
d="M58 102h193l-96 -261l-150 14zM272 102h193l-96 -261l-150 14z" />
    <glyph glyph-name="bullet" unicode="&#x2022;" horiz-adv-x="527" 
d="M429 279q0 -79 -42 -118.5t-123 -39.5t-123 39.5t-42 118.5t42 118.5t123 39.5t123 -39.5t42 -118.5z" />
    <glyph glyph-name="ellipsis" unicode="&#x2026;" horiz-adv-x="831" 
d="M261 95q0 -52 -28.5 -79.5t-88.5 -27.5q-62 0 -90.5 26.5t-28.5 80.5t28.5 81.5t90.5 27.5q117 0 117 -109zM535 95q0 -52 -28.5 -79.5t-88.5 -27.5q-62 0 -90.5 26.5t-28.5 80.5t28.5 81.5t90.5 27.5q117 0 117 -109zM806 95q0 -52 -28.5 -79.5t-88.5 -27.5
q-62 0 -90.5 26.5t-28.5 80.5t28.5 81.5t90.5 27.5q117 0 117 -109z" />
    <glyph glyph-name="guilsinglleft" unicode="&#x2039;" horiz-adv-x="280" 
d="M101 103l-84 152l89 153h162l-91 -148l84 -157h-160z" />
    <glyph glyph-name="guilsinglright" unicode="&#x203a;" horiz-adv-x="280" 
d="M175 408l89 -151l-84 -154h-160l86 156l-93 149h162z" />
    <glyph glyph-name="Euro" unicode="&#x20ac;" horiz-adv-x="677" 
d="M108 439q7 63 27.5 118t56 95t87.5 63t123 23q53 0 99 -12.5t80 -42t54 -79t22 -123.5l-179 -19q-2 64 -19.5 88t-55.5 24q-35 0 -57 -30.5t-29 -104.5h155l-27 -162h-127q7 -67 26.5 -95t54.5 -28q24 0 38.5 8t23 21.5t12.5 32t8 39.5l175 -27q-8 -72 -35.5 -118.5
t-66 -73.5t-82 -37.5t-83.5 -10.5q-73 0 -124 21t-84 59t-50.5 91t-23.5 118h-97l27 162h71z" />
    <glyph glyph-name="trademark" unicode="&#x2122;" horiz-adv-x="879" 
d="M722 348v213l-71 -213h-79l-69 214v-213h-90v375h113l89 -273l90 273h107v-376h-90zM264 348h-101v295h-107v81h315v-81h-107v-295z" />
    </font>
</defs>
</svg>
