<?xml version="1.0" standalone="no"?>
<!DOCTYPE svg PUBLIC "-//W3C//DTD SVG 1.1//EN" "http://www.w3.org/Graphics/SVG/1.1/DTD/svg11.dtd" >
<svg xmlns="http://www.w3.org/2000/svg" xmlns:xlink="http://www.w3.org/1999/xlink" version="1.1">
<metadata>
Created by FontForge 20170731 at Wed Feb  6 03:45:46 2013
 By Aleksey,,,
Copyright (c) 2012 by TypeTogether. All rights reserved.
</metadata>
<defs>
<font id="AdelleSans-ExtraBold" horiz-adv-x="570" >
  <font-face 
    font-family="Adelle Sans"
    font-weight="800"
    font-stretch="normal"
    units-per-em="1000"
    panose-1="2 0 5 3 0 0 0 2 0 4"
    ascent="750"
    descent="-250"
    x-height="525"
    cap-height="724"
    bbox="-114 -258 1042 948"
    underline-thickness="50"
    underline-position="-150"
    unicode-range="U+000D-2122"
  />
<missing-glyph horiz-adv-x="500" 
d="M50 500h400v-500h-400v500zM400 50v400h-300v-400h300z" />
    <glyph glyph-name=".notdef" horiz-adv-x="500" 
d="M50 500h400v-500h-400v500zM400 50v400h-300v-400h300z" />
    <glyph glyph-name=".null" horiz-adv-x="0" 
 />
    <glyph glyph-name="nonmarkingreturn" unicode="&#xd;" horiz-adv-x="150" 
 />
    <glyph glyph-name="NULL" horiz-adv-x="0" 
 />
    <glyph glyph-name="NULL" horiz-adv-x="0" 
 />
    <glyph glyph-name="space" unicode=" " horiz-adv-x="150" 
 />
    <glyph glyph-name="exclam" unicode="!" horiz-adv-x="335" 
d="M88 202l-20 522h201l-20 -522h-161zM270 76q0 -42 -25 -65t-77 -23q-103 0 -103 88q0 43 25 66t78 23q51 0 76.5 -23t25.5 -66z" />
    <glyph glyph-name="quotedbl" unicode="&#x22;" horiz-adv-x="435" 
d="M243 465v259h162v-259h-162zM30 465v259h162v-259h-162z" />
    <glyph glyph-name="numbersign" unicode="#" horiz-adv-x="607" 
d="M285 0l21 136h-66l-21 -136h-123l21 136h-90l25 123h84l14 92h-91l25 123h84l20 137h123l-20 -137h66l20 137h123l-20 -137h93l-24 -123h-87l-14 -92h93l-24 -123h-88l-21 -136h-123zM339 351h-66l-14 -92h66z" />
    <glyph glyph-name="dollar" unicode="$" horiz-adv-x="577" 
d="M286 578q-35 0 -54 -15t-19 -41q0 -21 10.5 -35.5t28 -25t41 -18.5t49.5 -15q35 -10 71.5 -23t66 -36t48.5 -59t19 -92q0 -50 -16 -88.5t-43.5 -66t-64 -44.5t-77.5 -24v-78h-158v78q-31 6 -60.5 18.5t-54 36t-41.5 60t-22 89.5l160 24q3 -24 9.5 -43t18.5 -32.5
t31.5 -20.5t49.5 -7q41 0 66.5 15.5t25.5 49.5q0 22 -11 37t-29.5 25.5t-43 17.5t-51.5 15q-35 10 -71 23t-65 36t-47.5 59.5t-18.5 92.5q0 41 12.5 74.5t34.5 59t52.5 43.5t65.5 28v96h158v-88q33 -5 63.5 -17.5t54.5 -35t38.5 -56.5t16.5 -83l-165 -18q-5 44 -21 64
t-58 20z" />
    <glyph glyph-name="percent" unicode="%" horiz-adv-x="849" 
d="M203 374q-49 0 -82 13.5t-53.5 37.5t-29 56t-8.5 69q0 86 43 136.5t138 50.5q93 0 132.5 -47t39.5 -127q0 -87 -44.5 -138t-135.5 -51zM121 -12l438 736h161l-437 -736h-162zM208 469q20 0 30.5 19.5t10.5 70.5q0 46 -10 64t-31 18q-20 0 -31 -17.5t-11 -65.5
q0 -50 10.5 -69.5t31.5 -19.5zM639 -12q-49 0 -82 13.5t-53.5 37.5t-29 56t-8.5 69q0 86 43 136.5t138 50.5q93 0 132.5 -47t39.5 -127q0 -87 -44.5 -138t-135.5 -51zM644 83q20 0 30.5 19.5t10.5 70.5q0 46 -10 64t-31 18q-20 0 -31 -17.5t-11 -65.5q0 -50 10.5 -69.5
t31.5 -19.5z" />
    <glyph glyph-name="ampersand" unicode="&#x26;" horiz-adv-x="790" 
d="M581 556q0 -22 -6 -45.5t-23.5 -47.5t-50 -48t-86.5 -46q27 -35 52 -65t57 -66q11 29 14 61.5t2 66.5h165q2 -51 -10.5 -105t-50.5 -107q31 -14 62 -14q18 0 33 4l16 -138q-43 -13 -89 -13q-84 0 -159 45q-29 -22 -80.5 -36t-123.5 -14q-68 0 -118.5 16.5t-83.5 45
t-49.5 67t-16.5 81.5q0 72 36 121.5t116 79.5q-18 30 -25 55.5t-7 54.5q0 26 6 50q15 59 61.5 94t112.5 46q14 2 27.5 3t27.5 1q38 0 72.5 -8t61 -25.5t42 -45.5t15.5 -68zM343 113q12 0 24.5 1.5t25.5 6.5q-41 35 -75.5 77t-68.5 92q-8 -11 -15 -27.5t-7 -44.5v-12t2 -12
q7 -35 35 -58t79 -23zM336 541q0 -20 7 -38t18 -38l8 4q32 17 45.5 34.5t13.5 42.5q0 20 -11 32t-33 12q-20 0 -34 -12.5t-14 -36.5z" />
    <glyph glyph-name="quotesingle" unicode="'" horiz-adv-x="222" 
d="M30 465v259h162v-259h-162z" />
    <glyph glyph-name="parenleft" unicode="(" horiz-adv-x="400" 
d="M194 -153q-28 38 -54.5 85t-47.5 102t-34 116.5t-13 129.5q0 67 12 127t33.5 114.5t51.5 104.5t65 98h193q-31 -44 -59 -91.5t-49.5 -100.5t-34 -114.5t-12.5 -133.5q0 -71 13 -131.5t33.5 -114t46.5 -101t53 -90.5h-197z" />
    <glyph glyph-name="parenright" unicode=")" horiz-adv-x="400" 
d="M206 724q28 -38 54.5 -85.5t47.5 -102t34 -116.5t13 -129t-12 -127t-33.5 -114.5t-51.5 -104.5t-65 -98h-193q31 44 59 91.5t49.5 100.5t34 114.5t12.5 133.5q0 70 -13 131t-33.5 114.5t-46.5 101t-53 90.5h197z" />
    <glyph glyph-name="asterisk" unicode="*" horiz-adv-x="480" 
d="M294 638l108 28l26 -87l-99 -51l67 -102l-71 -54l-92 87l-90 -90l-72 55l66 104l-101 50l27 87l111 -27l15 117h90z" />
    <glyph glyph-name="plus" unicode="+" 
d="M213 117v138h-125v138h125v134h142v-134h126v-138h-126v-138h-142z" />
    <glyph glyph-name="comma" unicode="," horiz-adv-x="279" 
d="M67 146h192l-107 -287l-152 13z" />
    <glyph glyph-name="hyphen" unicode="-" horiz-adv-x="311" 
d="M20 215v150h271v-150h-271z" />
    <glyph glyph-name="period" unicode="." horiz-adv-x="286" 
d="M251 87q0 -48 -26 -73.5t-81 -25.5q-57 0 -83 24.5t-26 74.5q0 49 26 74.5t83 25.5q107 0 107 -100z" />
    <glyph glyph-name="slash" unicode="/" horiz-adv-x="481" 
d="M10 -92l281 847h170l-280 -847h-171z" />
    <glyph glyph-name="zero" unicode="0" horiz-adv-x="599" 
d="M296 -12q-75 0 -127 23.5t-84 70.5t-46 118t-14 166q0 94 15.5 164t49.5 116t87.5 68.5t128.5 22.5q76 0 127.5 -22.5t82.5 -68.5t44.5 -114.5t13.5 -160.5q0 -98 -15 -170t-48 -119.5t-86 -70.5t-129 -23zM300 119q21 0 35.5 12.5t23 41t12.5 76t4 117.5
q0 68 -3.5 113.5t-11.5 73t-22 39t-35 11.5t-36 -11.5t-24 -38.5t-13.5 -73t-4.5 -115t3.5 -116t12 -76t23 -41.5t36.5 -12.5z" />
    <glyph glyph-name="one" unicode="1" horiz-adv-x="459" 
d="M187 0v521q-12 -6 -33 -11.5t-44 -9.5t-44 -6t-33 -2l-7 149q65 5 121 25t93 58h134v-724h-187z" />
    <glyph glyph-name="two" unicode="2" horiz-adv-x="554" 
d="M283 737q118 0 174 -51.5t56 -138.5q0 -42 -11.5 -76t-35 -69t-60 -75t-86.5 -95l-68 -71v-5h272v-156h-487v154l146 164q32 36 58.5 66.5t45 57.5t29 51.5t10.5 48.5q0 26 -13.5 42.5t-47.5 16.5q-71 0 -83 -98l-154 27q6 56 28.5 95.5t57 64t78 36t91.5 11.5z" />
    <glyph glyph-name="three" unicode="3" horiz-adv-x="563" 
d="M174 210q10 -88 87 -88q35 0 58 23.5t23 70.5q0 48 -22.5 69.5t-73.5 21.5h-75v125h47q57 0 85.5 28.5t28.5 74.5q0 31 -14 50t-49 19q-37 0 -56 -20.5t-27 -62.5l-157 30q10 54 35 90t59.5 57t76 30t85.5 9q110 0 170 -45.5t60 -133.5q0 -33 -11 -60t-29.5 -48
t-42.5 -36.5t-49 -24.5v-4q73 -18 111 -60.5t38 -118.5q0 -51 -20.5 -91.5t-56.5 -68.5t-85.5 -43t-107.5 -15q-43 0 -85 9t-76.5 31.5t-58 59t-30.5 92.5z" />
    <glyph glyph-name="four" unicode="4" horiz-adv-x="623" 
d="M348 0v153h-318v128l273 443h226v-426h79v-145h-79v-153h-181zM348 298v267l-161 -267h161z" />
    <glyph glyph-name="five" unicode="5" horiz-adv-x="571" 
d="M86 724h402v-153h-271l-16 -157q23 20 57.5 34t82.5 14q42 0 76.5 -13t59.5 -40.5t39 -69t14 -98.5q0 -61 -21.5 -108t-58.5 -79.5t-87 -49t-107 -16.5q-45 0 -86 9.5t-74 32.5t-55 60t-29 93l160 28q9 -86 87 -86q38 0 63 27t25 81q0 30 -7 48.5t-18 28t-24 13t-26 3.5
q-29 0 -52 -14t-40 -31l-120 48z" />
    <glyph glyph-name="six" unicode="6" horiz-adv-x="585" 
d="M393 523q-5 46 -22.5 65.5t-49.5 19.5q-48 0 -74.5 -49.5t-28.5 -157.5q26 20 61.5 32t81.5 12q40 0 76 -11.5t63.5 -36.5t43.5 -64.5t16 -94.5q0 -66 -21 -113.5t-56.5 -78t-83 -44.5t-100.5 -14q-78 0 -128.5 27.5t-80 75.5t-41 113.5t-11.5 142.5q0 43 5.5 88.5
t18.5 89t35 82t55 67.5t78 46t105 17q39 0 74 -7.5t64 -27t50.5 -53t32.5 -85.5zM227 286q0 -35 3 -64.5t11.5 -51.5t23 -34.5t38.5 -12.5q38 0 52.5 30t14.5 72q0 46 -14.5 68t-52.5 22q-17 0 -37 -7.5t-39 -21.5z" />
    <glyph glyph-name="seven" unicode="7" horiz-adv-x="542" 
d="M53 -1l268 572h-293v153h487v-137l-265 -588h-197z" />
    <glyph glyph-name="eight" unicode="8" horiz-adv-x="586" 
d="M437 397q30 -15 55 -31.5t43 -38t27.5 -50.5t9.5 -68q0 -44 -19.5 -84t-56.5 -70.5t-91.5 -48.5t-123.5 -18q-67 0 -117.5 14.5t-84 40t-50 60.5t-16.5 77q0 73 37 115.5t102 66.5q-110 53 -110 172q0 49 20.5 87t56 64t83.5 39t103 13q120 0 182 -45.5t62 -124.5
q0 -53 -26.5 -93t-85.5 -77zM251 301q-29 -22 -43.5 -45.5t-14.5 -55.5q0 -38 23.5 -59.5t68.5 -21.5q38 0 62.5 20.5t24.5 55.5q0 21 -9 36.5t-25 27.5t-38.5 22t-48.5 20zM328 454q22 15 34.5 41.5t12.5 51.5q0 38 -21 52.5t-47 14.5q-35 0 -52.5 -17.5t-17.5 -40.5
q0 -31 20 -54t71 -48z" />
    <glyph glyph-name="nine" unicode="9" horiz-adv-x="584" 
d="M186 214q6 -40 24 -66t59 -26q45 0 72 50.5t29 153.5q-26 -20 -62 -32.5t-82 -12.5q-40 0 -76.5 12t-64 37.5t-43.5 65.5t-16 97q0 65 22 111t59 75.5t85.5 43.5t101.5 14q74 0 123 -27.5t78.5 -75.5t41.5 -113.5t12 -142.5q0 -42 -4.5 -87.5t-16 -89t-32 -82t-52.5 -68
t-77 -46.5t-105 -17q-44 0 -83.5 8t-71 28.5t-54 55t-31.5 87.5zM360 440q-2 38 -5 67.5t-11 50t-22 31.5t-38 11q-38 0 -53 -26.5t-15 -68.5q0 -46 15.5 -70.5t53.5 -24.5q17 0 36.5 8t38.5 22z" />
    <glyph glyph-name="colon" unicode=":" horiz-adv-x="306" 
d="M261 408q0 -48 -26 -73.5t-81 -25.5q-57 0 -83 24.5t-26 74.5q0 49 26 74.5t83 25.5q107 0 107 -100zM261 87q0 -48 -26 -73.5t-81 -25.5q-57 0 -83 24.5t-26 74.5q0 49 26 74.5t83 25.5q107 0 107 -100z" />
    <glyph glyph-name="semicolon" unicode=";" horiz-adv-x="304" 
d="M72 146h192l-107 -287l-152 13zM284 408q0 -48 -26 -73.5t-81 -25.5q-57 0 -83 24.5t-26 74.5q0 49 26 74.5t83 25.5q107 0 107 -100z" />
    <glyph glyph-name="less" unicode="&#x3c;" 
d="M61 211v164l397 134v-146l-239 -70l239 -73v-142z" />
    <glyph glyph-name="equal" unicode="=" 
d="M88 112v138h393v-138h-393zM88 313v138h393v-138h-393z" />
    <glyph glyph-name="greater" unicode="&#x3e;" 
d="M101 78v143l239 72l-239 71v145l397 -134v-164z" />
    <glyph glyph-name="question" unicode="?" 
d="M159 202v185q34 3 68 10t61.5 22.5t45 40t17.5 62.5q0 73 -68 73q-42 0 -60.5 -26t-24.5 -73l-183 27q12 108 86.5 161t193.5 53q48 0 94 -11t81.5 -37t57.5 -68.5t22 -105.5q0 -91 -50.5 -150.5t-153.5 -85.5v-77h-187zM353 76q0 -42 -25 -65t-77 -23q-103 0 -103 88
q0 43 25 66t78 23q51 0 76.5 -23t25.5 -66z" />
    <glyph glyph-name="at" unicode="@" horiz-adv-x="862" 
d="M638 -167q-32 -14 -81.5 -24.5t-123.5 -10.5q-82 0 -154.5 23t-126.5 70.5t-85 120t-31 170.5q0 89 30 163.5t85.5 128.5t133.5 84t174 30q83 0 150.5 -24t115.5 -68.5t74.5 -107t26.5 -139.5q0 -68 -15 -117t-42 -81t-64 -47.5t-80 -15.5q-48 0 -81.5 16t-45.5 39
q-23 -29 -49.5 -40t-55.5 -11q-66 0 -105.5 51t-39.5 136q0 46 11 86t32 69t51.5 46t69.5 17q28 0 49 -10t33 -24l10 28h93v-267q0 -18 8 -29.5t30 -11.5q25 0 39 18.5t21.5 44t9.5 53.5t2 46q0 49 -13.5 92t-43.5 75.5t-78.5 51.5t-119.5 19q-85 0 -141.5 -27.5
t-90.5 -70.5t-48 -95.5t-14 -101.5q0 -76 21 -130.5t59 -89t91 -50.5t117 -16q45 0 85.5 8.5t79.5 22.5zM486 292q-7 8 -20 13t-26 5q-33 0 -53 -27t-20 -87q0 -49 13 -81t48 -32q17 0 29 6.5t29 21.5v181z" />
    <glyph glyph-name="A" unicode="A" horiz-adv-x="722" 
d="M469 724l258 -724h-209l-53 156h-219l-47 -156h-199l234 724h235zM353 548h-5l-74 -246h153z" />
    <glyph glyph-name="B" unicode="B" horiz-adv-x="642" 
d="M60 0v724h308q64 0 106.5 -13.5t68 -37.5t36 -56.5t10.5 -69.5q0 -36 -11 -63.5t-29 -48t-42 -34.5t-50 -22v-3q86 -10 125.5 -55t39.5 -120q0 -56 -21 -94t-58 -62t-87.5 -34.5t-109.5 -10.5h-286zM305 133q27 0 48 3.5t35.5 12.5t22 25.5t7.5 42.5q0 27 -8 43.5t-22 25
t-32.5 11t-38.5 2.5h-65v-166h53zM281 431q25 0 47.5 3t39 12t26 25.5t9.5 43.5t-9 42t-23.5 22t-33 8.5t-37.5 1.5h-48v-158h29z" />
    <glyph glyph-name="C" unicode="C" horiz-adv-x="697" 
d="M374 -12q-93 0 -158 25.5t-106.5 73t-60.5 115.5t-19 154q0 83 22 153t66.5 120.5t111.5 79t157 28.5q63 0 116 -15t92 -47t61.5 -82t25.5 -121l-174 -17q-4 75 -34.5 105t-89.5 30q-74 0 -114.5 -53.5t-40.5 -172.5q0 -122 38 -175t115 -53q33 0 55.5 9.5t37 25t23 37
t13.5 45.5l170 -27q-8 -67 -38.5 -112.5t-73.5 -73.5t-94.5 -40t-100.5 -12z" />
    <glyph glyph-name="D" unicode="D" horiz-adv-x="722" 
d="M60 0v724h273q94 0 162 -24.5t111.5 -70t64.5 -110.5t21 -146q0 -83 -22.5 -152t-68.5 -118t-117 -76t-168 -27h-256zM305 143q57 0 94.5 16t59 45t30 70.5t8.5 92.5q0 60 -10 101t-32 65.5t-55.5 35.5t-81.5 11h-66v-437h53z" />
    <glyph glyph-name="E" unicode="E" horiz-adv-x="588" 
d="M252 151h311v-151h-503v724h481v-150h-289v-142h273v-147h-273v-134z" />
    <glyph glyph-name="F" unicode="F" horiz-adv-x="557" 
d="M252 0h-192v724h477v-150h-285v-154h261v-147h-261v-273z" />
    <glyph glyph-name="G" unicode="G" horiz-adv-x="740" 
d="M537 84q-13 -25 -34.5 -43t-48 -30t-57 -17.5t-61.5 -5.5q-81 0 -139 27t-95 75t-54.5 114.5t-17.5 144.5q0 85 22 156.5t66.5 123t112 80t158.5 28.5q61 0 113 -13.5t91 -44t63 -79t29 -118.5l-178 -17q-2 21 -7 43.5t-18 40.5t-36 29.5t-60 11.5q-42 0 -71.5 -15.5
t-48.5 -44.5t-27.5 -70.5t-8.5 -93.5q0 -55 6.5 -98t24 -73t47 -45.5t75.5 -15.5q59 0 90 26.5t31 73.5v18h-96v126h287v-378h-139z" />
    <glyph glyph-name="H" unicode="H" horiz-adv-x="736" 
d="M676 0h-192v281h-232v-281h-192v724h192v-284h232v284h192v-724z" />
    <glyph glyph-name="I" unicode="I" horiz-adv-x="312" 
d="M252 0h-192v724h192v-724z" />
    <glyph glyph-name="J" unicode="J" horiz-adv-x="548" 
d="M301 724h192v-511q0 -107 -64 -166t-181 -59q-48 0 -90.5 9.5t-75 34t-52.5 66.5t-22 107l185 27q1 -22 3.5 -40.5t8.5 -31.5t16.5 -20t28.5 -7q28 0 39.5 17.5t11.5 53.5v520z" />
    <glyph glyph-name="K" unicode="K" horiz-adv-x="690" 
d="M252 430l253 294h200l-252 -296l237 -428h-223l-152 283l-64 -71v-212h-191v724h191z" />
    <glyph glyph-name="L" unicode="L" horiz-adv-x="578" 
d="M252 156h301v-156h-493v724h192v-568z" />
    <glyph glyph-name="M" unicode="M" horiz-adv-x="926" 
d="M866 0h-178v538h-6l-142 -538h-165l-134 540h-6v-540h-175v724h284l117 -484h7l115 484h283v-724z" />
    <glyph glyph-name="N" unicode="N" horiz-adv-x="745" 
d="M468 0l-234 462v-462h-174v724h223l230 -467v467h172v-724h-217z" />
    <glyph glyph-name="O" unicode="O" horiz-adv-x="761" 
d="M375 -12q-93 0 -158.5 27.5t-107 76.5t-60.5 116.5t-19 148.5t22.5 150.5t67.5 120.5t113 80t159 29t155.5 -29t105.5 -78.5t59.5 -116.5t18.5 -142q0 -88 -21.5 -158.5t-65 -120.5t-111 -77t-158.5 -27zM382 138q34 0 62 11t48 37t31 69t11 107q0 121 -37.5 173
t-108.5 52q-77 0 -118.5 -52.5t-41.5 -173.5q0 -63 10 -105.5t29.5 -68.5t48.5 -37.5t66 -11.5z" />
    <glyph glyph-name="P" unicode="P" horiz-adv-x="624" 
d="M251 0h-191v724h298q69 0 115.5 -20t74.5 -52t39.5 -73.5t11.5 -84.5q0 -132 -70 -201t-218 -69h-60v-224zM288 366q24 0 45 5t36 17.5t24 34.5t9 56q0 33 -9 52.5t-23.5 30.5t-33 14.5t-37.5 3.5h-48v-214h37z" />
    <glyph glyph-name="Q" unicode="Q" horiz-adv-x="761" 
d="M375 -12q-90 0 -155 27.5t-107.5 76.5t-62.5 116.5t-20 148.5t22.5 150.5t67.5 120.5t113 80t159 29t155.5 -29t105.5 -78.5t59.5 -116.5t18.5 -142q0 -81 -17 -143.5t-59 -115.5l78 -83l-105 -93l-85 91q-29 -19 -73 -29t-95 -10zM382 129q13 0 29 1.5t32 6.5l-108 115
l102 94l69 -79l23 -45q7 33 9.5 70t2.5 70q0 61 -10.5 103.5t-30.5 69.5t-48 39.5t-64 12.5q-77 0 -118.5 -52.5t-41.5 -173.5q0 -63 10.5 -107t30.5 -71.5t48.5 -40.5t64.5 -13z" />
    <glyph glyph-name="R" unicode="R" horiz-adv-x="652" 
d="M647 0h-207l-129 267h-60v-267h-191v724h303q67 0 114 -17t75.5 -45.5t41.5 -66t13 -78.5q0 -80 -32.5 -128.5t-84.5 -75.5zM297 405q21 0 41.5 4t36 14.5t25 28.5t9.5 47q0 39 -23 60t-74 21h-61v-175h46z" />
    <glyph glyph-name="S" unicode="S" horiz-adv-x="609" 
d="M300 600q-42 0 -64 -15.5t-22 -46.5q0 -33 27.5 -50t68.5 -30t89 -26t89 -36.5t68.5 -63.5t27.5 -106q0 -64 -24 -109t-64.5 -73.5t-93 -42t-108.5 -13.5q-44 0 -93.5 7.5t-92 31.5t-72 70.5t-32.5 124.5l171 24q4 -25 10.5 -46.5t20 -38t35.5 -26t58 -9.5q42 0 71 16.5
t29 57.5q0 25 -16 40.5t-42 26t-59 18.5t-68 17.5t-68 24t-59 38t-42 59t-16 86.5q0 56 22 98.5t59.5 71t87.5 43t107 14.5q49 0 96 -8t84.5 -31t61.5 -65t27 -109l-174 -19q-2 51 -25 73t-75 22z" />
    <glyph glyph-name="T" unicode="T" horiz-adv-x="620" 
d="M215 0v569h-210v155h610v-155h-208v-569h-192z" />
    <glyph glyph-name="U" unicode="U" horiz-adv-x="704" 
d="M354 136q35 0 56.5 9t33 28.5t15 49t3.5 70.5v431h191l1 -454q0 -75 -22.5 -128.5t-63 -87.5t-97 -50t-123.5 -16q-156 0 -227 69t-71 218v449h192v-427q0 -39 3.5 -69t15 -50.5t33.5 -31t60 -10.5z" />
    <glyph glyph-name="V" unicode="V" horiz-adv-x="687" 
d="M218 0l-228 724h217l142 -540h8l145 540h195l-221 -724h-258z" />
    <glyph glyph-name="W" unicode="W" horiz-adv-x="1010" 
d="M605 0l-95 449h-5l-92 -449h-256l-154 724h200l89 -528h5l111 528h202l117 -528h7l79 528h193l-156 -724h-245z" />
    <glyph glyph-name="X" unicode="X" horiz-adv-x="667" 
d="M445 363l232 -363h-222l-133 212l-126 -212h-206l231 364l-220 360h213l129 -223l129 223h197z" />
    <glyph glyph-name="Y" unicode="Y" horiz-adv-x="630" 
d="M419 268q0 -67 0.5 -134t0.5 -134h-193v267l-252 457h209l139 -288h6l133 288h193l-236 -456v0z" />
    <glyph glyph-name="Z" unicode="Z" horiz-adv-x="594" 
d="M252 150h320v-150h-549v130l316 444h-309v150h529v-134z" />
    <glyph glyph-name="bracketleft" unicode="[" horiz-adv-x="356" 
d="M60 -143v867h261v-106h-79v-656h79v-105h-261z" />
    <glyph glyph-name="backslash" unicode="\" horiz-adv-x="486" 
d="M305 -92l-280 847h170l281 -847h-171z" />
    <glyph glyph-name="bracketright" unicode="]" horiz-adv-x="356" 
d="M35 -143v105h79v656h-79v106h261v-867h-261z" />
    <glyph glyph-name="asciicircum" unicode="^" horiz-adv-x="750" 
d="M493 299l-118 213l-115 -213h-175l197 365h189l199 -365h-177z" />
    <glyph glyph-name="underscore" unicode="_" horiz-adv-x="500" 
d="M0 -181v130h500v-130h-500z" />
    <glyph glyph-name="grave" unicode="`" horiz-adv-x="500" 
d="M94 741h193l61 -162l-122 -7z" />
    <glyph glyph-name="a" unicode="a" horiz-adv-x="566" 
d="M495 143q0 -21 5.5 -30.5t25.5 -9.5q11 0 31 6l4 -99q-8 -4 -21 -8t-28.5 -7t-32 -5t-29.5 -2q-49 0 -81 17t-44 57q-23 -33 -58.5 -53.5t-89.5 -20.5q-49 0 -79.5 14.5t-48 35.5t-23.5 45.5t-6 44.5q0 44 15.5 75.5t46 52t75 32.5t102.5 17l54 3v14q0 21 -1 37.5
t-6.5 28t-17 17.5t-32.5 6q-29 0 -42.5 -15.5t-21.5 -50.5l-154 27q6 37 21.5 67.5t43 52t69 33t99.5 11.5q111 0 167.5 -44.5t56.5 -143.5v-205zM314 213h-7q-56 -2 -77.5 -15.5t-21.5 -40.5q0 -17 9.5 -30t35.5 -13q20 0 36.5 7.5t24.5 13.5v78z" />
    <glyph glyph-name="b" unicode="b" horiz-adv-x="599" 
d="M45 0v755h187v-276q29 30 64.5 43.5t78.5 13.5q39 0 74.5 -14t62.5 -45t42.5 -81t15.5 -122q0 -77 -16 -131.5t-44.5 -89t-68.5 -50t-88 -15.5q-50 0 -82.5 18t-54.5 44l-5 -1l-9 -49h-157zM232 156q12 -9 29 -17t37 -8q36 0 55.5 31t19.5 105q0 24 -2.5 46.5t-11 40
t-23 28t-38.5 10.5q-17 0 -35 -8.5t-31 -19.5v-208z" />
    <glyph glyph-name="c" unicode="c" horiz-adv-x="548" 
d="M285 -12q-66 0 -115 19.5t-81 54.5t-48 83.5t-16 106.5q0 135 71.5 209.5t204.5 74.5q102 0 162 -50.5t69 -150.5l-164 -24q-2 22 -6 39.5t-11.5 29.5t-19.5 18.5t-31 6.5q-18 0 -32.5 -6t-25 -21t-16 -41t-5.5 -67q0 -78 18.5 -112t61.5 -34q38 0 57 22.5t25 68.5
l150 -28q-7 -51 -28 -88.5t-53 -62t-74.5 -36.5t-92.5 -12z" />
    <glyph glyph-name="d" unicode="d" horiz-adv-x="599" 
d="M554 0h-155l-11 50l-4 1q-23 -30 -59 -46.5t-85 -16.5q-47 0 -86 15t-66.5 46.5t-43 81.5t-15.5 120q0 79 20 133.5t51.5 88.5t71.5 48.5t79 14.5q43 0 69.5 -11t46.5 -31v261h187v-755zM367 373q-26 21 -55 21q-23 0 -39.5 -10.5t-27 -29t-15 -43.5t-4.5 -53
q0 -57 18.5 -92.5t63.5 -35.5q14 0 29.5 5t29.5 18v220z" />
    <glyph glyph-name="e" unicode="e" horiz-adv-x="548" 
d="M290 -12q-75 0 -125.5 22.5t-81.5 60.5t-44.5 87.5t-13.5 102.5q0 70 20.5 122t56.5 86t83.5 50.5t101.5 16.5q62 0 107 -17.5t73.5 -50t42 -78.5t13.5 -103v-28t-2 -29h-299q0 -59 18.5 -83.5t60.5 -24.5q32 0 50 17.5t23 46.5l148 -36q-7 -36 -24.5 -65.5t-46.5 -51
t-69 -33.5t-92 -12zM330 327q1 27 -3 43.5t-11 26t-16.5 13t-20.5 3.5q-21 0 -38.5 -18.5t-16.5 -67.5h106z" />
    <glyph glyph-name="f" unicode="f" horiz-adv-x="389" 
d="M402 625q-15 5 -32.5 9t-35.5 4t-32.5 -3t-25 -11.5t-16.5 -25t-6 -43.5v-30h135v-124h-135v-401h-187v401h-67v124h67v48q0 51 16 88t44.5 60.5t67.5 34.5t86 11t81 -7.5t47 -13.5z" />
    <glyph glyph-name="g" unicode="g" horiz-adv-x="565" 
d="M277 536q40 0 72.5 -5.5t58.5 -18.5q6 15 14 30t20 27.5t28 20.5t39 8q10 0 17 -1t18 -5v-114q-20 1 -36.5 -1t-36.5 -7q25 -28 36 -59t11 -63q0 -44 -17 -79t-48 -59t-75 -37t-98 -13q-27 0 -49 2.5t-45 7.5q-10 -12 -10 -23q0 -9 7.5 -16t27.5 -8l160 -8
q86 -5 133.5 -40t47.5 -115q0 -49 -20 -84t-56.5 -57.5t-87.5 -33t-114 -10.5q-71 0 -121 7.5t-81.5 22.5t-46 37t-14.5 51q0 33 24.5 57t74.5 29v2q-83 27 -83 96q0 41 25 70t59 54q-35 22 -54.5 56t-19.5 84q0 41 15.5 76.5t45.5 62t75 41.5t104 15zM354 348
q0 34 -18.5 50.5t-50.5 16.5t-53 -15.5t-21 -50.5q0 -67 71 -67q31 0 51.5 17t20.5 49zM375 -78q0 16 -10.5 24t-43.5 10l-129 6q-18 -15 -18 -34q0 -15 11.5 -23.5t29 -13t37 -6t35.5 -1.5t32 1.5t28.5 5.5t20 11.5t7.5 19.5z" />
    <glyph glyph-name="h" unicode="h" horiz-adv-x="584" 
d="M543 0h-187v327q0 36 -14 50.5t-39 14.5q-23 0 -42.5 -9.5t-30.5 -20.5v-362h-187v755h185v-280q22 22 58 41.5t92 19.5q85 0 125 -42.5t40 -133.5v-360z" />
    <glyph glyph-name="i" unicode="i" horiz-adv-x="279" 
d="M234 0h-187v525h187v-525zM247 682q0 -51 -28 -78.5t-79 -27.5t-78.5 27.5t-27.5 78.5t27.5 77.5t78.5 26.5t79 -26.5t28 -77.5z" />
    <glyph glyph-name="j" unicode="j" horiz-adv-x="278" 
d="M24 -223q-51 0 -87 10.5t-51 21.5l11 125q12 -6 35.5 -13.5t50.5 -7.5q12 0 23.5 3t20.5 11t14.5 22.5t5.5 38.5v537h187v-552q0 -53 -16 -90t-44 -60.5t-66.5 -34.5t-83.5 -11zM247 682q0 -51 -28 -78.5t-79 -27.5t-78.5 27.5t-27.5 78.5t27.5 77.5t78.5 26.5t79 -26.5
t28 -77.5z" />
    <glyph glyph-name="k" unicode="k" horiz-adv-x="584" 
d="M232 364l143 161h206l-170 -188l183 -337h-207l-121 224l-34 -34v-190h-187v755h187v-391z" />
    <glyph glyph-name="l" unicode="l" horiz-adv-x="279" 
d="M234 0h-187v755h187v-755z" />
    <glyph glyph-name="m" unicode="m" horiz-adv-x="847" 
d="M230 0h-187v525h158l8 -47q26 23 62 40.5t85 17.5q45 0 80.5 -15t55.5 -50q22 28 61 46.5t91 18.5q77 0 119.5 -42t42.5 -130v-364h-187v334q0 58 -46 58q-11 0 -28 -6t-27 -19v-367h-187v334q0 58 -44 58q-14 0 -30 -6t-27 -18v-368z" />
    <glyph glyph-name="n" unicode="n" horiz-adv-x="584" 
d="M543 0h-187v327q0 36 -14 50.5t-39 14.5q-23 0 -42.5 -9.5t-30.5 -20.5v-362h-187v525h166l9 -51q24 25 63 43.5t93 18.5q88 0 128.5 -42.5t40.5 -133.5v-360z" />
    <glyph glyph-name="o" unicode="o" horiz-adv-x="593" 
d="M289 -12q-73 0 -123.5 20t-81.5 56t-45 86t-14 110q0 63 16.5 114t51 87t86.5 55.5t124 19.5t122.5 -20t82 -55t46 -84t14.5 -107q0 -64 -16 -116t-50 -89t-87 -57t-126 -20zM297 114q19 0 33.5 7t24 24.5t14 46.5t4.5 73q0 42 -4 69t-12.5 43.5t-22.5 23t-34 6.5
t-35 -6.5t-25 -22.5t-14.5 -43.5t-4.5 -70.5t3.5 -71.5t12.5 -46t23.5 -25t36.5 -7.5z" />
    <glyph glyph-name="p" unicode="p" horiz-adv-x="598" 
d="M45 525h158l11 -54q33 37 75 51t80 14q42 0 78.5 -14t63.5 -45t42.5 -81t15.5 -122q0 -79 -16.5 -133.5t-45 -88.5t-67 -49t-81.5 -15q-50 0 -78 12t-51 33v-245h-185v737zM230 157q8 -9 28 -17.5t38 -8.5q40 0 58 34t18 102q0 69 -18.5 97.5t-54.5 28.5q-17 0 -36 -8.5
t-33 -19.5v-208z" />
    <glyph glyph-name="q" unicode="q" horiz-adv-x="599" 
d="M554 -212h-186v249q-24 -23 -55 -36t-77 -13q-47 0 -85 15t-65 47t-42 82t-15 121q0 79 20 133t52 87.5t72 48t79 14.5q43 0 76.5 -15t56.5 -48l18 52h151v-737zM368 373q-14 12 -29.5 16.5t-29.5 4.5q-44 0 -63.5 -37.5t-19.5 -94.5q0 -27 4 -51t13 -41.5t25 -28
t40 -10.5q14 0 30 5.5t30 16.5v220z" />
    <glyph glyph-name="r" unicode="r" horiz-adv-x="411" 
d="M406 361q-52 3 -97 -8t-79 -36v-317h-187v525h160l14 -87q10 18 24.5 35.5t34 31.5t44.5 22.5t57 8.5q7 0 14 -0.5t15 -1.5v-173z" />
    <glyph glyph-name="s" unicode="s" horiz-adv-x="510" 
d="M260 536q88 0 143 -34t78 -99l-144 -49q-10 27 -28 45.5t-50 18.5q-25 0 -39.5 -9t-14.5 -26q0 -12 8 -20t21.5 -13t31.5 -8.5t39 -6.5q31 -5 63.5 -12.5t59.5 -24.5t44.5 -46t17.5 -77q0 -49 -20 -84.5t-54 -58t-79 -33.5t-94 -11q-107 0 -162.5 36.5t-69.5 93.5l148 56
q4 -12 10.5 -24.5t16.5 -22t25.5 -15.5t37.5 -6q33 0 47.5 10.5t14.5 25.5q0 12 -7.5 20t-20 13.5t-30 9t-36.5 7.5q-31 6 -64.5 14t-61 25.5t-45.5 47.5t-18 79q0 45 18.5 78.5t50.5 55.5t74 33t89 11z" />
    <glyph glyph-name="t" unicode="t" horiz-adv-x="431" 
d="M426 30q-20 -13 -66 -27.5t-103 -14.5q-88 0 -134 42t-46 138v233h-77v124h77v156l187 24v-180h136v-124h-136v-212q0 -32 12 -47t42 -15q23 0 46 7.5t38 15.5z" />
    <glyph glyph-name="u" unicode="u" horiz-adv-x="576" 
d="M41 525h187v-327q0 -36 11.5 -50.5t37.5 -14.5q20 0 39 9.5t30 20.5v362h187v-525h-160l-14 60q-23 -32 -62 -52t-93 -20q-163 0 -163 173v364z" />
    <glyph glyph-name="v" unicode="v" horiz-adv-x="555" 
d="M167 0l-177 525h202l87 -352h5l88 352h193l-179 -525h-219z" />
    <glyph glyph-name="w" unicode="w" horiz-adv-x="846" 
d="M139 0l-149 525h186l78 -339h3l79 339h180l81 -337h4l72 337h183l-153 -525h-208l-71 306h-3l-60 -306h-222z" />
    <glyph glyph-name="x" unicode="x" horiz-adv-x="555" 
d="M385 264l170 -264h-199l-87 141l-87 -141h-176l168 259l-174 266h202l86 -149l86 149h178z" />
    <glyph glyph-name="y" unicode="y" horiz-adv-x="551" 
d="M-11 525h201l89 -341h4l86 341h193l-199 -564q-17 -48 -35.5 -83t-42.5 -57.5t-56.5 -33t-77.5 -10.5q-16 0 -33.5 2t-34.5 5t-31.5 7t-23.5 9l12 129q24 -8 43.5 -12t33.5 -4q17 0 28 5t19 14t14 22.5t13 31.5z" />
    <glyph glyph-name="z" unicode="z" horiz-adv-x="470" 
d="M233 139h219v-139h-427v122l211 273h-210v130h410v-124z" />
    <glyph glyph-name="braceleft" unicode="{" horiz-adv-x="376" 
d="M341 -145h-89q-81 0 -123.5 32.5t-42.5 105.5q0 21 2.5 42t5 43.5t5 47t2.5 53.5t-12 47t-45 18h-24v104h24q33 0 45 18t12 47t-2.5 53.5t-5 47t-5 43.5t-2.5 42q0 73 42.5 105.5t123.5 32.5h89v-107h-11q-26 0 -35 -12t-9 -32q0 -45 10 -93.5t10 -92.5
q0 -46 -22.5 -67.5t-67.5 -37.5q45 -16 67.5 -37t22.5 -66q0 -44 -9.5 -92t-9.5 -93q0 -20 8.5 -32t34.5 -12h11v-108z" />
    <glyph glyph-name="bar" unicode="|" horiz-adv-x="280" 
d="M55 -143v898h170v-898h-170z" />
    <glyph glyph-name="braceright" unicode="}" horiz-adv-x="376" 
d="M35 737h89q81 0 123.5 -32.5t42.5 -105.5q0 -21 -2.5 -42t-5 -43.5t-5 -47t-2.5 -53.5t12 -47t45 -18h24v-104h-24q-33 0 -45 -18t-12 -47t2.5 -53.5t5 -47t5 -43.5t2.5 -42q0 -73 -42.5 -105.5t-123.5 -32.5h-89v107h11q26 0 35 12t9 32q0 45 -10 93.5t-10 92.5
q0 46 22.5 67.5t67.5 37.5q-45 16 -67.5 37t-22.5 66q0 44 9.5 92t9.5 93q0 20 -8.5 32t-34.5 12h-11v108z" />
    <glyph glyph-name="asciitilde" unicode="~" horiz-adv-x="650" 
d="M199 465q25 0 60.5 -6.5t71.5 -14.5t67.5 -14.5t48.5 -6.5q16 0 20.5 9.5t4.5 30.5l98 -5q4 -31 0.5 -59.5t-15.5 -50.5t-34 -35.5t-56 -13.5q-27 0 -64 6.5t-73.5 15t-67.5 15t-46 6.5q-17 0 -23.5 -9t-1.5 -35l-107 4q-4 34 0.5 63.5t18.5 51.5t38.5 35t59.5 13z" />
    <glyph glyph-name="uni00A0" unicode="&#xa0;" horiz-adv-x="150" 
 />
    <glyph glyph-name="exclamdown" unicode="&#xa1;" horiz-adv-x="335" 
d="M247 322l20 -522h-201l20 522h161zM65 448q0 42 25 65t77 23q103 0 103 -88q0 -43 -25 -66t-78 -23q-51 0 -76.5 23t-25.5 66z" />
    <glyph glyph-name="cent" unicode="&#xa2;" horiz-adv-x="550" 
d="M375 717v-106q66 -15 106 -60.5t48 -119.5l-166 -22q-5 42 -17.5 62t-44.5 20q-17 0 -31 -4.5t-23.5 -17.5t-15 -37t-5.5 -62q0 -73 18.5 -102.5t59.5 -29.5q34 0 50.5 19t22.5 62l153 -26q-11 -75 -54.5 -119t-111.5 -59v-115h-158v115q-86 21 -128.5 84.5t-42.5 153.5
q0 103 47 168.5t135 87.5v108h158z" />
    <glyph glyph-name="sterling" unicode="&#xa3;" horiz-adv-x="612" 
d="M67 124q31 27 48.5 58t17.5 66q0 29 -13 59h-91v129h57q-11 20 -23.5 47.5t-12.5 62.5q0 42 17.5 77.5t51 60.5t82 39t110.5 14q52 0 94 -10t73 -32.5t51.5 -58.5t29.5 -89l-166 -29q-3 16 -7 32.5t-12.5 30t-23 21.5t-39.5 8q-37 0 -54 -18.5t-17 -50.5q0 -27 12 -53
t26 -52h177v-129h-147q6 -23 6 -46q0 -35 -15 -70t-47 -67h77q33 0 54 7t33.5 20.5t19.5 33t11 44.5l152 -25q-7 -105 -65 -154.5t-184 -49.5h-338v124h55z" />
    <glyph glyph-name="currency" unicode="&#xa4;" 
d="M459 -9l-85 85q-47 -26 -111 -26q-33 0 -61.5 7.5t-51.5 19.5l-85 -86l-94 95l89 89q-20 49 -20 104q0 25 5 50t16 48l-87 87l97 96l82 -82q50 29 116 29q69 0 115 -26l79 78l93 -94l-83 -83q19 -44 19 -99q0 -28 -6.5 -56t-17.5 -53l88 -87zM267 178q42 0 62.5 29.5
t20.5 71.5q0 46 -21 72t-64 26q-42 0 -62.5 -27.5t-20.5 -70.5q0 -42 20 -71.5t65 -29.5z" />
    <glyph glyph-name="yen" unicode="&#xa5;" horiz-adv-x="601" 
d="M442 387h81v-143h-126v-244h-187v244h-124v143h74l-155 337h200l101 -265h5l98 265h187z" />
    <glyph glyph-name="brokenbar" unicode="&#xa6;" horiz-adv-x="280" 
d="M55 -143v388h170v-388h-170zM55 420v335h170v-335h-170z" />
    <glyph glyph-name="section" unicode="&#xa7;" horiz-adv-x="581" 
d="M37 229q0 48 21.5 81.5t66.5 62.5q-23 23 -36.5 55t-13.5 79t18.5 84.5t51 63.5t76.5 40t94 14q42 0 80.5 -9t69 -30.5t51 -57t26.5 -89.5l-158 -17q-2 41 -19 62t-55 21q-27 0 -46 -13.5t-19 -42.5t22.5 -46.5t56 -31t72.5 -26.5t72.5 -33t56 -50.5t22.5 -79.5
q0 -44 -23 -80t-65 -66q23 -22 36.5 -54t13.5 -78q0 -47 -18.5 -84.5t-51 -63.5t-76.5 -40t-94 -14q-42 0 -80.5 9t-69 30.5t-51 57t-26.5 89.5l158 17q2 -41 19 -62t55 -21q27 0 46 13.5t19 42.5t-22.5 45.5t-56 29t-72.5 24.5t-72.5 32t-56 52t-22.5 84zM201 274
q0 -21 13 -34.5t34.5 -23t49 -18t56.5 -18.5q13 8 21 18.5t8 25.5q0 19 -14 31.5t-37 21.5t-51.5 17.5t-58.5 20.5q-21 -14 -21 -41z" />
    <glyph glyph-name="dieresis" unicode="&#xa8;" horiz-adv-x="500" 
d="M230 667q0 -39 -26.5 -62.5t-69.5 -23.5q-44 0 -70.5 23.5t-26.5 62.5t26.5 62.5t70.5 23.5q43 0 69.5 -23.5t26.5 -62.5zM462 667q0 -39 -26 -62.5t-70 -23.5q-43 0 -70 23.5t-27 62.5t27 62.5t70 23.5q44 0 70 -23.5t26 -62.5z" />
    <glyph glyph-name="copyright" unicode="&#xa9;" horiz-adv-x="821" 
d="M771 348q0 -81 -26.5 -147.5t-74 -113.5t-114 -73t-146.5 -26q-89 0 -156.5 26.5t-112.5 72.5t-68 109t-23 137q0 84 28.5 151t77.5 113t115 70.5t141 24.5q84 0 150.5 -24.5t113 -69.5t71 -108.5t24.5 -141.5zM412 79q123 0 191.5 69.5t68.5 193.5q0 63 -19.5 111.5
t-54 81.5t-82 49.5t-104.5 16.5q-56 0 -103.5 -18t-82.5 -52t-55 -83.5t-20 -113.5q0 -120 68 -187.5t193 -67.5zM578 276q-5 -39 -23 -64.5t-41.5 -40t-49.5 -20.5t-48 -6q-48 0 -82 14.5t-55.5 41t-31 62t-9.5 77.5t12 78t35 61.5t57 40t78 14.5q29 0 56 -8t48 -25
t34.5 -42.5t15.5 -60.5l-82 -8q-5 38 -24 54.5t-52 16.5q-38 0 -62.5 -27.5t-24.5 -95.5q0 -23 3.5 -45t13.5 -38.5t27 -26.5t43 -10q37 0 56.5 20t25.5 52z" />
    <glyph glyph-name="ordfeminine" unicode="&#xaa;" horiz-adv-x="408" 
d="M356 383q0 -14 4 -20t18 -6q9 0 21 4l3 -72q-5 -2 -15 -5t-21.5 -5t-24 -3.5t-22.5 -1.5q-35 0 -59 10.5t-34 38.5q-16 -22 -39.5 -35.5t-61.5 -13.5q-34 0 -55.5 9.5t-34 23.5t-17 30t-4.5 30q0 57 40.5 83t125.5 34l37 3v4q0 22 -4.5 37t-29.5 15q-18 0 -26.5 -9
t-13.5 -32l-117 20q4 25 15 46t31 36.5t50 24t72 8.5q79 0 120.5 -29.5t41.5 -95.5v-129zM218 419q-39 -2 -50 -10.5t-11 -20.5q0 -9 6 -16t21 -7q11 0 20.5 3.5t13.5 5.5v45z" />
    <glyph glyph-name="guillemotleft" unicode="&#xab;" horiz-adv-x="481" 
d="M311 103l-85 153l89 152h146l-90 -148l84 -157h-144zM110 103l-85 153l89 152h146l-90 -148l84 -157h-144z" />
    <glyph glyph-name="logicalnot" unicode="&#xac;" 
d="M344 160v95h-264v138h393v-233h-129z" />
    <glyph glyph-name="uni00AD" unicode="&#xad;" horiz-adv-x="311" 
d="M20 215v150h271v-150h-271z" />
    <glyph glyph-name="registered" unicode="&#xae;" horiz-adv-x="472" 
d="M432 472q0 -44 -14.5 -80t-40.5 -61.5t-62 -40t-80 -14.5q-48 0 -84 14.5t-61 40t-37.5 59.5t-12.5 74q0 46 15.5 82.5t42 62t62.5 39t77 13.5q91 0 143 -51.5t52 -137.5zM378 469q0 69 -40.5 105t-100.5 36q-30 0 -55.5 -10t-45 -28.5t-30.5 -45t-11 -60.5
q0 -65 38 -101.5t104 -36.5q65 0 103 37.5t38 103.5zM334 381h-59l-41 70h-13v-70h-52v190h74q43 0 59 -17t16 -39t-10.5 -33.5t-24.5 -16.5zM235 487q14 0 22 5t8 18q0 14 -8.5 18.5t-18.5 4.5h-17v-46h14z" />
    <glyph glyph-name="macron" unicode="&#xaf;" horiz-adv-x="500" 
d="M88 589v118h323v-118h-323z" />
    <glyph glyph-name="degree" unicode="&#xb0;" horiz-adv-x="334" 
d="M168 581q19 0 32 14t13 34t-13.5 33.5t-31.5 13.5q-17 0 -31.5 -14t-14.5 -35q0 -19 13 -32.5t33 -13.5zM289 629q0 -54 -34 -87.5t-87 -33.5q-54 0 -88 33t-34 85q0 28 10 51t26.5 39t38.5 24.5t47 8.5t47 -8.5t38.5 -24t26 -38t9.5 -49.5z" />
    <glyph glyph-name="plusminus" unicode="&#xb1;" 
d="M88 0v138h393v-138h-393zM213 149v106h-125v138h125v134h142v-134h126v-138h-126v-106h-142z" />
    <glyph glyph-name="twosuperior" unicode="&#xb2;" horiz-adv-x="416" 
d="M207 813q47 0 80 -9.5t53.5 -26t29.5 -39t9 -48.5q0 -27 -8 -49.5t-26 -45t-46.5 -47.5t-68.5 -56l-9 -7v-5h165v-131h-352v132l94 87q26 24 43.5 41.5t27.5 30t14 21.5t4 17q0 21 -20 21q-11 0 -22 -10.5t-15 -38.5l-139 17q3 38 19.5 65.5t42 45.5t57.5 26.5t67 8.5z
" />
    <glyph glyph-name="threesuperior" unicode="&#xb3;" horiz-adv-x="420" 
d="M150 499q2 -27 14.5 -35t26.5 -8q34 0 34 34q0 18 -8 27.5t-34 9.5h-55v102h32q32 0 45.5 12.5t13.5 35.5q0 26 -25 26q-29 0 -37 -41l-134 24q7 38 25.5 62.5t44 39t55.5 20.5t61 6q79 0 123.5 -27.5t44.5 -83.5q0 -44 -25.5 -69t-60.5 -40v-3q98 -22 98 -105
q0 -36 -15 -63t-41 -45t-61.5 -27t-77.5 -9q-29 0 -59 5.5t-55.5 20.5t-44 40.5t-23.5 65.5z" />
    <glyph glyph-name="acute" unicode="&#xb4;" horiz-adv-x="500" 
d="M277 572l-122 7l61 162h193z" />
    <glyph glyph-name="mu" unicode="&#xb5;" horiz-adv-x="629" 
d="M70 525h187v-329q0 -34 7.5 -49t30.5 -15q22 0 39.5 7t28.5 15v371h187v-525h-150l-8 47h-7q-17 -12 -36.5 -23.5t-44.5 -20.5q-22 -8 -53 -13l13 -166h-194v701z" />
    <glyph glyph-name="paragraph" unicode="&#xb6;" horiz-adv-x="624" 
d="M564 -133h-121v750h-56v-750h-121v374q-117 6 -169 67.5t-52 165.5q0 69 22 116.5t60.5 77.5t90.5 43t112 13h234v-857z" />
    <glyph glyph-name="periodcentered" unicode="&#xb7;" horiz-adv-x="265" 
d="M230 312q0 -42 -23.5 -64.5t-73.5 -22.5q-98 0 -98 87q0 42 23.5 64.5t74.5 22.5q49 0 73 -22.5t24 -64.5z" />
    <glyph glyph-name="cedilla" unicode="&#xb8;" horiz-adv-x="500" 
d="M145 -165q27 -6 50 -6t37 7.5t14 27.5q0 23 -17 29t-43 7l17 130l80 -8l-9 -68q17 -3 33 -9t28.5 -17t20 -27.5t7.5 -39.5q0 -30 -11 -52.5t-30.5 -37t-45.5 -22t-57 -7.5q-40 0 -83 12z" />
    <glyph glyph-name="onesuperior" unicode="&#xb9;" horiz-adv-x="328" 
d="M130 347v293q-8 -3 -22 -6t-29 -5.5t-29 -3.5t-22 -1l-5 127q42 3 82.5 16t66.5 36h121v-456h-163z" />
    <glyph glyph-name="ordmasculine" unicode="&#xba;" horiz-adv-x="426" 
d="M207 274q-52 0 -87.5 13t-58 37t-32.5 57t-10 73q0 84 47.5 133.5t150.5 49.5q52 0 88.5 -13t59 -36.5t32.5 -56t10 -70.5q0 -86 -47.5 -136.5t-152.5 -50.5zM213 370q24 0 34.5 18.5t10.5 68.5q0 46 -9 65t-34 19t-35.5 -18.5t-10.5 -65.5q0 -48 9 -67.5t35 -19.5z" />
    <glyph glyph-name="guillemotright" unicode="&#xbb;" horiz-adv-x="481" 
d="M367 408l89 -152l-85 -153h-144l85 155l-91 150h146zM166 408l89 -152l-85 -153h-144l85 155l-91 150h146z" />
    <glyph glyph-name="onequarter" unicode="&#xbc;" horiz-adv-x="1080" 
d="M130 279v293q-8 -3 -22 -6t-29 -5.5t-29 -3.5t-22 -1l-5 127q42 3 82.5 16t66.5 36h121v-456h-163zM231 -12l354 736h170l-353 -736h-171zM812 0v85h-207v108l169 263h194v-250h51v-121h-50v-85h-157zM812 206v118l-75 -118h75z" />
    <glyph glyph-name="onehalf" unicode="&#xbd;" horiz-adv-x="1080" 
d="M130 279v293q-8 -3 -22 -6t-29 -5.5t-29 -3.5t-22 -1l-5 127q42 3 82.5 16t66.5 36h121v-456h-163zM231 -12l354 736h170l-353 -736h-171zM823 464q47 0 80 -9.5t53.5 -26t29.5 -39t9 -48.5q0 -27 -8 -49.5t-26 -45t-46.5 -47.5t-68.5 -56l-9 -7v-5h165v-131h-352v132
l94 87q26 24 43.5 41.5t27.5 30t14 21.5t4 17q0 21 -20 21q-11 0 -22 -10.5t-15 -38.5l-139 17q3 38 19.5 65.5t42 45.5t57.5 26.5t67 8.5z" />
    <glyph glyph-name="threequarters" unicode="&#xbe;" horiz-adv-x="1080" 
d="M277 -12l354 736h170l-353 -736h-171zM835 0v85h-207v108l169 263h194v-250h51v-121h-50v-85h-157zM835 206v118l-75 -118h75zM171 431q2 -27 14.5 -35t26.5 -8q34 0 34 34q0 18 -8 27.5t-34 9.5h-55v102h32q32 0 45.5 12.5t13.5 35.5q0 26 -25 26q-29 0 -37 -41l-134 24
q7 38 25.5 62.5t44 39t55.5 20.5t61 6q79 0 123.5 -27.5t44.5 -83.5q0 -44 -25.5 -69t-60.5 -40v-3q98 -22 98 -105q0 -36 -15 -63t-41 -45t-61.5 -27t-77.5 -9q-29 0 -59 5.5t-55.5 20.5t-44 40.5t-23.5 65.5z" />
    <glyph glyph-name="questiondown" unicode="&#xbf;" 
d="M413 322v-185q-34 -3 -68 -10t-61.5 -22.5t-45 -40.5t-17.5 -62q0 -73 68 -73q42 0 60.5 26t24.5 73l183 -27q-6 -54 -28.5 -94t-58.5 -67t-85 -40t-108 -13q-48 0 -94 11t-81.5 37t-57.5 68.5t-22 105.5q0 91 50.5 150.5t153.5 85.5v77h187zM219 448q0 42 25 65t77 23
q103 0 103 -88q0 -43 -25 -66t-78 -23q-51 0 -76.5 23t-25.5 66z" />
    <glyph glyph-name="Agrave" unicode="&#xc0;" horiz-adv-x="722" 
d="M469 724l258 -724h-209l-53 156h-219l-47 -156h-199l234 724h235zM353 548h-5l-74 -246h153zM175 918h193l86 -143l-129 -7z" />
    <glyph glyph-name="Aacute" unicode="&#xc1;" horiz-adv-x="722" 
d="M469 724l258 -724h-209l-53 156h-219l-47 -156h-199l234 724h235zM353 548h-5l-74 -246h153zM381 768l-129 7l86 143h193z" />
    <glyph glyph-name="Acircumflex" unicode="&#xc2;" horiz-adv-x="722" 
d="M469 724l258 -724h-209l-53 156h-219l-47 -156h-199l234 724h235zM353 548h-5l-74 -246h153zM352 838l-69 -70l-121 6l101 149h177l94 -149l-118 -5z" />
    <glyph glyph-name="Atilde" unicode="&#xc3;" horiz-adv-x="722" 
d="M469 724l258 -724h-209l-53 156h-219l-47 -156h-199l234 724h235zM353 548h-5l-74 -246h153zM274 944q25 0 45 -6.5t37 -14.5t32.5 -14.5t32.5 -6.5q16 0 20.5 9.5t4.5 30.5l88 -5q4 -31 1 -58.5t-14 -48t-31 -32.5t-51 -12q-27 0 -48 6.5t-38.5 15t-33 15t-30.5 6.5
q-17 0 -23.5 -9t-1.5 -35l-97 4q-8 68 20 111.5t87 43.5z" />
    <glyph glyph-name="Adieresis" unicode="&#xc4;" horiz-adv-x="722" 
d="M469 724l258 -724h-209l-53 156h-219l-47 -156h-199l234 724h235zM353 548h-5l-74 -246h153zM329 862q0 -39 -26.5 -62.5t-69.5 -23.5q-44 0 -70.5 23.5t-26.5 62.5t26.5 62.5t70.5 23.5q43 0 69.5 -23.5t26.5 -62.5zM567 862q0 -39 -26 -62.5t-70 -23.5q-43 0 -70 23.5
t-27 62.5t27 62.5t70 23.5q44 0 70 -23.5t26 -62.5z" />
    <glyph glyph-name="Aring" unicode="&#xc5;" horiz-adv-x="722" 
d="M487 793q0 -40 -18 -69l258 -724h-209l-53 156h-219l-47 -156h-199l234 723q-18 27 -18 67q0 32 11 56t29.5 40t43.5 24t52 8q28 0 52.5 -8t43 -24t29 -39t10.5 -54zM353 548h-5l-74 -246h153zM351 743q23 0 37.5 13t14.5 41q0 26 -14 38t-37 12t-38.5 -12t-15.5 -38
q0 -28 15 -41t38 -13z" />
    <glyph glyph-name="AE" unicode="&#xc6;" horiz-adv-x="1004" 
d="M668 151h311v-151h-503v273h-160l-117 -273h-197l329 724h626v-150h-289v-152h273v-147h-273v-124zM476 574h-42l-67 -158h109v158z" />
    <glyph glyph-name="Ccedilla" unicode="&#xc7;" horiz-adv-x="697" 
d="M276 -165q27 -6 50 -6t37 7.5t14 27.5q0 23 -17 29t-43 7l11 90q-80 6 -136.5 34t-92.5 75t-52.5 112t-16.5 145q0 83 22 153t66.5 120.5t111.5 79t157 28.5q63 0 116 -15t92 -47t61.5 -82t25.5 -121l-174 -17q-4 75 -34.5 105t-89.5 30q-74 0 -114.5 -53.5t-40.5 -172.5
q0 -122 38 -175t115 -53q33 0 55.5 9.5t37 25t23 37t13.5 45.5l170 -27q-7 -61 -33 -104t-64 -71t-83.5 -42.5t-91.5 -18.5l-4 -36q17 -3 33 -9t28.5 -17t20 -27.5t7.5 -39.5q0 -30 -11 -52.5t-30.5 -37t-45.5 -22t-57 -7.5q-40 0 -83 12z" />
    <glyph glyph-name="Egrave" unicode="&#xc8;" horiz-adv-x="588" 
d="M252 151h311v-151h-503v724h481v-150h-289v-142h273v-147h-273v-134zM126 918h193l86 -143l-129 -7z" />
    <glyph glyph-name="Eacute" unicode="&#xc9;" horiz-adv-x="588" 
d="M252 151h311v-151h-503v724h481v-150h-289v-142h273v-147h-273v-134zM332 768l-129 7l86 143h193z" />
    <glyph glyph-name="Ecircumflex" unicode="&#xca;" horiz-adv-x="588" 
d="M252 151h311v-151h-503v724h481v-150h-289v-142h273v-147h-273v-134zM303 838l-69 -70l-121 6l101 149h177l94 -149l-118 -5z" />
    <glyph glyph-name="Edieresis" unicode="&#xcb;" horiz-adv-x="588" 
d="M252 151h311v-151h-503v724h481v-150h-289v-142h273v-147h-273v-134zM280 862q0 -39 -26.5 -62.5t-69.5 -23.5q-44 0 -70.5 23.5t-26.5 62.5t26.5 62.5t70.5 23.5q43 0 69.5 -23.5t26.5 -62.5zM518 862q0 -39 -26 -62.5t-70 -23.5q-43 0 -70 23.5t-27 62.5t27 62.5
t70 23.5q44 0 70 -23.5t26 -62.5z" />
    <glyph glyph-name="Igrave" unicode="&#xcc;" horiz-adv-x="312" 
d="M252 0h-192v724h192v-724zM-33 918h193l86 -143l-129 -7z" />
    <glyph glyph-name="Iacute" unicode="&#xcd;" horiz-adv-x="312" 
d="M252 0h-192v724h192v-724zM199 768l-129 7l86 143h193z" />
    <glyph glyph-name="Icircumflex" unicode="&#xce;" horiz-adv-x="312" 
d="M252 0h-192v724h192v-724zM157 838l-69 -70l-121 6l101 149h177l94 -149l-118 -5z" />
    <glyph glyph-name="Idieresis" unicode="&#xcf;" horiz-adv-x="312" 
d="M252 0h-192v724h192v-724zM134 862q0 -39 -26.5 -62.5t-69.5 -23.5q-44 0 -70.5 23.5t-26.5 62.5t26.5 62.5t70.5 23.5q43 0 69.5 -23.5t26.5 -62.5zM372 862q0 -39 -26 -62.5t-70 -23.5q-43 0 -70 23.5t-27 62.5t27 62.5t70 23.5q44 0 70 -23.5t26 -62.5z" />
    <glyph glyph-name="Eth" unicode="&#xd0;" horiz-adv-x="722" 
d="M60 0v291h-65v142h65v291h273q94 0 162 -24.5t111.5 -70t64.5 -110.5t21 -146q0 -83 -22.5 -152t-68.5 -118t-117 -76t-168 -27h-256zM305 143q57 0 94.5 16t59 45t30 70.5t8.5 92.5q0 60 -10 101t-32 65.5t-55.5 35.5t-81.5 11h-66v-147h128v-142h-128v-148h53z" />
    <glyph glyph-name="Ntilde" unicode="&#xd1;" horiz-adv-x="745" 
d="M468 0l-234 462v-462h-174v724h223l230 -467v467h172v-724h-217zM295 944q25 0 45 -6.5t37 -14.5t32.5 -14.5t32.5 -6.5q16 0 20.5 9.5t4.5 30.5l88 -5q4 -31 1 -58.5t-14 -48t-31 -32.5t-51 -12q-27 0 -48 6.5t-38.5 15t-33 15t-30.5 6.5q-17 0 -23.5 -9t-1.5 -35l-97 4
q-8 68 20 111.5t87 43.5z" />
    <glyph glyph-name="Ograve" unicode="&#xd2;" horiz-adv-x="761" 
d="M375 -12q-93 0 -158.5 27.5t-107 76.5t-60.5 116.5t-19 148.5t22.5 150.5t67.5 120.5t113 80t159 29t155.5 -29t105.5 -78.5t59.5 -116.5t18.5 -142q0 -88 -21.5 -158.5t-65 -120.5t-111 -77t-158.5 -27zM382 138q34 0 62 11t48 37t31 69t11 107q0 121 -37.5 173
t-108.5 52q-77 0 -118.5 -52.5t-41.5 -173.5q0 -63 10 -105.5t29.5 -68.5t48.5 -37.5t66 -11.5zM211 918h193l86 -143l-129 -7z" />
    <glyph glyph-name="Oacute" unicode="&#xd3;" horiz-adv-x="761" 
d="M375 -12q-93 0 -158.5 27.5t-107 76.5t-60.5 116.5t-19 148.5t22.5 150.5t67.5 120.5t113 80t159 29t155.5 -29t105.5 -78.5t59.5 -116.5t18.5 -142q0 -88 -21.5 -158.5t-65 -120.5t-111 -77t-158.5 -27zM382 138q34 0 62 11t48 37t31 69t11 107q0 121 -37.5 173
t-108.5 52q-77 0 -118.5 -52.5t-41.5 -173.5q0 -63 10 -105.5t29.5 -68.5t48.5 -37.5t66 -11.5zM417 768l-129 7l86 143h193z" />
    <glyph glyph-name="Ocircumflex" unicode="&#xd4;" horiz-adv-x="761" 
d="M375 -12q-93 0 -158.5 27.5t-107 76.5t-60.5 116.5t-19 148.5t22.5 150.5t67.5 120.5t113 80t159 29t155.5 -29t105.5 -78.5t59.5 -116.5t18.5 -142q0 -88 -21.5 -158.5t-65 -120.5t-111 -77t-158.5 -27zM382 138q34 0 62 11t48 37t31 69t11 107q0 121 -37.5 173
t-108.5 52q-77 0 -118.5 -52.5t-41.5 -173.5q0 -63 10 -105.5t29.5 -68.5t48.5 -37.5t66 -11.5zM388 838l-69 -70l-121 6l101 149h177l94 -149l-118 -5z" />
    <glyph glyph-name="Otilde" unicode="&#xd5;" horiz-adv-x="761" 
d="M375 -12q-93 0 -158.5 27.5t-107 76.5t-60.5 116.5t-19 148.5t22.5 150.5t67.5 120.5t113 80t159 29t155.5 -29t105.5 -78.5t59.5 -116.5t18.5 -142q0 -88 -21.5 -158.5t-65 -120.5t-111 -77t-158.5 -27zM382 138q34 0 62 11t48 37t31 69t11 107q0 121 -37.5 173
t-108.5 52q-77 0 -118.5 -52.5t-41.5 -173.5q0 -63 10 -105.5t29.5 -68.5t48.5 -37.5t66 -11.5zM310 944q25 0 45 -6.5t37 -14.5t32.5 -14.5t32.5 -6.5q16 0 20.5 9.5t4.5 30.5l88 -5q4 -31 1 -58.5t-14 -48t-31 -32.5t-51 -12q-27 0 -48 6.5t-38.5 15t-33 15t-30.5 6.5
q-17 0 -23.5 -9t-1.5 -35l-97 4q-8 68 20 111.5t87 43.5z" />
    <glyph glyph-name="Odieresis" unicode="&#xd6;" horiz-adv-x="761" 
d="M375 -12q-93 0 -158.5 27.5t-107 76.5t-60.5 116.5t-19 148.5t22.5 150.5t67.5 120.5t113 80t159 29t155.5 -29t105.5 -78.5t59.5 -116.5t18.5 -142q0 -88 -21.5 -158.5t-65 -120.5t-111 -77t-158.5 -27zM382 138q34 0 62 11t48 37t31 69t11 107q0 121 -37.5 173
t-108.5 52q-77 0 -118.5 -52.5t-41.5 -173.5q0 -63 10 -105.5t29.5 -68.5t48.5 -37.5t66 -11.5zM365 862q0 -39 -26.5 -62.5t-69.5 -23.5q-44 0 -70.5 23.5t-26.5 62.5t26.5 62.5t70.5 23.5q43 0 69.5 -23.5t26.5 -62.5zM603 862q0 -39 -26 -62.5t-70 -23.5q-43 0 -70 23.5
t-27 62.5t27 62.5t70 23.5q44 0 70 -23.5t26 -62.5z" />
    <glyph glyph-name="multiply" unicode="&#xd7;" 
d="M285 222l-95 -95l-100 100l95 95l-95 95l100 100l95 -95l95 95l100 -100l-95 -95l95 -95l-100 -100z" />
    <glyph glyph-name="Oslash" unicode="&#xd8;" horiz-adv-x="761" 
d="M375 -12q-17 0 -32.5 1t-30.5 3l-27 -71h-186l54 130q-65 48 -94 127t-29 179q0 81 22.5 150.5t67.5 120.5t113 80t159 29q26 0 50 -3l26 61h186l-51 -119q68 -50 98 -129.5t30 -175.5q0 -88 -21.5 -158.5t-65 -120.5t-111 -77t-158.5 -27zM382 138q34 0 62 11t48 37
t31 69t11 107q0 121 -37.5 173t-108.5 52q-77 0 -118.5 -52.5t-41.5 -173.5q0 -63 10 -105.5t29.5 -68.5t48.5 -37.5t66 -11.5z" />
    <glyph glyph-name="Ugrave" unicode="&#xd9;" horiz-adv-x="704" 
d="M354 136q35 0 56.5 9t33 28.5t15 49t3.5 70.5v431h191l1 -454q0 -75 -22.5 -128.5t-63 -87.5t-97 -50t-123.5 -16q-156 0 -227 69t-71 218v449h192v-427q0 -39 3.5 -69t15 -50.5t33.5 -31t60 -10.5zM176 918h193l86 -143l-129 -7z" />
    <glyph glyph-name="Uacute" unicode="&#xda;" horiz-adv-x="704" 
d="M354 136q35 0 56.5 9t33 28.5t15 49t3.5 70.5v431h191l1 -454q0 -75 -22.5 -128.5t-63 -87.5t-97 -50t-123.5 -16q-156 0 -227 69t-71 218v449h192v-427q0 -39 3.5 -69t15 -50.5t33.5 -31t60 -10.5zM407 768l-129 7l86 143h193z" />
    <glyph glyph-name="Ucircumflex" unicode="&#xdb;" horiz-adv-x="704" 
d="M354 136q35 0 56.5 9t33 28.5t15 49t3.5 70.5v431h191l1 -454q0 -75 -22.5 -128.5t-63 -87.5t-97 -50t-123.5 -16q-156 0 -227 69t-71 218v449h192v-427q0 -39 3.5 -69t15 -50.5t33.5 -31t60 -10.5zM353 838l-69 -70l-121 6l101 149h177l94 -149l-118 -5z" />
    <glyph glyph-name="Udieresis" unicode="&#xdc;" horiz-adv-x="704" 
d="M354 136q35 0 56.5 9t33 28.5t15 49t3.5 70.5v431h191l1 -454q0 -75 -22.5 -128.5t-63 -87.5t-97 -50t-123.5 -16q-156 0 -227 69t-71 218v449h192v-427q0 -39 3.5 -69t15 -50.5t33.5 -31t60 -10.5zM330 862q0 -39 -26.5 -62.5t-69.5 -23.5q-44 0 -70.5 23.5t-26.5 62.5
t26.5 62.5t70.5 23.5q43 0 69.5 -23.5t26.5 -62.5zM568 862q0 -39 -26 -62.5t-70 -23.5q-43 0 -70 23.5t-27 62.5t27 62.5t70 23.5q44 0 70 -23.5t26 -62.5z" />
    <glyph glyph-name="Yacute" unicode="&#xdd;" horiz-adv-x="630" 
d="M419 268q0 -67 0.5 -134t0.5 -134h-193v267l-252 457h209l139 -288h6l133 288h193zM356 768l-129 7l86 143h193z" />
    <glyph glyph-name="Thorn" unicode="&#xde;" horiz-adv-x="624" 
d="M251 0h-191v724h196v-115h102q69 0 115.5 -20t74.5 -52t39.5 -73.5t11.5 -84.5q0 -121 -70.5 -190.5t-217.5 -69.5h-60v-119zM288 261q24 0 45 5t36 17t24 32t9 49q0 33 -9 52.5t-23.5 30.5t-33 14.5t-37.5 3.5h-48v-204h37z" />
    <glyph glyph-name="germandbls" unicode="&#xdf;" horiz-adv-x="646" 
d="M43 0v497q0 77 21.5 129t59 83.5t89 45t110.5 13.5q120 0 190 -51.5t70 -146.5q0 -39 -11.5 -68.5t-28 -50t-35 -32.5t-33.5 -17v-4q27 -6 54 -17.5t48.5 -33.5t35 -56.5t13.5 -86.5q0 -41 -11.5 -79.5t-37 -69t-65 -49t-94.5 -18.5q-48 0 -80.5 8t-46.5 16v120
q14 -5 29 -7.5t30 -2.5q17 0 33 5t28 16.5t19.5 30t7.5 46.5q0 29 -8.5 48.5t-23 31t-33.5 16t-41 4.5h-33v124h18q45 0 62 26.5t17 72.5q0 51 -22.5 73.5t-57.5 22.5q-18 0 -34 -5t-27.5 -18.5t-18 -37.5t-6.5 -61v-517h-187z" />
    <glyph glyph-name="agrave" unicode="&#xe0;" horiz-adv-x="566" 
d="M495 143q0 -21 5.5 -30.5t25.5 -9.5q11 0 31 6l4 -99q-8 -4 -21 -8t-28.5 -7t-32 -5t-29.5 -2q-49 0 -81 17t-44 57q-23 -33 -58.5 -53.5t-89.5 -20.5q-49 0 -79.5 14.5t-48 35.5t-23.5 45.5t-6 44.5q0 44 15.5 75.5t46 52t75 32.5t102.5 17l54 3v14q0 21 -1 37.5
t-6.5 28t-17 17.5t-32.5 6q-29 0 -42.5 -15.5t-21.5 -50.5l-154 27q6 37 21.5 67.5t43 52t69 33t99.5 11.5q111 0 167.5 -44.5t56.5 -143.5v-205zM314 213h-7q-56 -2 -77.5 -15.5t-21.5 -40.5q0 -17 9.5 -30t35.5 -13q20 0 36.5 7.5t24.5 13.5v78zM111 741h193l61 -162
l-122 -7z" />
    <glyph glyph-name="aacute" unicode="&#xe1;" horiz-adv-x="566" 
d="M495 143q0 -21 5.5 -30.5t25.5 -9.5q11 0 31 6l4 -99q-8 -4 -21 -8t-28.5 -7t-32 -5t-29.5 -2q-49 0 -81 17t-44 57q-23 -33 -58.5 -53.5t-89.5 -20.5q-49 0 -79.5 14.5t-48 35.5t-23.5 45.5t-6 44.5q0 44 15.5 75.5t46 52t75 32.5t102.5 17l54 3v14q0 21 -1 37.5
t-6.5 28t-17 17.5t-32.5 6q-29 0 -42.5 -15.5t-21.5 -50.5l-154 27q6 37 21.5 67.5t43 52t69 33t99.5 11.5q111 0 167.5 -44.5t56.5 -143.5v-205zM314 213h-7q-56 -2 -77.5 -15.5t-21.5 -40.5q0 -17 9.5 -30t35.5 -13q20 0 36.5 7.5t24.5 13.5v78zM298 572l-122 7l61 162
h193z" />
    <glyph glyph-name="acircumflex" unicode="&#xe2;" horiz-adv-x="566" 
d="M495 143q0 -21 5.5 -30.5t25.5 -9.5q11 0 31 6l4 -99q-8 -4 -21 -8t-28.5 -7t-32 -5t-29.5 -2q-49 0 -81 17t-44 57q-23 -33 -58.5 -53.5t-89.5 -20.5q-49 0 -79.5 14.5t-48 35.5t-23.5 45.5t-6 44.5q0 44 15.5 75.5t46 52t75 32.5t102.5 17l54 3v14q0 21 -1 37.5
t-6.5 28t-17 17.5t-32.5 6q-29 0 -42.5 -15.5t-21.5 -50.5l-154 27q6 37 21.5 67.5t43 52t69 33t99.5 11.5q111 0 167.5 -44.5t56.5 -143.5v-205zM314 213h-7q-56 -2 -77.5 -15.5t-21.5 -40.5q0 -17 9.5 -30t35.5 -13q20 0 36.5 7.5t24.5 13.5v78zM337 575l-64 84l-69 -85
l-121 6l101 164h177l94 -164z" />
    <glyph glyph-name="atilde" unicode="&#xe3;" horiz-adv-x="566" 
d="M495 143q0 -21 5.5 -30.5t25.5 -9.5q11 0 31 6l4 -99q-8 -4 -21 -8t-28.5 -7t-32 -5t-29.5 -2q-49 0 -81 17t-44 57q-23 -33 -58.5 -53.5t-89.5 -20.5q-49 0 -79.5 14.5t-48 35.5t-23.5 45.5t-6 44.5q0 44 15.5 75.5t46 52t75 32.5t102.5 17l54 3v14q0 21 -1 37.5
t-6.5 28t-17 17.5t-32.5 6q-29 0 -42.5 -15.5t-21.5 -50.5l-154 27q6 37 21.5 67.5t43 52t69 33t99.5 11.5q111 0 167.5 -44.5t56.5 -143.5v-205zM314 213h-7q-56 -2 -77.5 -15.5t-21.5 -40.5q0 -17 9.5 -30t35.5 -13q20 0 36.5 7.5t24.5 13.5v78zM196 740q25 0 45 -6.5
t37 -14.5t32.5 -14.5t32.5 -6.5q16 0 20.5 9.5t4.5 30.5l88 -5q4 -31 1 -58.5t-14 -48t-31 -32.5t-51 -12q-27 0 -48 6.5t-38.5 15t-33 15t-30.5 6.5q-17 0 -23.5 -9t-1.5 -35l-97 4q-8 68 20 111.5t87 43.5z" />
    <glyph glyph-name="adieresis" unicode="&#xe4;" horiz-adv-x="566" 
d="M495 143q0 -21 5.5 -30.5t25.5 -9.5q11 0 31 6l4 -99q-8 -4 -21 -8t-28.5 -7t-32 -5t-29.5 -2q-49 0 -81 17t-44 57q-23 -33 -58.5 -53.5t-89.5 -20.5q-49 0 -79.5 14.5t-48 35.5t-23.5 45.5t-6 44.5q0 44 15.5 75.5t46 52t75 32.5t102.5 17l54 3v14q0 21 -1 37.5
t-6.5 28t-17 17.5t-32.5 6q-29 0 -42.5 -15.5t-21.5 -50.5l-154 27q6 37 21.5 67.5t43 52t69 33t99.5 11.5q111 0 167.5 -44.5t56.5 -143.5v-205zM314 213h-7q-56 -2 -77.5 -15.5t-21.5 -40.5q0 -17 9.5 -30t35.5 -13q20 0 36.5 7.5t24.5 13.5v78zM251 667
q0 -39 -26.5 -62.5t-69.5 -23.5q-44 0 -70.5 23.5t-26.5 62.5t26.5 62.5t70.5 23.5q43 0 69.5 -23.5t26.5 -62.5zM483 667q0 -39 -26 -62.5t-70 -23.5q-43 0 -70 23.5t-27 62.5t27 62.5t70 23.5q44 0 70 -23.5t26 -62.5z" />
    <glyph glyph-name="aring" unicode="&#xe5;" horiz-adv-x="566" 
d="M495 143q0 -21 5.5 -30.5t25.5 -9.5q11 0 31 6l4 -99q-8 -4 -21 -8t-28.5 -7t-32 -5t-29.5 -2q-49 0 -81 17t-44 57q-23 -33 -58.5 -53.5t-89.5 -20.5q-49 0 -79.5 14.5t-48 35.5t-23.5 45.5t-6 44.5q0 44 15.5 75.5t46 52t75 32.5t102.5 17l54 3v14q0 21 -1 37.5
t-6.5 28t-17 17.5t-32.5 6q-29 0 -42.5 -15.5t-21.5 -50.5l-154 27q6 37 21.5 67.5t43 52t69 33t99.5 11.5q111 0 167.5 -44.5t56.5 -143.5v-205zM314 213h-7q-56 -2 -77.5 -15.5t-21.5 -40.5q0 -17 9.5 -30t35.5 -13q20 0 36.5 7.5t24.5 13.5v78zM387 675q0 -53 -32.5 -80
t-83.5 -27t-84 26.5t-33 77.5q0 27 9.5 48t25.5 35t37 21t45 7q48 0 82 -27.5t34 -80.5zM270 634q17 0 29 9.5t12 31.5q0 20 -11.5 30t-28.5 10q-18 0 -30 -10t-12 -30q0 -22 11.5 -31.5t29.5 -9.5z" />
    <glyph glyph-name="ae" unicode="&#xe6;" horiz-adv-x="826" 
d="M568 -12q-73 0 -121.5 21.5t-78.5 56.5q-37 -44 -87 -61t-99 -17t-80.5 14t-49.5 34.5t-25 44.5t-7 44q0 98 73.5 138t219.5 45v11q0 22 -1 39t-6 29t-17 18t-33 6q-29 0 -44 -15.5t-20 -51.5l-154 27q11 81 66.5 123t158.5 42q29 0 51.5 -4t40.5 -11.5t33.5 -19
t29.5 -27.5q27 26 70 44t100 18q107 0 160 -67.5t53 -181.5v-28t-2 -29h-299q0 -59 18.5 -83.5t60.5 -24.5q32 0 50 17.5t23 46.5l148 -36q-7 -36 -24.5 -65.5t-46.5 -51t-69 -33.5t-92 -12zM256 113q20 0 39.5 8.5t31.5 19.5q-6 17 -9 34.5t-5 36.5q-59 -2 -82 -16t-23 -42
q0 -17 11 -29t37 -12zM608 327q1 27 -3 43.5t-11 26t-16.5 13t-20.5 3.5q-21 0 -38.5 -18.5t-16.5 -67.5h106z" />
    <glyph glyph-name="ccedilla" unicode="&#xe7;" horiz-adv-x="548" 
d="M187 -165q27 -6 50 -6t37 7.5t14 27.5q0 23 -17 29t-43 7l12 91q-55 6 -95.5 28t-67 56.5t-39.5 79t-13 97.5q0 135 71.5 209.5t204.5 74.5q102 0 162 -50.5t69 -150.5l-164 -24q-2 22 -6 39.5t-11.5 29.5t-19.5 18.5t-31 6.5q-18 0 -32.5 -6t-25 -21t-16 -41t-5.5 -67
q0 -78 18.5 -112t61.5 -34q38 0 57 22.5t25 68.5l150 -28q-14 -94 -70 -141.5t-143 -55.5l-4 -36q17 -3 33 -9t28.5 -17t20 -27.5t7.5 -39.5q0 -30 -11 -52.5t-30.5 -37t-45.5 -22t-57 -7.5q-40 0 -83 12z" />
    <glyph glyph-name="egrave" unicode="&#xe8;" horiz-adv-x="548" 
d="M290 -12q-75 0 -125.5 22.5t-81.5 60.5t-44.5 87.5t-13.5 102.5q0 70 20.5 122t56.5 86t83.5 50.5t101.5 16.5q62 0 107 -17.5t73.5 -50t42 -78.5t13.5 -103v-28t-2 -29h-299q0 -59 18.5 -83.5t60.5 -24.5q32 0 50 17.5t23 46.5l148 -36q-7 -36 -24.5 -65.5t-46.5 -51
t-69 -33.5t-92 -12zM330 327q1 27 -3 43.5t-11 26t-16.5 13t-20.5 3.5q-21 0 -38.5 -18.5t-16.5 -67.5h106zM131 741h193l61 -162l-122 -7z" />
    <glyph glyph-name="eacute" unicode="&#xe9;" horiz-adv-x="548" 
d="M290 -12q-75 0 -125.5 22.5t-81.5 60.5t-44.5 87.5t-13.5 102.5q0 70 20.5 122t56.5 86t83.5 50.5t101.5 16.5q62 0 107 -17.5t73.5 -50t42 -78.5t13.5 -103v-28t-2 -29h-299q0 -59 18.5 -83.5t60.5 -24.5q32 0 50 17.5t23 46.5l148 -36q-7 -36 -24.5 -65.5t-46.5 -51
t-69 -33.5t-92 -12zM330 327q1 27 -3 43.5t-11 26t-16.5 13t-20.5 3.5q-21 0 -38.5 -18.5t-16.5 -67.5h106zM314 572l-122 7l61 162h193z" />
    <glyph glyph-name="ecircumflex" unicode="&#xea;" horiz-adv-x="548" 
d="M290 -12q-75 0 -125.5 22.5t-81.5 60.5t-44.5 87.5t-13.5 102.5q0 70 20.5 122t56.5 86t83.5 50.5t101.5 16.5q62 0 107 -17.5t73.5 -50t42 -78.5t13.5 -103v-28t-2 -29h-299q0 -59 18.5 -83.5t60.5 -24.5q32 0 50 17.5t23 46.5l148 -36q-7 -36 -24.5 -65.5t-46.5 -51
t-69 -33.5t-92 -12zM330 327q1 27 -3 43.5t-11 26t-16.5 13t-20.5 3.5q-21 0 -38.5 -18.5t-16.5 -67.5h106zM353 575l-64 84l-69 -85l-121 6l101 164h177l94 -164z" />
    <glyph glyph-name="edieresis" unicode="&#xeb;" horiz-adv-x="548" 
d="M290 -12q-75 0 -125.5 22.5t-81.5 60.5t-44.5 87.5t-13.5 102.5q0 70 20.5 122t56.5 86t83.5 50.5t101.5 16.5q62 0 107 -17.5t73.5 -50t42 -78.5t13.5 -103v-28t-2 -29h-299q0 -59 18.5 -83.5t60.5 -24.5q32 0 50 17.5t23 46.5l148 -36q-7 -36 -24.5 -65.5t-46.5 -51
t-69 -33.5t-92 -12zM330 327q1 27 -3 43.5t-11 26t-16.5 13t-20.5 3.5q-21 0 -38.5 -18.5t-16.5 -67.5h106zM267 667q0 -39 -26.5 -62.5t-69.5 -23.5q-44 0 -70.5 23.5t-26.5 62.5t26.5 62.5t70.5 23.5q43 0 69.5 -23.5t26.5 -62.5zM499 667q0 -39 -26 -62.5t-70 -23.5
q-43 0 -70 23.5t-27 62.5t27 62.5t70 23.5q44 0 70 -23.5t26 -62.5z" />
    <glyph glyph-name="igrave" unicode="&#xec;" horiz-adv-x="279" 
d="M234 0h-187v525h187v-525zM-16 741h193l61 -162l-122 -7z" />
    <glyph glyph-name="iacute" unicode="&#xed;" horiz-adv-x="279" 
d="M234 0h-187v525h187v-525zM167 572l-122 7l61 162h193z" />
    <glyph glyph-name="icircumflex" unicode="&#xee;" horiz-adv-x="279" 
d="M234 0h-187v525h187v-525zM206 575l-64 84l-69 -85l-121 6l101 164h177l94 -164z" />
    <glyph glyph-name="idieresis" unicode="&#xef;" horiz-adv-x="279" 
d="M234 0h-187v525h187v-525zM120 667q0 -39 -26.5 -62.5t-69.5 -23.5q-44 0 -70.5 23.5t-26.5 62.5t26.5 62.5t70.5 23.5q43 0 69.5 -23.5t26.5 -62.5zM352 667q0 -39 -26 -62.5t-70 -23.5q-43 0 -70 23.5t-27 62.5t27 62.5t70 23.5q44 0 70 -23.5t26 -62.5z" />
    <glyph glyph-name="eth" unicode="&#xf0;" horiz-adv-x="595" 
d="M22 253q0 51 13.5 97t41 81.5t70 56t101.5 20.5q26 0 50.5 -4t56.5 -14l5 6q-18 30 -47.5 53.5t-61.5 40.5t-63 28t-53 17l67 153q91 -21 158 -60l111 77l82 -115l-82 -55q28 -34 47 -72t30.5 -78t16.5 -81t5 -81q0 -165 -69 -250t-216 -85q-68 0 -117.5 19t-82 54
t-48 83.5t-15.5 108.5zM218 254q0 -43 6 -70t16.5 -42.5t24.5 -21.5t30 -6t31.5 7.5t27.5 26.5t19 50.5t7 78.5q0 20 -1 42t-5 48q-18 10 -37.5 14.5t-38.5 4.5q-17 0 -32 -4.5t-25.5 -18.5t-16.5 -40t-6 -69z" />
    <glyph glyph-name="ntilde" unicode="&#xf1;" horiz-adv-x="584" 
d="M543 0h-187v327q0 36 -14 50.5t-39 14.5q-23 0 -42.5 -9.5t-30.5 -20.5v-362h-187v525h166l9 -51q24 25 63 43.5t93 18.5q88 0 128.5 -42.5t40.5 -133.5v-360zM213 740q25 0 45 -6.5t37 -14.5t32.5 -14.5t32.5 -6.5q16 0 20.5 9.5t4.5 30.5l88 -5q4 -31 1 -58.5t-14 -48
t-31 -32.5t-51 -12q-27 0 -48 6.5t-38.5 15t-33 15t-30.5 6.5q-17 0 -23.5 -9t-1.5 -35l-97 4q-8 68 20 111.5t87 43.5z" />
    <glyph glyph-name="ograve" unicode="&#xf2;" horiz-adv-x="593" 
d="M289 -12q-73 0 -123.5 20t-81.5 56t-45 86t-14 110q0 63 16.5 114t51 87t86.5 55.5t124 19.5t122.5 -20t82 -55t46 -84t14.5 -107q0 -64 -16 -116t-50 -89t-87 -57t-126 -20zM297 114q19 0 33.5 7t24 24.5t14 46.5t4.5 73q0 42 -4 69t-12.5 43.5t-22.5 23t-34 6.5
t-35 -6.5t-25 -22.5t-14.5 -43.5t-4.5 -70.5t3.5 -71.5t12.5 -46t23.5 -25t36.5 -7.5zM144 741h193l61 -162l-122 -7z" />
    <glyph glyph-name="oacute" unicode="&#xf3;" horiz-adv-x="593" 
d="M289 -12q-73 0 -123.5 20t-81.5 56t-45 86t-14 110q0 63 16.5 114t51 87t86.5 55.5t124 19.5t122.5 -20t82 -55t46 -84t14.5 -107q0 -64 -16 -116t-50 -89t-87 -57t-126 -20zM297 114q19 0 33.5 7t24 24.5t14 46.5t4.5 73q0 42 -4 69t-12.5 43.5t-22.5 23t-34 6.5
t-35 -6.5t-25 -22.5t-14.5 -43.5t-4.5 -70.5t3.5 -71.5t12.5 -46t23.5 -25t36.5 -7.5zM337 572l-122 7l61 162h193z" />
    <glyph glyph-name="ocircumflex" unicode="&#xf4;" horiz-adv-x="593" 
d="M289 -12q-73 0 -123.5 20t-81.5 56t-45 86t-14 110q0 63 16.5 114t51 87t86.5 55.5t124 19.5t122.5 -20t82 -55t46 -84t14.5 -107q0 -64 -16 -116t-50 -89t-87 -57t-126 -20zM297 114q19 0 33.5 7t24 24.5t14 46.5t4.5 73q0 42 -4 69t-12.5 43.5t-22.5 23t-34 6.5
t-35 -6.5t-25 -22.5t-14.5 -43.5t-4.5 -70.5t3.5 -71.5t12.5 -46t23.5 -25t36.5 -7.5zM366 575l-64 84l-69 -85l-121 6l101 164h177l94 -164z" />
    <glyph glyph-name="otilde" unicode="&#xf5;" horiz-adv-x="593" 
d="M289 -12q-73 0 -123.5 20t-81.5 56t-45 86t-14 110q0 63 16.5 114t51 87t86.5 55.5t124 19.5t122.5 -20t82 -55t46 -84t14.5 -107q0 -64 -16 -116t-50 -89t-87 -57t-126 -20zM297 114q19 0 33.5 7t24 24.5t14 46.5t4.5 73q0 42 -4 69t-12.5 43.5t-22.5 23t-34 6.5
t-35 -6.5t-25 -22.5t-14.5 -43.5t-4.5 -70.5t3.5 -71.5t12.5 -46t23.5 -25t36.5 -7.5zM225 740q25 0 45 -6.5t37 -14.5t32.5 -14.5t32.5 -6.5q16 0 20.5 9.5t4.5 30.5l88 -5q4 -31 1 -58.5t-14 -48t-31 -32.5t-51 -12q-27 0 -48 6.5t-38.5 15t-33 15t-30.5 6.5
q-17 0 -23.5 -9t-1.5 -35l-97 4q-8 68 20 111.5t87 43.5z" />
    <glyph glyph-name="odieresis" unicode="&#xf6;" horiz-adv-x="593" 
d="M289 -12q-73 0 -123.5 20t-81.5 56t-45 86t-14 110q0 63 16.5 114t51 87t86.5 55.5t124 19.5t122.5 -20t82 -55t46 -84t14.5 -107q0 -64 -16 -116t-50 -89t-87 -57t-126 -20zM297 114q19 0 33.5 7t24 24.5t14 46.5t4.5 73q0 42 -4 69t-12.5 43.5t-22.5 23t-34 6.5
t-35 -6.5t-25 -22.5t-14.5 -43.5t-4.5 -70.5t3.5 -71.5t12.5 -46t23.5 -25t36.5 -7.5zM280 667q0 -39 -26.5 -62.5t-69.5 -23.5q-44 0 -70.5 23.5t-26.5 62.5t26.5 62.5t70.5 23.5q43 0 69.5 -23.5t26.5 -62.5zM512 667q0 -39 -26 -62.5t-70 -23.5q-43 0 -70 23.5t-27 62.5
t27 62.5t70 23.5q44 0 70 -23.5t26 -62.5z" />
    <glyph glyph-name="divide" unicode="&#xf7;" 
d="M371 149q0 -37 -21 -58t-66 -21t-66.5 20.5t-21.5 58.5q0 34 21.5 57t66.5 23t66 -23t21 -57zM88 252v138h393v-138h-393zM371 492q0 -37 -21 -58t-66 -21t-66.5 20.5t-21.5 58.5q0 34 21.5 57t66.5 23t66 -23t21 -57z" />
    <glyph glyph-name="oslash" unicode="&#xf8;" horiz-adv-x="593" 
d="M120 32q-51 35 -73 94t-22 134q0 63 16.5 114t51 87t86.5 55.5t124 19.5q8 0 15.5 -0.5t15.5 -0.5l27 59h164l-48 -106q48 -35 69.5 -91t21.5 -127q0 -64 -16 -116t-50 -89t-87 -57t-126 -20q-7 0 -13.5 0.5t-13.5 0.5l-31 -76h-164zM297 114q19 0 33.5 7t24 24.5
t14 46.5t4.5 73q0 42 -4 69t-12.5 43.5t-22.5 23t-34 6.5t-35 -6.5t-25 -22.5t-14.5 -43.5t-4.5 -70.5t3.5 -71.5t12.5 -46t23.5 -25t36.5 -7.5z" />
    <glyph glyph-name="ugrave" unicode="&#xf9;" horiz-adv-x="576" 
d="M41 525h187v-327q0 -36 11.5 -50.5t37.5 -14.5q20 0 39 9.5t30 20.5v362h187v-525h-160l-14 60q-23 -32 -62 -52t-93 -20q-163 0 -163 173v364zM128 741h193l61 -162l-122 -7z" />
    <glyph glyph-name="uacute" unicode="&#xfa;" horiz-adv-x="576" 
d="M41 525h187v-327q0 -36 11.5 -50.5t37.5 -14.5q20 0 39 9.5t30 20.5v362h187v-525h-160l-14 60q-23 -32 -62 -52t-93 -20q-163 0 -163 173v364zM316 572l-122 7l61 162h193z" />
    <glyph glyph-name="ucircumflex" unicode="&#xfb;" horiz-adv-x="576" 
d="M41 525h187v-327q0 -36 11.5 -50.5t37.5 -14.5q20 0 39 9.5t30 20.5v362h187v-525h-160l-14 60q-23 -32 -62 -52t-93 -20q-163 0 -163 173v364zM355 575l-64 84l-69 -85l-121 6l101 164h177l94 -164z" />
    <glyph glyph-name="udieresis" unicode="&#xfc;" horiz-adv-x="576" 
d="M41 525h187v-327q0 -36 11.5 -50.5t37.5 -14.5q20 0 39 9.5t30 20.5v362h187v-525h-160l-14 60q-23 -32 -62 -52t-93 -20q-163 0 -163 173v364zM269 667q0 -39 -26.5 -62.5t-69.5 -23.5q-44 0 -70.5 23.5t-26.5 62.5t26.5 62.5t70.5 23.5q43 0 69.5 -23.5t26.5 -62.5z
M501 667q0 -39 -26 -62.5t-70 -23.5q-43 0 -70 23.5t-27 62.5t27 62.5t70 23.5q44 0 70 -23.5t26 -62.5z" />
    <glyph glyph-name="yacute" unicode="&#xfd;" horiz-adv-x="551" 
d="M-11 525h201l89 -341h4l86 341h193l-199 -564q-17 -48 -35.5 -83t-42.5 -57.5t-56.5 -33t-77.5 -10.5q-16 0 -33.5 2t-34.5 5t-31.5 7t-23.5 9l12 129q24 -8 43.5 -12t33.5 -4q17 0 28 5t19 14t14 22.5t13 31.5zM308 572l-122 7l61 162h193z" />
    <glyph glyph-name="thorn" unicode="&#xfe;" horiz-adv-x="599" 
d="M231 156q12 -9 29.5 -17t37.5 -8q36 0 55.5 31t19.5 105q0 24 -2.5 46.5t-11 40t-23 28t-38.5 10.5q-17 0 -35.5 -8.5t-31.5 -19.5v-208zM45 755h184v-279q29 32 66 46t80 14q39 0 74.5 -14t62.5 -45t42.5 -81t15.5 -122q0 -77 -16.5 -131.5t-45 -89t-67 -50t-82.5 -15.5
q-50 0 -79.5 13t-52.5 36v-249h-182v967z" />
    <glyph glyph-name="ydieresis" unicode="&#xff;" horiz-adv-x="551" 
d="M-11 525h201l89 -341h4l86 341h193l-199 -564q-17 -48 -35.5 -83t-42.5 -57.5t-56.5 -33t-77.5 -10.5q-16 0 -33.5 2t-34.5 5t-31.5 7t-23.5 9l12 129q24 -8 43.5 -12t33.5 -4q17 0 28 5t19 14t14 22.5t13 31.5zM261 667q0 -39 -26.5 -62.5t-69.5 -23.5q-44 0 -70.5 23.5
t-26.5 62.5t26.5 62.5t70.5 23.5q43 0 69.5 -23.5t26.5 -62.5zM493 667q0 -39 -26 -62.5t-70 -23.5q-43 0 -70 23.5t-27 62.5t27 62.5t70 23.5q44 0 70 -23.5t26 -62.5z" />
    <glyph glyph-name="apostrophe" unicode="&#x2bc;" horiz-adv-x="500" 
d="M192 722h166l-92 -223l-125 17z" />
    <glyph glyph-name="tilde" unicode="&#x2dc;" horiz-adv-x="500" 
d="M175 740q25 0 45 -6.5t37 -14.5t32.5 -14.5t32.5 -6.5q16 0 20.5 9.5t4.5 30.5l88 -5q4 -31 1 -58.5t-14 -48t-31 -32.5t-51 -12q-27 0 -48 6.5t-38.5 15t-33 15t-30.5 6.5q-17 0 -23.5 -9t-1.5 -35l-97 4q-8 68 20 111.5t87 43.5z" />
    <glyph glyph-name="endash" unicode="&#x2013;" horiz-adv-x="500" 
d="M0 215v130h500v-130h-500z" />
    <glyph glyph-name="emdash" unicode="&#x2014;" horiz-adv-x="1000" 
d="M0 215v130h1000v-130h-1000z" />
    <glyph glyph-name="quoteleft" unicode="&#x2018;" horiz-adv-x="243" 
d="M183 542h-174l93 254l134 -13z" />
    <glyph glyph-name="quoteright" unicode="&#x2019;" horiz-adv-x="243" 
d="M71 788h174l-93 -254l-134 13z" />
    <glyph glyph-name="quotedblleft" unicode="&#x201c;" horiz-adv-x="444" 
d="M183 542h-174l93 254l134 -13zM384 542h-174l93 254l134 -13z" />
    <glyph glyph-name="quotedblright" unicode="&#x201d;" horiz-adv-x="443" 
d="M71 788h174l-93 -254l-134 13zM271 788h174l-93 -254l-134 13z" />
    <glyph glyph-name="quotedblbase" unicode="&#x201e;" horiz-adv-x="446" 
d="M260 99h174l-93 -254l-134 13zM58 99h174l-93 -254l-134 13z" />
    <glyph glyph-name="bullet" unicode="&#x2022;" horiz-adv-x="500" 
d="M410 279q0 -77 -41 -115t-119 -38t-118.5 38t-40.5 115t40.5 115t118.5 38t119 -38t41 -115z" />
    <glyph glyph-name="ellipsis" unicode="&#x2026;" horiz-adv-x="812" 
d="M514 87q0 -48 -26 -73.5t-81 -25.5q-57 0 -83 24.5t-26 74.5q0 49 26 74.5t83 25.5q107 0 107 -100zM777 87q0 -48 -26 -73.5t-81 -25.5q-57 0 -83 24.5t-26 74.5q0 49 26 74.5t83 25.5q107 0 107 -100zM251 87q0 -48 -26 -73.5t-81 -25.5q-57 0 -83 24.5t-26 74.5
q0 49 26 74.5t83 25.5q107 0 107 -100z" />
    <glyph glyph-name="guilsinglleft" unicode="&#x2039;" horiz-adv-x="280" 
d="M110 103l-85 153l89 152h146l-90 -148l84 -157h-144z" />
    <glyph glyph-name="guilsinglright" unicode="&#x203a;" horiz-adv-x="280" 
d="M166 408l89 -152l-85 -153h-144l85 155l-91 150h146z" />
    <glyph glyph-name="Euro" unicode="&#x20ac;" horiz-adv-x="664" 
d="M103 431q7 69 28 125.5t57 97t88 62.5t120 22q52 0 96 -12.5t77 -41.5t53 -76.5t22 -118.5l-160 -17q-4 67 -23.5 93t-64.5 26q-48 0 -74 -38t-33 -122h178l-24 -143h-154q7 -81 31.5 -116.5t70.5 -35.5q26 0 42.5 7.5t27 22t16 34t10.5 43.5l155 -25q-8 -68 -35 -112.5
t-63.5 -70.5t-79.5 -36.5t-82 -10.5q-71 0 -121.5 20.5t-84 59t-51.5 94t-23 126.5h-80l24 143h57z" />
    <glyph glyph-name="trademark" unicode="&#x2122;" horiz-adv-x="870" 
d="M720 348v224l-78 -224h-73l-76 225v-224h-83v375h105l94 -278l95 278h99v-376h-83zM254 348h-93v301h-111v75h316v-75h-112v-301z" />
    </font>
</defs>
</svg>
