<?xml version="1.0" standalone="no"?>
<!DOCTYPE svg PUBLIC "-//W3C//DTD SVG 1.1//EN" "http://www.w3.org/Graphics/SVG/1.1/DTD/svg11.dtd" >
<svg xmlns="http://www.w3.org/2000/svg" xmlns:xlink="http://www.w3.org/1999/xlink" version="1.1">
<metadata>
Created by FontForge 20200427 at Wed Sep 14 14:18:00 2016
 By www
Copyright 1999 Agfa Corporation. All Rights Reserved.
</metadata>
<defs>
<font id="Helvetica" horiz-adv-x="1139" >
  <font-face 
    font-family="Helvetica"
    font-weight="400"
    font-stretch="normal"
    units-per-em="2048"
    panose-1="2 11 6 4 2 2 2 2 2 4"
    ascent="1638"
    descent="-410"
    x-height="1072"
    cap-height="1510"
    bbox="-34 -446 2048 1910"
    underline-thickness="102"
    underline-position="-256"
    unicode-range="U+000D-25FC"
  />
<missing-glyph horiz-adv-x="748" 
d="M68 0v1365h544v-1365h-544zM136 68h408v1229h-408v-1229z" />
    <glyph glyph-name=".notdef" horiz-adv-x="748" 
d="M68 0v1365h544v-1365h-544zM136 68h408v1229h-408v-1229z" />
    <glyph glyph-name="glyph1" horiz-adv-x="0" 
 />
    <glyph glyph-name="uni000D" unicode="&#xd;" horiz-adv-x="569" 
 />
    <glyph glyph-name="space" unicode=" " horiz-adv-x="569" 
 />
    <glyph glyph-name="exclam" unicode="!" horiz-adv-x="569" 
d="M183 0v210h200v-210h-200zM183 986v486h200v-486l-47 -634h-106z" />
    <glyph glyph-name="quotedbl" unicode="&#x22;" horiz-adv-x="727" 
d="M151 944v528h149v-528h-149zM441 944v528h149v-528h-149z" />
    <glyph glyph-name="numbersign" unicode="#" 
d="M56 428l20 129h212l38 288h-211l20 129h210l61 434h138l-60 -434h245l61 434h138l-60 -434h212l-20 -129h-212l-41 -288h214l-20 -129h-214l-60 -428h-135l61 428h-250l-60 -428h-135l61 428h-213zM423 557h249l38 288h-246z" />
    <glyph glyph-name="dollar" unicode="$" 
d="M65 443h177q13 -209 93 -264t174 -67v540q-246 56 -331 151t-85 239q0 171 111 282t305 121v128h96v-128q179 -14 290 -103q111 -88 124 -281h-177q-21 120 -78 168t-159 67v-482l98 -29q199 -58 274 -143q76 -84 76 -240q0 -410 -448 -439v-192h-96v192
q-245 18 -345 142q-99 124 -99 338zM273 1062q0 -181 236 -231v465q-106 -4 -171 -66q-65 -61 -65 -168zM605 112q125 5 196 72q72 67 72 182q0 75 -40 139t-151 99l-77 25v-517z" />
    <glyph glyph-name="percent" unicode="%" horiz-adv-x="1821" 
d="M80 1074q0 144 103 246q103 103 249 103q144 0 248 -103q104 -102 104 -246q0 -147 -104 -251t-248 -104q-146 0 -249 100q-103 101 -103 255zM224 1069q0 -95 58 -151q59 -55 148 -55q86 0 148 61q62 62 62 149q0 85 -61 145q-61 61 -145 61q-87 0 -149 -62
q-61 -62 -61 -148zM448 -37l815 1482h113l-818 -1482h-110zM1040 340q0 144 103 246q103 103 249 103q144 0 248 -103q104 -102 104 -246q0 -147 -104 -251t-248 -104q-146 0 -249 102q-103 103 -103 253zM1184 335q0 -95 60 -151q61 -55 146 -55q86 0 148 61q62 62 62 149
q0 85 -61 145q-61 61 -145 61q-87 0 -149 -62q-61 -62 -61 -148z" />
    <glyph glyph-name="ampersand" unicode="&#x26;" horiz-adv-x="1366" 
d="M90 373q0 140 71 236q72 97 260 208q-43 52 -99 134q-55 83 -55 188q0 145 93 239q94 94 252 94q142 0 233 -82q92 -82 92 -225q0 -122 -62 -208q-61 -86 -194 -175l274 -320q38 89 56 228h171q-21 -184 -119 -375l263 -315h-233l-139 161q-83 -97 -185 -148t-247 -51
q-196 0 -314 106q-118 107 -118 305zM270 367q0 -102 76 -176q77 -74 208 -74q86 0 165 38q80 38 141 127l-338 411q-142 -90 -197 -159t-55 -167zM441 1159q0 -108 142 -259q109 78 144 134q36 56 36 123q0 65 -38 112q-38 48 -120 48q-77 0 -121 -42q-43 -42 -43 -116z
" />
    <glyph glyph-name="quotesingle" unicode="'" horiz-adv-x="391" 
d="M128 944v528h149v-528h-149z" />
    <glyph glyph-name="parenleft" unicode="(" horiz-adv-x="682" 
d="M133 550q0 -276 88 -499q88 -222 265 -467h125q-194 353 -239 549q-46 196 -46 425q0 239 61 431q60 192 227 513h-122q-222 -335 -290 -534q-69 -199 -69 -418z" />
    <glyph glyph-name="parenright" unicode=")" horiz-adv-x="682" 
d="M68 1502h122q222 -335 290 -534q69 -199 69 -418q0 -276 -88 -499q-88 -222 -265 -467h-125q194 353 239 549q46 196 46 425q0 239 -61 431q-60 192 -227 513z" />
    <glyph glyph-name="asterisk" unicode="*" horiz-adv-x="797" 
d="M81 1216l41 112l215 -80v224h122v-224l215 80l41 -112l-222 -74l139 -185l-102 -71l-132 192l-132 -192l-102 71l139 185z" />
    <glyph glyph-name="plus" unicode="+" horiz-adv-x="1196" 
d="M80 447v150h448v448h150v-448h448v-150h-448v-448h-150v448h-448z" />
    <glyph glyph-name="comma" unicode="," horiz-adv-x="569" 
d="M180 0v224h214v-204q0 -280 -214 -324v95q106 16 109 209h-109z" />
    <glyph glyph-name="hyphen" unicode="-" horiz-adv-x="682" 
d="M96 474v183h496v-183h-496z" />
    <glyph glyph-name="period" unicode="." horiz-adv-x="569" 
d="M180 0v217h214v-217h-214z" />
    <glyph glyph-name="slash" unicode="/" horiz-adv-x="569" 
d="M-34 -38l504 1548h136l-504 -1548h-136z" />
    <glyph glyph-name="zero" unicode="0" 
d="M76 698q0 344 126 545q127 202 374 202q226 0 359 -186q133 -185 133 -549q0 -348 -125 -548q-125 -199 -371 -199q-227 0 -362 185q-134 185 -134 550zM268 704q0 -579 302 -579q306 0 306 579t-304 579t-304 -579z" />
    <glyph glyph-name="one" unicode="1" 
d="M208 1014v144q196 8 271 65q76 57 116 207h141v-1430h-192v1014h-336z" />
    <glyph glyph-name="two" unicode="2" 
d="M54 0q15 225 98 351q83 127 227 210l293 174q100 59 141 122q41 64 41 155q0 125 -79 198q-78 73 -212 73q-150 0 -218 -89q-67 -88 -77 -261h-177q0 230 121 371t371 141q202 0 332 -117q131 -116 131 -317q0 -135 -62 -231q-62 -95 -191 -167l-244 -142
q-129 -76 -196 -142q-66 -65 -96 -160h789v-169h-992z" />
    <glyph glyph-name="three" unicode="3" 
d="M70 443h186q3 -155 75 -237q73 -81 229 -81q131 0 224 70q94 71 94 208q0 119 -80 188t-240 69q-34 0 -104 -3v157q69 -5 86 -5q282 0 282 235q0 109 -71 174q-70 65 -193 65q-134 0 -201 -75t-76 -227h-177q1 219 117 341q117 123 349 123q201 0 322 -107
q122 -106 122 -281q0 -231 -189 -301q137 -49 191 -132q54 -82 54 -203q0 -204 -138 -331t-370 -127q-212 0 -343 106q-130 107 -149 374z" />
    <glyph glyph-name="four" unicode="4" 
d="M51 352v173l667 905h149v-921h211v-157h-211v-352h-180v352h-636zM220 509h467v651z" />
    <glyph glyph-name="five" unicode="5" 
d="M64 363h186q36 -238 294 -238q130 0 219 87q90 87 90 236q0 138 -83 226t-230 88q-152 0 -267 -142l-155 8l110 780h738v-177h-603l-62 -398q123 91 273 91q184 0 327 -125q144 -125 144 -337q0 -219 -135 -359q-134 -140 -378 -140q-202 0 -323 97q-120 98 -145 303z
" />
    <glyph glyph-name="six" unicode="6" 
d="M79 658q0 350 134 568q134 219 403 219q187 0 300 -105q114 -105 124 -279h-177q-50 222 -245 222q-160 0 -250 -144q-89 -143 -97 -396q117 182 341 182q209 0 334 -131q125 -130 125 -335q0 -196 -126 -345q-126 -148 -355 -151q-242 0 -377 175q-134 175 -134 520z
M296 451q0 -143 80 -235q81 -91 218 -91q124 0 204 87q81 88 81 239q0 134 -75 223q-74 89 -214 89q-127 0 -211 -82q-83 -82 -83 -230z" />
    <glyph glyph-name="seven" unicode="7" 
d="M80 1231v177h992v-159q-241 -279 -372 -560q-130 -280 -214 -689h-200q47 283 180 588q134 306 403 643h-789z" />
    <glyph glyph-name="eight" unicode="8" 
d="M79 401q0 265 242 363q-194 85 -194 282q0 176 118 287q119 112 319 112q188 0 315 -103q128 -102 128 -279q0 -210 -183 -297q231 -115 231 -354q0 -195 -130 -322q-129 -127 -350 -127q-216 0 -356 115t-140 323zM271 406q0 -122 77 -202q77 -79 228 -79q134 0 210 75
q77 75 77 193q0 128 -77 204q-77 77 -219 77q-129 0 -213 -73q-83 -72 -83 -195zM319 1059q0 -85 65 -157q65 -71 185 -71q104 0 175 63t71 170q0 105 -74 162q-73 57 -184 57q-106 0 -172 -59q-66 -58 -66 -165z" />
    <glyph glyph-name="nine" unicode="9" 
d="M87 949q0 222 131 359q132 137 350 137q511 0 511 -666q0 -361 -138 -589q-137 -227 -407 -227q-190 0 -305 102t-125 282h177q27 -222 251 -222q170 0 256 158q86 159 99 377q-96 -177 -344 -177q-204 0 -330 128t-126 338zM279 952q0 -307 290 -307q129 0 209 81
q81 82 81 243q0 143 -75 228q-74 86 -215 86q-132 0 -211 -89t-79 -242z" />
    <glyph glyph-name="colon" unicode=":" horiz-adv-x="569" 
d="M180 0v217h214v-217h-214zM180 840v217h214v-217h-214z" />
    <glyph glyph-name="semicolon" unicode=";" horiz-adv-x="569" 
d="M180 0v224h214v-204q0 -280 -214 -324v95q106 16 109 209h-109zM180 840v217h214v-217h-214z" />
    <glyph glyph-name="less" unicode="&#x3c;" horiz-adv-x="1196" 
d="M105 448l992 -416v164l-794 323l794 324v164l-992 -416v-143z" />
    <glyph glyph-name="equal" unicode="=" horiz-adv-x="1196" 
d="M80 234v150h1040v-150h-1040zM80 656v150h1040v-150h-1040z" />
    <glyph glyph-name="greater" unicode="&#x3e;" horiz-adv-x="1196" 
d="M99 32v164l794 323l-794 324v164l992 -416v-143z" />
    <glyph glyph-name="question" unicode="?" 
d="M115 1017q5 244 134 361q130 117 330 117q194 0 315 -113t121 -291q0 -105 -51 -180q-50 -74 -145 -164q-137 -127 -159 -207t-22 -170h-180q0 152 42 248q43 96 204 246q63 62 90 113q28 51 28 116q0 115 -66 180q-65 66 -187 66q-131 0 -202 -79q-70 -79 -72 -243h-180
zM455 0v210h200v-210h-200z" />
    <glyph glyph-name="at" unicode="@" horiz-adv-x="2079" 
d="M304 739q0 319 226 545q227 226 548 226q294 0 499 -180t205 -455q0 -246 -161 -417t-321 -171q-116 0 -128 128h-4q-129 -128 -255 -128q-125 0 -212 93q-87 94 -87 240q0 223 139 389t330 166q154 0 241 -160l42 128h138l-154 -509q-38 -128 -38 -159q0 -54 43 -54
q97 0 195 126t98 317q0 214 -157 366q-157 153 -412 153q-262 0 -444 -184q-181 -184 -181 -465q0 -265 181 -452q182 -187 457 -187q171 0 301 73q130 74 203 168h138q-231 -368 -648 -368q-324 0 -553 225q-229 226 -229 546zM782 629q0 -83 47 -139q47 -55 124 -55
q122 0 216 129q95 130 95 278q0 70 -50 127q-49 58 -121 58q-115 0 -213 -120t-98 -278z" />
    <glyph glyph-name="A" unicode="A" horiz-adv-x="1366" 
d="M0 1510zM28 0l560 1472h227l528 -1472h-217l-143 430h-595l-155 -430h-205zM453 604h459l-218 655z" />
    <glyph glyph-name="B" unicode="B" horiz-adv-x="1366" 
d="M152 0v1472h648q188 0 301 -103q114 -102 114 -268q0 -199 -196 -302q148 -57 206 -145t58 -214q0 -188 -130 -314t-369 -126h-632zM351 174h424q140 0 224 66q85 66 85 204q0 246 -344 246h-389v-516zM351 856h358q307 0 307 230q0 212 -304 212h-361v-442z" />
    <glyph glyph-name="C" unicode="C" horiz-adv-x="1479" 
d="M90 736q0 353 186 563q187 211 506 211q241 0 398 -120q158 -119 203 -360h-193q-77 306 -409 306q-217 0 -352 -155q-134 -155 -134 -450q0 -272 120 -434q120 -161 357 -161q172 0 281 102q110 103 153 300h193q-51 -288 -217 -432t-427 -144q-299 0 -482 208
q-183 209 -183 566zM757 0z" />
    <glyph glyph-name="D" unicode="D" horiz-adv-x="1479" 
d="M0 1510zM165 0v1472h594q287 0 450 -194t163 -531q0 -327 -164 -537t-458 -210h-585zM364 174h383q185 0 302 138q118 138 118 437q0 261 -113 405q-112 144 -323 144h-367v-1124z" />
    <glyph glyph-name="E" unicode="E" horiz-adv-x="1366" 
d="M0 1510zM177 0v1472h1079v-174h-880v-457h812v-174h-812v-493h896v-174h-1095z" />
    <glyph glyph-name="F" unicode="F" horiz-adv-x="1251" 
d="M177 0v1472h1015v-174h-816v-457h717v-174h-717v-667h-199z" />
    <glyph glyph-name="G" unicode="G" horiz-adv-x="1593" 
d="M99 718q0 340 183 566t506 226q240 0 415 -125t212 -355h-193q-47 160 -156 233q-108 73 -271 73q-217 0 -354 -157t-137 -452q0 -275 120 -433q121 -158 370 -158q201 0 330 118q130 119 130 365h-464v171h650v-790h-130l-47 186q-70 -92 -196 -158t-300 -66
q-295 0 -482 214q-186 214 -186 542zM808 0z" />
    <glyph glyph-name="H" unicode="H" horiz-adv-x="1479" 
d="M158 0v1472h199v-608h761v608h199v-1472h-199v690h-761v-690h-199z" />
    <glyph glyph-name="I" unicode="I" horiz-adv-x="569" 
d="M0 1510zM186 0v1472h199v-1472h-199z" />
    <glyph glyph-name="J" unicode="J" horiz-adv-x="1024" 
d="M34 332v142h186v-102q0 -130 57 -183t168 -53q232 0 232 256v1080h199v-1074q0 -210 -111 -323q-110 -113 -320 -113q-179 0 -295 94t-116 276z" />
    <glyph glyph-name="K" unicode="K" horiz-adv-x="1366" 
d="M155 0v1472h199v-713l719 713h273l-610 -587l626 -885h-258l-514 736l-236 -219v-517h-199zM721 0z" />
    <glyph glyph-name="L" unicode="L" 
d="M0 1510zM155 0v1472h199v-1298h752v-174h-951z" />
    <glyph glyph-name="M" unicode="M" horiz-adv-x="1706" 
d="M149 0v1472h286l421 -1242l419 1242h286v-1472h-193v1236l-415 -1236h-196l-415 1242v-1242h-193z" />
    <glyph glyph-name="N" unicode="N" horiz-adv-x="1479" 
d="M0 1510zM155 0v1472h236l740 -1196v1196h193v-1472h-224l-752 1196v-1196h-193z" />
    <glyph glyph-name="O" unicode="O" horiz-adv-x="1593" 
d="M81 736q0 332 190 553q191 221 529 221q336 0 527 -224q191 -223 191 -538q0 -347 -190 -567q-190 -219 -529 -219q-317 0 -518 208q-200 209 -200 566zM286 736q0 -258 135 -429q136 -171 379 -171q222 0 367 160q146 161 146 440q0 267 -137 433q-137 167 -377 167
q-227 0 -370 -161t-143 -439zM794 1622z" />
    <glyph glyph-name="P" unicode="P" horiz-adv-x="1366" 
d="M177 0v1472h659q199 0 317 -116q119 -115 119 -303q0 -195 -121 -314q-120 -118 -313 -118h-462v-621h-199zM376 792h394q297 0 297 263q0 243 -289 243h-402v-506z" />
    <glyph glyph-name="Q" unicode="Q" horiz-adv-x="1593" 
d="M81 736q0 344 193 559q194 215 526 215q316 0 517 -203t201 -566q0 -342 -213 -579l201 -156l-99 -120l-221 172q-169 -96 -388 -96q-314 0 -516 208q-201 209 -201 566zM286 736q0 -263 133 -432q133 -168 380 -168q115 0 219 49l-152 123l99 122l191 -149
q157 180 157 457q0 273 -140 435q-140 163 -374 163q-225 0 -369 -162t-144 -438z" />
    <glyph glyph-name="R" unicode="R" horiz-adv-x="1479" 
d="M0 1510zM180 0v1472h679q241 0 360 -99q120 -98 120 -304q0 -240 -205 -350q90 -36 130 -96t45 -203l11 -240q2 -40 11 -80q9 -39 64 -67v-33h-245q-34 145 -34 344q0 160 -59 222q-59 63 -200 63h-478v-629h-199zM379 795h457q298 0 298 257q0 127 -68 186
q-67 60 -194 60h-493v-503z" />
    <glyph glyph-name="S" unicode="S" horiz-adv-x="1366" 
d="M96 474h186q16 -338 416 -338q183 0 278 62q95 63 95 196q0 85 -53 141q-52 57 -259 106l-304 68q-145 36 -228 119q-83 84 -83 233q0 203 135 326q136 123 388 123q231 0 383 -109q153 -109 166 -355h-186q-29 290 -365 290q-147 0 -238 -64q-90 -64 -90 -188
q0 -72 43 -120t163 -74l387 -93q167 -37 250 -133q84 -95 84 -259q0 -215 -158 -329t-431 -114q-285 0 -432 139t-147 373zM669 0z" />
    <glyph glyph-name="T" unicode="T" horiz-adv-x="1251" 
d="M0 1510zM32 1298v174h1191v-174h-496v-1298h-199v1298h-496z" />
    <glyph glyph-name="U" unicode="U" horiz-adv-x="1479" 
d="M0 1510zM161 493v979h199v-929q0 -209 99 -308q100 -99 282 -99q181 0 280 96q100 97 100 306v934h199v-956q0 -241 -148 -398q-147 -156 -450 -156q-239 0 -400 134q-161 135 -161 397z" />
    <glyph glyph-name="V" unicode="V" horiz-adv-x="1366" 
d="M48 1472h220l429 -1259l426 1259h224l-544 -1472h-211z" />
    <glyph glyph-name="W" unicode="W" horiz-adv-x="1933" 
d="M32 1472h214l279 -1202l339 1202h217l339 -1202l273 1202h220l-384 -1472h-208l-346 1219l-351 -1219h-208z" />
    <glyph glyph-name="X" unicode="X" horiz-adv-x="1366" 
d="M40 0l526 753l-492 719h252l369 -558l370 558h239l-489 -719l511 -753h-240l-397 604l-410 -604h-239z" />
    <glyph glyph-name="Y" unicode="Y" horiz-adv-x="1366" 
d="M0 1510zM16 1472h233l426 -701l427 701h233l-560 -880v-592h-199v592z" />
    <glyph glyph-name="Z" unicode="Z" horiz-adv-x="1251" 
d="M0 1510zM47 0v167l897 1131h-829v174h1084v-172l-900 -1126h900v-174h-1152z" />
    <glyph glyph-name="bracketleft" unicode="[" horiz-adv-x="569" 
d="M124 -397h387v146h-224v1587h224v146h-387v-1879z" />
    <glyph glyph-name="backslash" unicode="\" horiz-adv-x="569" 
d="M-34 1510h136l504 -1542h-136z" />
    <glyph glyph-name="bracketright" unicode="]" horiz-adv-x="569" 
d="M58 -251h224v1587h-224v146h387v-1879h-387v146z" />
    <glyph glyph-name="asciicircum" unicode="^" horiz-adv-x="961" 
d="M-28 540l432 862h147l432 -862h-160l-346 700l-345 -700h-160z" />
    <glyph glyph-name="underscore" unicode="_" 
d="M0 -153h1139v-103h-1139v103z" />
    <glyph glyph-name="grave" unicode="`" horiz-adv-x="682" 
d="M32 1504h221l179 -288h-137zM338 1216z" />
    <glyph glyph-name="a" unicode="a" 
d="M73 283q0 289 323 331l281 37q64 8 86 38q23 30 23 91q0 176 -245 176q-126 0 -179 -51t-69 -151h-166q8 352 431 352q178 0 291 -78q114 -78 114 -223v-624q0 -38 14 -51t43 -13q18 0 61 9v-131q-66 -20 -104 -20q-94 0 -136 42q-41 42 -47 124q-153 -175 -380 -175
q-135 0 -238 79q-103 80 -103 238zM259 298q0 -182 194 -182q128 0 229 72t101 182v177q-41 -32 -168 -51q-127 -18 -129 -18q-227 -31 -227 -180zM892 0z" />
    <glyph glyph-name="b" unicode="b" 
d="M118 0v1472h180v-542q113 176 324 176q185 0 314 -139q130 -139 130 -404q0 -262 -128 -430q-127 -167 -344 -167q-191 0 -307 160v-126h-169zM290 510q0 -175 77 -280q78 -105 223 -105q134 0 212 106q78 107 78 324q0 392 -293 392q-297 0 -297 -437z" />
    <glyph glyph-name="c" unicode="c" horiz-adv-x="1024" 
d="M62 518q0 268 137 428t369 160q165 0 268 -91t132 -293h-177q-45 225 -248 225q-141 0 -218 -109q-77 -108 -77 -308q0 -184 70 -295q70 -110 210 -110q202 0 263 257h177q-22 -181 -129 -299q-106 -117 -303 -117q-219 0 -347 146q-127 147 -127 406zM529 0z" />
    <glyph glyph-name="d" unicode="d" 
d="M70 563q0 246 121 394q121 149 320 149q217 0 327 -192v558h180v-1472h-169v142q-99 -176 -310 -176q-213 0 -341 163t-128 434zM256 555q0 -199 74 -315q75 -115 213 -115q139 0 215 103q77 103 77 289q0 216 -74 323q-73 107 -222 107q-283 0 -283 -392z" />
    <glyph glyph-name="e" unicode="e" 
d="M82 518q0 259 132 423q133 165 372 165q225 0 342 -155q118 -154 124 -471h-784q0 -168 76 -262q77 -93 230 -93q109 1 190 62q82 62 97 147h177q-35 -169 -152 -269q-117 -99 -307 -99q-226 0 -362 142q-135 142 -135 410zM268 622h598q-19 179 -92 252t-198 73
q-132 0 -216 -90q-84 -89 -92 -235zM586 0z" />
    <glyph glyph-name="f" unicode="f" horiz-adv-x="569" 
d="M32 922v150h144v174q0 131 71 189q72 58 203 58h33q11 0 49 -4v-160q-60 5 -69 5q-55 0 -81 -32q-26 -31 -26 -95v-135h176v-150h-176v-922h-180v922h-144z" />
    <glyph glyph-name="g" unicode="g" 
d="M82 563q0 235 117 389t325 154q109 0 185 -46q76 -45 142 -141v153h169v-976q0 -301 -126 -420q-126 -118 -366 -118q-170 0 -280 73q-109 74 -134 247h180q35 -163 243 -163q151 0 227 77t76 260v71q-97 -157 -293 -157q-211 0 -338 162t-127 435zM268 555
q0 -202 76 -316q77 -114 212 -114q139 0 215 103q77 103 77 289q0 430 -297 430q-283 0 -283 -392zM547 1218z" />
    <glyph glyph-name="h" unicode="h" 
d="M132 0v1472h180v-542q121 176 328 176q172 0 266 -102q94 -101 94 -274v-730h-180v707q0 133 -52 186q-52 54 -158 54q-141 0 -220 -91q-78 -90 -78 -268v-588h-180z" />
    <glyph glyph-name="i" unicode="i" horiz-adv-x="455" 
d="M138 0v1072h180v-1072h-180zM138 1264v206h180v-206h-180zM185 0z" />
    <glyph glyph-name="j" unicode="j" horiz-adv-x="455" 
d="M-31 -264h37q60 0 96 18t36 91v21v1206h180v-1226q0 -134 -69 -202q-68 -67 -198 -67q-41 0 -82 7v152zM138 1264v206h180v-206h-180z" />
    <glyph glyph-name="k" unicode="k" horiz-adv-x="1024" 
d="M138 0v1472h180v-852l460 452h228l-408 -398l433 -674h-231l-332 544l-150 -155v-389h-180zM564 0z" />
    <glyph glyph-name="l" unicode="l" horiz-adv-x="455" 
d="M138 0v1472h180v-1472h-180zM239 0z" />
    <glyph glyph-name="m" unicode="m" horiz-adv-x="1706" 
d="M132 0v1072h169v-158q137 192 327 192q187 0 280 -176q133 176 316 176q148 0 242 -94t94 -269v-743h-180v699q0 248 -189 248q-100 0 -178 -78q-77 -77 -77 -211v-658h-180v747q0 200 -167 200q-121 0 -199 -92t-78 -267v-588h-180z" />
    <glyph glyph-name="n" unicode="n" 
d="M132 0v1072h169v-158q135 192 339 192q172 0 266 -102q94 -101 94 -274v-730h-180v666q0 162 -57 221q-56 60 -167 60q-126 0 -205 -94t-79 -265v-588h-180zM580 0z" />
    <glyph glyph-name="o" unicode="o" 
d="M70 532q0 255 137 414q137 160 364 160q219 0 360 -155t141 -415q0 -245 -136 -408q-136 -162 -361 -162q-221 0 -363 156q-142 157 -142 410zM256 536q0 -175 81 -293q82 -118 234 -118q132 0 223 103q92 104 92 308q0 175 -80 293t-235 118q-140 0 -228 -106
q-87 -106 -87 -305zM575 1218z" />
    <glyph glyph-name="p" unicode="p" 
d="M118 -416v1488h169v-158q118 192 332 192q188 0 317 -142q130 -141 130 -401q0 -257 -124 -427q-123 -170 -347 -170q-195 0 -297 144v-526h-180zM290 504q0 -174 81 -277q81 -102 216 -102q132 0 212 108q81 108 81 329q0 385 -290 385q-300 0 -300 -443z" />
    <glyph glyph-name="q" unicode="q" 
d="M70 563q0 237 121 390t326 153q118 0 193 -50q76 -49 139 -142v158h169v-1488h-180v526q-111 -144 -297 -144q-205 0 -338 159q-133 160 -133 438zM256 552q0 -199 77 -313q78 -114 216 -114q124 0 210 92q87 93 87 287q0 443 -302 443q-288 0 -288 -395z" />
    <glyph glyph-name="r" unicode="r" horiz-adv-x="682" 
d="M158 0v1072h169v-179q74 123 143 168q70 45 159 45q18 0 45 -7v-185h-68q-119 0 -194 -85q-74 -85 -74 -204v-625h-180zM249 0z" />
    <glyph glyph-name="s" unicode="s" horiz-adv-x="1024" 
d="M62 334h177q8 -209 277 -209q117 0 184 45q68 46 68 127q0 58 -45 92q-45 31 -168 62l-210 52q-249 60 -249 265q0 147 106 242q107 96 305 96q173 0 282 -83t122 -253h-177q-13 177 -243 177q-218 0 -218 -153q0 -67 51 -94q51 -26 143 -48l178 -45q163 -42 231 -105
q69 -66 69 -180q0 -158 -113 -257q-112 -99 -325 -99q-197 0 -316 83t-129 285zM503 0z" />
    <glyph glyph-name="t" unicode="t" horiz-adv-x="569" 
d="M29 922v150h146v304h180v-304h176v-150h-176v-696q0 -86 109 -86h63v-143q-101 -14 -151 -14q-201 0 -201 231v708h-146zM339 0z" />
    <glyph glyph-name="u" unicode="u" 
d="M0 1106zM138 299v773h180v-710q0 -237 214 -237q126 0 210 89t84 266v592h180v-1072h-169v158q-39 -72 -117 -131t-224 -61q-164 0 -261 84q-97 85 -97 249z" />
    <glyph glyph-name="v" unicode="v" horiz-adv-x="1024" 
d="M16 1072h208l275 -875l296 875h197l-400 -1072h-192z" />
    <glyph glyph-name="w" unicode="w" horiz-adv-x="1479" 
d="M28 1072h197l200 -850l211 850h200l217 -850l211 850h180l-304 -1072h-186l-225 833l-211 -833h-186z" />
    <glyph glyph-name="x" unicode="x" horiz-adv-x="1024" 
d="M23 0l372 557l-352 515h231l244 -373l243 373h222l-358 -515l372 -557h-228l-264 402l-254 -402h-228z" />
    <glyph glyph-name="y" unicode="y" horiz-adv-x="1024" 
d="M0 1106zM16 1072h206l287 -872l283 872h200l-384 -1054q-116 -325 -188 -390q-72 -64 -201 -64q-54 0 -107 16v162q61 -19 114 -19q63 0 88 32q25 33 46 84l56 131z" />
    <glyph glyph-name="z" unicode="z" horiz-adv-x="1024" 
d="M0 1106zM65 0v142l646 780h-598v150h832v-147l-641 -775h661v-150h-900z" />
    <glyph glyph-name="braceleft" unicode="{" horiz-adv-x="684" 
d="M80 476v122q69 0 114 75q46 76 46 172v357q0 128 64 199q65 71 153 71h135v-134h-86q-105 0 -105 -185v-316q0 -226 -176 -300q176 -76 176 -301v-328q0 -174 103 -174h88v-134h-130q-104 0 -163 77t-59 198v334q0 117 -47 190q-47 74 -113 77z" />
    <glyph glyph-name="bar" unicode="|" horiz-adv-x="532" 
d="M192 -39v1543h150v-1543h-150z" />
    <glyph glyph-name="braceright" unicode="}" horiz-adv-x="684" 
d="M80 -266h87q104 0 104 176v332q0 227 176 303q-176 71 -176 297v311q0 185 -106 185h-85v134h134q88 0 153 -71q65 -70 65 -197v-354q0 -87 43 -166q43 -78 117 -78v-122q-64 0 -112 -74q-48 -73 -48 -195v-330q0 -125 -58 -205q-57 -80 -165 -80h-129v134z" />
    <glyph glyph-name="asciitilde" unicode="~" horiz-adv-x="1196" 
d="M124 490q95 172 255 172q101 0 238 -72t197 -72q51 0 87 32q37 32 93 112l74 -115q-115 -172 -255 -172q-92 0 -219 72t-223 72q-100 0 -173 -144z" />
    <glyph glyph-name="uni00A0" unicode="&#xa0;" horiz-adv-x="569" 
 />
    <glyph glyph-name="exclamdown" unicode="&#xa1;" horiz-adv-x="682" 
d="M242 85l47 634h106l47 -634v-486h-200v486zM242 861v210h200v-210h-200z" />
    <glyph glyph-name="cent" unicode="&#xa2;" 
d="M104 512q0 253 125 416q126 164 381 164q45 0 91 -7l49 183h80l-55 -206q112 -42 176 -131q65 -89 88 -239h-172q-37 175 -136 213l-222 -777q34 -8 61 -8q137 0 206 66q70 67 99 193h172q-43 -223 -164 -320q-121 -96 -285 -96q-66 0 -134 14l-62 -206h-84l69 232
q-121 53 -202 182q-81 130 -81 327zM287 510q0 -242 147 -347l220 766q-18 6 -44 6q-146 0 -235 -108q-88 -108 -88 -317z" />
    <glyph glyph-name="sterling" unicode="&#xa3;" 
d="M68 645v129h142q-89 165 -89 279q0 177 135 295q136 119 358 119q203 0 326 -116t123 -319v-29h-180q0 141 -75 221q-75 81 -212 81q-117 0 -200 -71t-83 -182q0 -92 105 -278h341v-129h-282q19 -74 19 -131q0 -208 -245 -385q149 74 269 74q81 0 183 -36
q103 -35 158 -35q81 0 155 71l84 -140q-120 -100 -256 -100q-60 0 -203 45q-142 46 -219 46q-107 0 -245 -81l-101 140q251 180 251 384q0 55 -39 148h-220z" />
    <glyph glyph-name="currency" unicode="&#xa4;" 
d="M55 294l110 112q-101 136 -101 313q0 189 102 311l-111 110l99 99l114 -114q123 105 293 105t297 -105l114 114l99 -99l-111 -110q102 -129 102 -310q0 -188 -102 -311l111 -117l-92 -92l-110 118q-128 -111 -308 -111q-175 0 -304 111l-110 -118zM214 718
q0 -147 102 -258q102 -110 247 -110q144 0 246 109q103 110 103 260q0 152 -104 260t-245 108q-146 0 -248 -110q-101 -110 -101 -259z" />
    <glyph glyph-name="yen" unicode="&#xa5;" 
d="M0 1408h206l364 -605l364 605h206l-401 -625h321v-116h-400v-176h400v-116h-400v-375h-180v375h-400v116h400v176h-400v116h321z" />
    <glyph glyph-name="brokenbar" unicode="&#xa6;" horiz-adv-x="532" 
d="M192 -32v592h150v-592h-150zM192 912v592h150v-592h-150z" />
    <glyph glyph-name="section" unicode="&#xa7;" 
d="M88 642q0 211 204 320q-95 91 -95 204q0 153 101 249q102 96 269 96q186 0 281 -98t95 -270h-176q-15 212 -200 212q-87 0 -141 -44q-53 -43 -53 -117q0 -98 150 -187l300 -176q119 -73 172 -147t53 -182q0 -105 -50 -180q-49 -75 -161 -146q106 -117 106 -231
q0 -144 -108 -238t-276 -94q-171 0 -278 95q-106 95 -112 289h176q6 -228 208 -228q99 0 156 44q58 45 58 124q0 88 -115 165l-437 289q-51 33 -89 96q-38 64 -38 155zM264 679q0 -61 25 -103t88 -83l362 -235q63 40 98 87t35 117q0 58 -28 106q-28 49 -97 93l-352 220
q-131 -79 -131 -202z" />
    <glyph glyph-name="dieresis" unicode="&#xa8;" horiz-adv-x="682" 
d="M80 1232v209h186v-209h-186zM334 1216zM410 1232v209h186v-209h-186z" />
    <glyph glyph-name="copyright" unicode="&#xa9;" horiz-adv-x="1509" 
d="M-32 728q0 321 223 548q223 228 560 228q336 0 559 -228t223 -549q0 -325 -227 -551q-226 -225 -556 -225q-324 0 -553 223t-229 554zM125 727q0 -273 174 -460q175 -187 452 -187q258 0 441 180q184 181 184 468q0 272 -180 459q-180 188 -446 188q-274 0 -450 -190
q-175 -190 -175 -458zM333 740q0 200 121 336t317 136q160 -3 256 -82t125 -241h-138q-52 187 -242 187q-121 0 -202 -87q-80 -87 -80 -245q0 -143 77 -245q78 -102 215 -102q194 0 234 194h138q-30 -146 -126 -238t-252 -92q-187 0 -315 132q-128 133 -128 347z" />
    <glyph glyph-name="ordfeminine" unicode="&#xaa;" horiz-adv-x="758" 
d="M48 1014q0 177 225 204l178 21q48 6 48 69q0 89 -150 89q-139 0 -157 -102h-110q18 208 279 208q122 0 192 -47t70 -132v-361q0 -39 35 -39q20 0 41 5v-91q-44 -10 -70 -10q-109 0 -119 104q-109 -104 -242 -104q-98 0 -159 50q-61 51 -61 136zM71 620v99h597v-99h-597z
M175 1031q0 -97 116 -97q86 0 147 42t61 107v78q-22 -18 -184 -41q-140 -17 -140 -89z" />
    <glyph glyph-name="guillemotleft" unicode="&#xab;" 
d="M203 474l320 -256v180l-215 172l215 170v180l-320 -256v-190zM619 474l320 -256v180l-215 172l215 170v180l-320 -256v-190z" />
    <glyph glyph-name="logicalnot" unicode="&#xac;" horiz-adv-x="1196" 
d="M80 652v150h1040v-582h-150v432h-890z" />
    <glyph glyph-name="uni00AD" unicode="&#xad;" horiz-adv-x="682" 
d="M96 474v183h496v-183h-496z" />
    <glyph glyph-name="registered" unicode="&#xae;" horiz-adv-x="1509" 
d="M-32 728q0 321 223 548q223 228 560 228q332 0 557 -225t225 -552q0 -322 -224 -549q-223 -227 -559 -227q-324 0 -553 223t-229 554zM125 727q0 -263 176 -455t450 -192q256 0 440 177q185 177 185 471q0 267 -174 457t-452 190q-271 0 -448 -190t-177 -458zM461 292
v889h334q309 0 309 -253q0 -205 -230 -246l253 -390h-152l-235 383h-143v-383h-136zM597 790h155q119 0 165 32t46 115q0 129 -188 129h-178v-276z" />
    <glyph glyph-name="degree" unicode="&#xb0;" horiz-adv-x="819" 
d="M112 1148q0 131 87 214t208 83q133 0 213 -85q81 -85 81 -210q0 -127 -86 -211t-209 -84q-127 0 -211 84q-83 84 -83 209zM205 1148q0 -82 59 -141q59 -58 144 -58q79 0 139 58q61 59 61 141q0 88 -53 145q-53 58 -150 58q-78 0 -139 -59t-61 -144z" />
    <glyph glyph-name="plusminus" unicode="&#xb1;" horiz-adv-x="1196" 
d="M80 0v150h1046v-150h-1046zM80 566v150h448v336h150v-336h448v-150h-448v-336h-150v336h-448z" />
    <glyph glyph-name="uni00B2" unicode="&#xb2;" horiz-adv-x="682" 
d="M16 576q8 77 20 122q40 137 194 222l180 101q78 43 98 80q21 38 21 91q0 135 -171 135q-163 0 -181 -185h-130q0 130 75 217t245 87q135 0 220 -72q85 -71 85 -190q0 -125 -98 -197q-97 -72 -203 -125q-90 -43 -127 -77q-37 -33 -74 -85h502v-124h-656z" />
    <glyph glyph-name="uni00B3" unicode="&#xb3;" horiz-adv-x="682" 
d="M11 842h143q8 -91 48 -130q41 -39 135 -39q191 0 191 151q0 145 -214 145h-47v104h55q170 0 170 133q0 121 -164 121q-156 0 -170 -169h-125q6 146 85 217q80 71 225 71q131 0 211 -63q81 -62 81 -169q0 -135 -125 -178q161 -52 161 -201q0 -122 -90 -202
q-90 -79 -245 -79q-145 0 -229 68q-83 68 -96 220z" />
    <glyph glyph-name="acute" unicode="&#xb4;" horiz-adv-x="682" 
d="M256 1216l179 288h221l-263 -288h-137zM365 1216z" />
    <glyph glyph-name="uni00B5" unicode="&#xb5;" 
d="M138 -416v1488h175v-712q0 -237 216 -237q127 0 212 93t85 263v593h175v-1072h-164v162q-66 -108 -154 -152t-188 -44q-118 0 -182 75v-457h-175z" />
    <glyph glyph-name="paragraph" unicode="&#xb6;" horiz-adv-x="1100" 
d="M32 1076q0 396 465 396h511v-1824h-150v1702h-244v-1702h-150v1056q-179 0 -306 103q-126 104 -126 269z" />
    <glyph glyph-name="cedilla" unicode="&#xb8;" horiz-adv-x="682" 
d="M96 -401l35 83q72 -33 129 -33q114 0 114 82q0 79 -101 79q-29 0 -72 -14l-6 -2l-35 37l131 169h96l-93 -122q40 10 65 10q73 0 121 -39q48 -38 48 -111q0 -79 -64 -132q-64 -52 -172 -52q-87 0 -196 45zM352 0z" />
    <glyph glyph-name="uni00B9" unicode="&#xb9;" horiz-adv-x="682" 
d="M80 1190v95q138 3 182 36q44 34 73 125h114v-870h-145v614h-224z" />
    <glyph glyph-name="ordmasculine" unicode="&#xba;" horiz-adv-x="748" 
d="M51 1166q0 154 83 245q83 92 242 92q148 0 236 -86q89 -85 89 -249q0 -160 -84 -250q-83 -90 -241 -90q-146 0 -236 85q-89 86 -89 253zM71 620v99h610v-99h-610zM189 1165q0 -231 188 -231q186 0 186 232q0 231 -188 231q-186 0 -186 -232z" />
    <glyph glyph-name="guillemotright" unicode="&#xbb;" 
d="M200 218v180l215 172l-215 170v180l320 -256v-190zM616 218v180l215 172l-215 170v180l320 -256v-190z" />
    <glyph glyph-name="onequarter" unicode="&#xbc;" horiz-adv-x="1708" 
d="M141 1190v95q138 3 182 36q44 34 73 125h114v-870h-145v614h-224zM319 -37l909 1482h115l-909 -1482h-115zM856 196v124l428 551h132v-556h137v-119h-137v-195h-132v195h-428zM984 315h300v393z" />
    <glyph glyph-name="onehalf" unicode="&#xbd;" horiz-adv-x="1708" 
d="M80 1190v95q138 3 182 36q44 34 73 125h114v-870h-145v614h-224zM246 -37l909 1482h115l-909 -1482h-115zM938 1q8 77 20 122q40 137 194 222l180 101q78 43 98 80q21 38 21 91q0 135 -171 135q-163 0 -181 -185h-130q0 130 75 217t245 87q135 0 220 -72q85 -71 85 -190
q0 -125 -98 -197q-97 -72 -203 -125q-90 -43 -127 -77q-37 -33 -74 -85h502v-124h-656z" />
    <glyph glyph-name="threequarters" unicode="&#xbe;" horiz-adv-x="1708" 
d="M103 842h143q8 -91 48 -130q41 -39 135 -39q191 0 191 151q0 145 -214 145h-47v104h55q170 0 170 133q0 121 -164 121q-156 0 -170 -169h-125q6 146 85 217q80 71 225 71q131 0 211 -63q81 -62 81 -169q0 -135 -125 -178q161 -52 161 -201q0 -122 -90 -202
q-90 -79 -245 -79q-145 0 -229 68q-83 68 -96 220zM440 -37l909 1482h115l-909 -1482h-115zM967 196v124l428 551h132v-556h137v-119h-137v-195h-132v195h-428zM1095 315h300v393z" />
    <glyph glyph-name="questiondown" unicode="&#xbf;" horiz-adv-x="1251" 
d="M179 -16q0 105 51 180q50 74 145 164q137 127 159 207t22 170h180q0 -152 -42 -248q-43 -96 -204 -246q-63 -62 -90 -113q-28 -51 -28 -116q0 -115 66 -180q65 -66 187 -66q131 0 202 79q70 79 72 243h180q-5 -244 -134 -361q-130 -117 -330 -117q-194 0 -315 113
t-121 291zM539 865v210h200v-210h-200z" />
    <glyph glyph-name="Agrave" unicode="&#xc0;" horiz-adv-x="1366" 
d="M28 0l560 1472h227l528 -1472h-217l-143 430h-595l-155 -430h-205zM390 1910h221l179 -288h-137zM453 604h459l-218 655zM696 1622z" />
    <glyph glyph-name="Aacute" unicode="&#xc1;" horiz-adv-x="1366" 
d="M28 0l560 1472h227l528 -1472h-217l-143 430h-595l-155 -430h-205zM453 604h459l-218 655zM587 1622l179 288h221l-263 -288h-137zM696 1622z" />
    <glyph glyph-name="Acircumflex" unicode="&#xc2;" horiz-adv-x="1366" 
d="M28 0l560 1472h227l528 -1472h-217l-143 430h-595l-155 -430h-205zM398 1622l208 288h189l208 -288h-163l-140 188l-139 -188h-163zM453 604h459l-218 655zM696 1622z" />
    <glyph glyph-name="Atilde" unicode="&#xc3;" horiz-adv-x="1366" 
d="M28 0l560 1472h227l528 -1472h-217l-143 430h-595l-155 -430h-205zM333 1651q39 219 216 219q77 0 165 -38q89 -37 131 -37q75 0 96 95h102q-38 -226 -207 -226q-48 0 -154 37q-106 38 -151 38q-65 0 -96 -88h-102zM453 604h459l-218 655zM696 1622z" />
    <glyph glyph-name="Adieresis" unicode="&#xc4;" horiz-adv-x="1366" 
d="M28 0l560 1472h227l528 -1472h-217l-143 430h-595l-155 -430h-205zM442 1638v209h186v-209h-186zM453 604h459l-218 655zM696 1622zM772 1638v209h186v-209h-186z" />
    <glyph glyph-name="Aring" unicode="&#xc5;" horiz-adv-x="1366" 
d="M28 0l560 1472h227l528 -1472h-217l-143 430h-595l-155 -430h-205zM453 604h459l-218 655zM510 1712q0 78 52 131q53 53 134 53q83 0 133 -52t50 -134q0 -80 -55 -132q-54 -52 -131 -52q-74 0 -129 51q-54 52 -54 135zM591 1710q0 -44 29 -73t75 -29q45 0 74 30t29 74
q0 41 -26 71q-26 31 -78 31q-48 0 -76 -31q-27 -30 -27 -73zM696 1622z" />
    <glyph glyph-name="AE" unicode="&#xc6;" horiz-adv-x="2048" 
d="M16 0l592 1472h1319v-174h-800v-457h732v-174h-732v-493h816v-174h-1015v430h-538l-160 -430h-214zM463 604h465v694h-193z" />
    <glyph glyph-name="Ccedilla" unicode="&#xc7;" horiz-adv-x="1479" 
d="M90 736q0 353 186 563q187 211 506 211q241 0 398 -120q158 -119 203 -360h-193q-77 306 -409 306q-217 0 -352 -155q-134 -155 -134 -450q0 -272 120 -434q120 -161 357 -161q172 0 281 102q110 103 153 300h193q-51 -288 -217 -432t-427 -144q-299 0 -482 208
q-183 209 -183 566zM501 -401l35 83q72 -33 129 -33q114 0 114 82q0 79 -101 79q-29 0 -72 -14l-6 -2l-35 37l131 169h96l-93 -122q40 10 65 10q73 0 121 -39q48 -38 48 -111q0 -79 -64 -132q-64 -52 -172 -52q-87 0 -196 45zM757 0z" />
    <glyph glyph-name="Egrave" unicode="&#xc8;" horiz-adv-x="1366" 
d="M177 0v1472h1079v-174h-880v-457h812v-174h-812v-493h896v-174h-1095zM411 1910h221l179 -288h-137zM717 1622z" />
    <glyph glyph-name="Eacute" unicode="&#xc9;" horiz-adv-x="1366" 
d="M177 0v1472h1079v-174h-880v-457h812v-174h-812v-493h896v-174h-1095zM608 1622l179 288h221l-263 -288h-137zM717 1622z" />
    <glyph glyph-name="Ecircumflex" unicode="&#xca;" horiz-adv-x="1366" 
d="M177 0v1472h1079v-174h-880v-457h812v-174h-812v-493h896v-174h-1095zM419 1622l208 288h189l208 -288h-163l-140 188l-139 -188h-163zM717 1622z" />
    <glyph glyph-name="Edieresis" unicode="&#xcb;" horiz-adv-x="1366" 
d="M177 0v1472h1079v-174h-880v-457h812v-174h-812v-493h896v-174h-1095zM463 1638v209h186v-209h-186zM717 1622zM793 1638v209h186v-209h-186z" />
    <glyph glyph-name="Igrave" unicode="&#xcc;" horiz-adv-x="569" 
d="M-21 1910h221l179 -288h-137zM186 0v1472h199v-1472h-199zM285 1622z" />
    <glyph glyph-name="Iacute" unicode="&#xcd;" horiz-adv-x="569" 
d="M176 1622l179 288h221l-263 -288h-137zM186 0v1472h199v-1472h-199zM285 1622z" />
    <glyph glyph-name="Icircumflex" unicode="&#xce;" horiz-adv-x="569" 
d="M-13 1622l208 288h189l208 -288h-163l-140 188l-139 -188h-163zM186 0v1472h199v-1472h-199zM285 1622z" />
    <glyph glyph-name="Idieresis" unicode="&#xcf;" horiz-adv-x="569" 
d="M31 1638v209h186v-209h-186zM186 0v1472h199v-1472h-199zM285 1622zM361 1638v209h186v-209h-186z" />
    <glyph glyph-name="Eth" unicode="&#xd0;" horiz-adv-x="1479" 
d="M21 667v174h165v631h594q280 0 446 -193q167 -192 167 -526q0 -327 -160 -540q-159 -213 -462 -213h-585v667h-165zM385 174h383q185 0 302 149q118 149 118 426q0 253 -109 401q-108 148 -327 148h-367v-457h400v-174h-400v-493z" />
    <glyph glyph-name="Ntilde" unicode="&#xd1;" horiz-adv-x="1479" 
d="M155 0v1472h236l740 -1196v1196h193v-1472h-224l-752 1196v-1196h-193zM386 1651q39 219 216 219q77 0 165 -38q89 -37 131 -37q75 0 96 95h102q-38 -226 -207 -226q-48 0 -154 37q-106 38 -151 38q-65 0 -96 -88h-102zM749 1622z" />
    <glyph glyph-name="Ograve" unicode="&#xd2;" horiz-adv-x="1593" 
d="M81 736q0 332 190 553q191 221 529 221q336 0 527 -224q191 -223 191 -538q0 -347 -190 -567q-190 -219 -529 -219q-317 0 -518 208q-200 209 -200 566zM286 736q0 -258 135 -429q136 -171 379 -171q222 0 367 160q146 161 146 440q0 267 -137 433q-137 167 -377 167
q-227 0 -370 -161t-143 -439zM488 1910h221l179 -288h-137zM794 1622z" />
    <glyph glyph-name="Oacute" unicode="&#xd3;" horiz-adv-x="1593" 
d="M81 736q0 332 190 553q191 221 529 221q336 0 527 -224q191 -223 191 -538q0 -347 -190 -567q-190 -219 -529 -219q-317 0 -518 208q-200 209 -200 566zM286 736q0 -258 135 -429q136 -171 379 -171q222 0 367 160q146 161 146 440q0 267 -137 433q-137 167 -377 167
q-227 0 -370 -161t-143 -439zM685 1622l179 288h221l-263 -288h-137zM794 1622z" />
    <glyph glyph-name="Ocircumflex" unicode="&#xd4;" horiz-adv-x="1593" 
d="M81 736q0 332 190 553q191 221 529 221q336 0 527 -224q191 -223 191 -538q0 -347 -190 -567q-190 -219 -529 -219q-317 0 -518 208q-200 209 -200 566zM286 736q0 -258 135 -429q136 -171 379 -171q222 0 367 160q146 161 146 440q0 267 -137 433q-137 167 -377 167
q-227 0 -370 -161t-143 -439zM496 1622l208 288h189l208 -288h-163l-140 188l-139 -188h-163zM794 1622z" />
    <glyph glyph-name="Otilde" unicode="&#xd5;" horiz-adv-x="1593" 
d="M81 736q0 332 190 553q191 221 529 221q336 0 527 -224q191 -223 191 -538q0 -347 -190 -567q-190 -219 -529 -219q-317 0 -518 208q-200 209 -200 566zM286 736q0 -258 135 -429q136 -171 379 -171q222 0 367 160q146 161 146 440q0 267 -137 433q-137 167 -377 167
q-227 0 -370 -161t-143 -439zM431 1651q39 219 216 219q77 0 165 -38q89 -37 131 -37q75 0 96 95h102q-38 -226 -207 -226q-48 0 -154 37q-106 38 -151 38q-65 0 -96 -88h-102zM794 1622z" />
    <glyph glyph-name="Odieresis" unicode="&#xd6;" horiz-adv-x="1593" 
d="M81 736q0 332 190 553q191 221 529 221q336 0 527 -224q191 -223 191 -538q0 -347 -190 -567q-190 -219 -529 -219q-317 0 -518 208q-200 209 -200 566zM286 736q0 -258 135 -429q136 -171 379 -171q222 0 367 160q146 161 146 440q0 267 -137 433q-137 167 -377 167
q-227 0 -370 -161t-143 -439zM540 1638v209h186v-209h-186zM794 1622zM870 1638v209h186v-209h-186z" />
    <glyph glyph-name="multiply" unicode="&#xd7;" horiz-adv-x="1196" 
d="M80 106l417 416l-417 414l106 104l409 -413l421 413l104 -104l-417 -414l417 -418l-104 -104l-416 417l-416 -417z" />
    <glyph glyph-name="Oslash" unicode="&#xd8;" horiz-adv-x="1593" 
d="M81 740q0 315 184 542q185 228 533 228q311 0 492 -181l169 181l62 -63l-171 -186q168 -215 168 -527q0 -356 -198 -564t-515 -208q-295 0 -489 177l-167 -177l-65 57l171 185q-174 224 -174 536zM286 736q0 -222 104 -385l769 834q-139 151 -357 151q-226 0 -371 -161
t-145 -439zM445 281q142 -145 353 -145q213 0 364 149q151 150 151 449q0 217 -102 379z" />
    <glyph glyph-name="Ugrave" unicode="&#xd9;" horiz-adv-x="1479" 
d="M161 493v979h199v-929q0 -209 99 -308q100 -99 282 -99q181 0 280 96q100 97 100 306v934h199v-956q0 -241 -148 -398q-147 -156 -450 -156q-239 0 -400 134q-161 135 -161 397zM435 1910h221l179 -288h-137zM741 1622z" />
    <glyph glyph-name="Uacute" unicode="&#xda;" horiz-adv-x="1479" 
d="M161 493v979h199v-929q0 -209 99 -308q100 -99 282 -99q181 0 280 96q100 97 100 306v934h199v-956q0 -241 -148 -398q-147 -156 -450 -156q-239 0 -400 134q-161 135 -161 397zM632 1622l179 288h221l-263 -288h-137zM741 1622z" />
    <glyph glyph-name="Ucircumflex" unicode="&#xdb;" horiz-adv-x="1479" 
d="M161 493v979h199v-929q0 -209 99 -308q100 -99 282 -99q181 0 280 96q100 97 100 306v934h199v-956q0 -241 -148 -398q-147 -156 -450 -156q-239 0 -400 134q-161 135 -161 397zM443 1622l208 288h189l208 -288h-163l-140 188l-139 -188h-163zM741 1622z" />
    <glyph glyph-name="Udieresis" unicode="&#xdc;" horiz-adv-x="1479" 
d="M161 493v979h199v-929q0 -209 99 -308q100 -99 282 -99q181 0 280 96q100 97 100 306v934h199v-956q0 -241 -148 -398q-147 -156 -450 -156q-239 0 -400 134q-161 135 -161 397zM487 1638v209h186v-209h-186zM741 1622zM817 1638v209h186v-209h-186z" />
    <glyph glyph-name="Yacute" unicode="&#xdd;" horiz-adv-x="1366" 
d="M16 1472h233l426 -701l427 701h233l-560 -880v-592h-199v592zM567 1622l179 288h221l-263 -288h-137zM676 1622z" />
    <glyph glyph-name="Thorn" unicode="&#xde;" horiz-adv-x="1366" 
d="M177 0v1472h199v-245h462q213 0 323 -119q111 -119 111 -300q0 -183 -113 -308q-113 -124 -321 -124h-462v-376h-199zM376 550h394q143 0 220 60q77 61 77 201q0 126 -73 184q-72 58 -216 58h-402v-503z" />
    <glyph glyph-name="germandbls" unicode="&#xdf;" horiz-adv-x="1251" 
d="M138 0v1091q0 185 126 293q126 109 356 109q220 0 351 -102q131 -101 131 -274q0 -188 -167 -297q231 -84 231 -362q0 -226 -141 -358q-141 -131 -373 -131q-52 0 -110 14v152q49 -7 86 -7q352 0 352 308q0 290 -348 290q-42 0 -74 -9v164q32 -5 57 -5q133 0 220 54
q87 55 87 171q0 104 -80 168q-79 65 -234 65q-159 0 -225 -71q-65 -71 -65 -221v-1042h-180z" />
    <glyph glyph-name="agrave" unicode="&#xe0;" 
d="M73 283q0 289 323 331l281 37q64 8 86 38q23 30 23 91q0 176 -245 176q-126 0 -179 -51t-69 -151h-166q8 352 431 352q178 0 291 -78q114 -78 114 -223v-624q0 -38 14 -51t43 -13q18 0 61 9v-131q-66 -20 -104 -20q-94 0 -136 42q-41 42 -47 124q-153 -175 -380 -175
q-135 0 -238 79q-103 80 -103 238zM255 1506h221l179 -288h-137zM259 298q0 -182 194 -182q128 0 229 72t101 182v177q-41 -32 -168 -51q-127 -18 -129 -18q-227 -31 -227 -180zM561 1218z" />
    <glyph glyph-name="aacute" unicode="&#xe1;" 
d="M73 283q0 289 323 331l281 37q64 8 86 38q23 30 23 91q0 176 -245 176q-126 0 -179 -51t-69 -151h-166q8 352 431 352q178 0 291 -78q114 -78 114 -223v-624q0 -38 14 -51t43 -13q18 0 61 9v-131q-66 -20 -104 -20q-94 0 -136 42q-41 42 -47 124q-153 -175 -380 -175
q-135 0 -238 79q-103 80 -103 238zM259 298q0 -182 194 -182q128 0 229 72t101 182v177q-41 -32 -168 -51q-127 -18 -129 -18q-227 -31 -227 -180zM452 1218l179 288h221l-263 -288h-137zM561 1218z" />
    <glyph glyph-name="acircumflex" unicode="&#xe2;" 
d="M73 283q0 289 323 331l281 37q64 8 86 38q23 30 23 91q0 176 -245 176q-126 0 -179 -51t-69 -151h-166q8 352 431 352q178 0 291 -78q114 -78 114 -223v-624q0 -38 14 -51t43 -13q18 0 61 9v-131q-66 -20 -104 -20q-94 0 -136 42q-41 42 -47 124q-153 -175 -380 -175
q-135 0 -238 79q-103 80 -103 238zM259 298q0 -182 194 -182q128 0 229 72t101 182v177q-41 -32 -168 -51q-127 -18 -129 -18q-227 -31 -227 -180zM263 1218l208 288h189l208 -288h-163l-140 188l-139 -188h-163zM561 1218z" />
    <glyph glyph-name="atilde" unicode="&#xe3;" 
d="M73 283q0 289 323 331l281 37q64 8 86 38q23 30 23 91q0 176 -245 176q-126 0 -179 -51t-69 -151h-166q8 352 431 352q178 0 291 -78q114 -78 114 -223v-624q0 -38 14 -51t43 -13q18 0 61 9v-131q-66 -20 -104 -20q-94 0 -136 42q-41 42 -47 124q-153 -175 -380 -175
q-135 0 -238 79q-103 80 -103 238zM198 1247q39 219 216 219q77 0 165 -38q89 -37 131 -37q75 0 96 95h102q-38 -226 -207 -226q-48 0 -154 37q-106 38 -151 38q-65 0 -96 -88h-102zM259 298q0 -182 194 -182q128 0 229 72t101 182v177q-41 -32 -168 -51q-127 -18 -129 -18
q-227 -31 -227 -180zM561 1218z" />
    <glyph glyph-name="adieresis" unicode="&#xe4;" 
d="M73 283q0 289 323 331l281 37q64 8 86 38q23 30 23 91q0 176 -245 176q-126 0 -179 -51t-69 -151h-166q8 352 431 352q178 0 291 -78q114 -78 114 -223v-624q0 -38 14 -51t43 -13q18 0 61 9v-131q-66 -20 -104 -20q-94 0 -136 42q-41 42 -47 124q-153 -175 -380 -175
q-135 0 -238 79q-103 80 -103 238zM259 298q0 -182 194 -182q128 0 229 72t101 182v177q-41 -32 -168 -51q-127 -18 -129 -18q-227 -31 -227 -180zM307 1234v209h186v-209h-186zM561 1218zM637 1234v209h186v-209h-186z" />
    <glyph glyph-name="aring" unicode="&#xe5;" 
d="M73 283q0 289 323 331l281 37q64 8 86 38q23 30 23 91q0 176 -245 176q-126 0 -179 -51t-69 -151h-166q8 352 431 352q178 0 291 -78q114 -78 114 -223v-624q0 -38 14 -51t43 -13q18 0 61 9v-131q-66 -20 -104 -20q-94 0 -136 42q-41 42 -47 124q-153 -175 -380 -175
q-135 0 -238 79q-103 80 -103 238zM259 298q0 -182 194 -182q128 0 229 72t101 182v177q-41 -32 -168 -51q-127 -18 -129 -18q-227 -31 -227 -180zM375 1356q0 79 52 131q53 53 134 53q77 0 130 -51q53 -50 53 -135q0 -79 -52 -132q-52 -52 -134 -52q-76 0 -130 51
q-53 52 -53 135zM456 1354q0 -44 30 -73t74 -29q43 0 73 30t30 74q0 43 -31 72q-30 30 -73 30q-44 0 -74 -31q-29 -30 -29 -73zM561 1218z" />
    <glyph glyph-name="ae" unicode="&#xe6;" horiz-adv-x="1821" 
d="M73 282q0 135 76 223q77 89 250 109l298 38q45 6 70 35q26 30 26 91q0 178 -248 178q-126 0 -181 -53q-55 -52 -71 -149h-166q15 352 447 352q243 0 348 -144q122 144 353 144q212 0 340 -155q128 -154 128 -471h-784q0 -355 306 -355q117 0 192 53q75 54 95 156h177
q-37 -169 -156 -269q-119 -99 -316 -99q-298 0 -407 224q-83 -122 -190 -173q-106 -51 -235 -51q-154 0 -253 81t-99 235zM259 298q0 -182 197 -182q134 0 234 74q100 75 100 180v177q-40 -28 -136 -44q-95 -16 -165 -25q-110 -12 -170 -60q-60 -47 -60 -120zM959 622h598
q-21 165 -89 245t-201 80q-126 0 -212 -87q-86 -86 -96 -238z" />
    <glyph glyph-name="ccedilla" unicode="&#xe7;" horiz-adv-x="1024" 
d="M62 518q0 268 137 428t369 160q165 0 268 -91t132 -293h-177q-45 225 -248 225q-141 0 -218 -109q-77 -108 -77 -308q0 -184 70 -295q70 -110 210 -110q202 0 263 257h177q-22 -181 -129 -299q-106 -117 -303 -117q-219 0 -347 146q-127 147 -127 406zM273 -401l35 83
q72 -33 129 -33q114 0 114 82q0 79 -101 79q-29 0 -72 -14l-6 -2l-35 37l131 169h96l-93 -122q40 10 65 10q73 0 121 -39q48 -38 48 -111q0 -79 -64 -132q-64 -52 -172 -52q-87 0 -196 45zM529 0z" />
    <glyph glyph-name="egrave" unicode="&#xe8;" 
d="M82 518q0 259 132 423q133 165 372 165q225 0 342 -155q118 -154 124 -471h-784q0 -168 76 -262q77 -93 230 -93q109 1 190 62q82 62 97 147h177q-35 -169 -152 -269q-117 -99 -307 -99q-226 0 -362 142q-135 142 -135 410zM250 1506h221l179 -288h-137zM268 622h598
q-19 179 -92 252t-198 73q-132 0 -216 -90q-84 -89 -92 -235zM556 1218z" />
    <glyph glyph-name="eacute" unicode="&#xe9;" 
d="M82 518q0 259 132 423q133 165 372 165q225 0 342 -155q118 -154 124 -471h-784q0 -168 76 -262q77 -93 230 -93q109 1 190 62q82 62 97 147h177q-35 -169 -152 -269q-117 -99 -307 -99q-226 0 -362 142q-135 142 -135 410zM268 622h598q-19 179 -92 252t-198 73
q-132 0 -216 -90q-84 -89 -92 -235zM447 1218l179 288h221l-263 -288h-137zM556 1218z" />
    <glyph glyph-name="ecircumflex" unicode="&#xea;" 
d="M82 518q0 259 132 423q133 165 372 165q225 0 342 -155q118 -154 124 -471h-784q0 -168 76 -262q77 -93 230 -93q109 1 190 62q82 62 97 147h177q-35 -169 -152 -269q-117 -99 -307 -99q-226 0 -362 142q-135 142 -135 410zM258 1218l208 288h189l208 -288h-163l-140 188
l-139 -188h-163zM268 622h598q-19 179 -92 252t-198 73q-132 0 -216 -90q-84 -89 -92 -235zM556 1218z" />
    <glyph glyph-name="edieresis" unicode="&#xeb;" 
d="M82 518q0 259 132 423q133 165 372 165q225 0 342 -155q118 -154 124 -471h-784q0 -168 76 -262q77 -93 230 -93q109 1 190 62q82 62 97 147h177q-35 -169 -152 -269q-117 -99 -307 -99q-226 0 -362 142q-135 142 -135 410zM268 622h598q-19 179 -92 252t-198 73
q-132 0 -216 -90q-84 -89 -92 -235zM302 1234v209h186v-209h-186zM556 1218zM632 1234v209h186v-209h-186z" />
    <glyph glyph-name="igrave" unicode="&#xec;" horiz-adv-x="569" 
d="M-22 1506h221l179 -288h-137zM194 0v1072h180v-1072h-180zM284 1218z" />
    <glyph glyph-name="iacute" unicode="&#xed;" horiz-adv-x="569" 
d="M175 1218l179 288h221l-263 -288h-137zM194 0v1072h180v-1072h-180zM284 1218z" />
    <glyph glyph-name="icircumflex" unicode="&#xee;" horiz-adv-x="569" 
d="M-14 1218l208 288h189l208 -288h-163l-140 188l-139 -188h-163zM194 0v1072h180v-1072h-180zM284 1218z" />
    <glyph glyph-name="idieresis" unicode="&#xef;" horiz-adv-x="569" 
d="M30 1234v209h186v-209h-186zM194 0v1072h180v-1072h-180zM284 1218zM360 1234v209h186v-209h-186z" />
    <glyph glyph-name="eth" unicode="&#xf0;" 
d="M70 519q0 241 136 397t341 156q87 0 149 -26q62 -25 127 -88q-21 63 -77 137q-55 75 -151 154l-257 -129l-87 86l244 118q-96 68 -185 105l152 75q66 -29 188 -103l216 103l96 -82l-219 -104q329 -317 329 -729q0 -283 -135 -453t-362 -170q-225 0 -365 155
q-140 156 -140 398zM256 519q0 -176 86 -285q87 -109 229 -109q132 0 223 105q92 105 92 289q0 170 -84 282t-231 112q-143 0 -229 -111q-86 -110 -86 -283z" />
    <glyph glyph-name="ntilde" unicode="&#xf1;" 
d="M132 0v1072h169v-158q135 192 339 192q172 0 266 -102q94 -101 94 -274v-730h-180v666q0 162 -57 221q-56 60 -167 60q-126 0 -205 -94t-79 -265v-588h-180zM227 1247q39 219 216 219q77 0 165 -38q89 -37 131 -37q75 0 96 95h102q-38 -226 -207 -226q-48 0 -154 37
q-106 38 -151 38q-65 0 -96 -88h-102zM590 1218z" />
    <glyph glyph-name="ograve" unicode="&#xf2;" 
d="M70 532q0 255 137 414q137 160 364 160q219 0 360 -155t141 -415q0 -245 -136 -408q-136 -162 -361 -162q-221 0 -363 156q-142 157 -142 410zM256 536q0 -175 81 -293q82 -118 234 -118q132 0 223 103q92 104 92 308q0 175 -80 293t-235 118q-140 0 -228 -106
q-87 -106 -87 -305zM269 1506h221l179 -288h-137zM575 1218z" />
    <glyph glyph-name="oacute" unicode="&#xf3;" 
d="M70 532q0 255 137 414q137 160 364 160q219 0 360 -155t141 -415q0 -245 -136 -408q-136 -162 -361 -162q-221 0 -363 156q-142 157 -142 410zM256 536q0 -175 81 -293q82 -118 234 -118q132 0 223 103q92 104 92 308q0 175 -80 293t-235 118q-140 0 -228 -106
q-87 -106 -87 -305zM466 1218l179 288h221l-263 -288h-137zM575 1218z" />
    <glyph glyph-name="ocircumflex" unicode="&#xf4;" 
d="M70 532q0 255 137 414q137 160 364 160q219 0 360 -155t141 -415q0 -245 -136 -408q-136 -162 -361 -162q-221 0 -363 156q-142 157 -142 410zM256 536q0 -175 81 -293q82 -118 234 -118q132 0 223 103q92 104 92 308q0 175 -80 293t-235 118q-140 0 -228 -106
q-87 -106 -87 -305zM277 1218l208 288h189l208 -288h-163l-140 188l-139 -188h-163zM575 1218z" />
    <glyph glyph-name="otilde" unicode="&#xf5;" 
d="M70 532q0 255 137 414q137 160 364 160q219 0 360 -155t141 -415q0 -245 -136 -408q-136 -162 -361 -162q-221 0 -363 156q-142 157 -142 410zM212 1247q39 219 216 219q77 0 165 -38q89 -37 131 -37q75 0 96 95h102q-38 -226 -207 -226q-48 0 -154 37q-106 38 -151 38
q-65 0 -96 -88h-102zM256 536q0 -175 81 -293q82 -118 234 -118q132 0 223 103q92 104 92 308q0 175 -80 293t-235 118q-140 0 -228 -106q-87 -106 -87 -305zM575 1218z" />
    <glyph glyph-name="odieresis" unicode="&#xf6;" 
d="M70 532q0 255 137 414q137 160 364 160q219 0 360 -155t141 -415q0 -245 -136 -408q-136 -162 -361 -162q-221 0 -363 156q-142 157 -142 410zM256 536q0 -175 81 -293q82 -118 234 -118q132 0 223 103q92 104 92 308q0 175 -80 293t-235 118q-140 0 -228 -106
q-87 -106 -87 -305zM321 1234v209h186v-209h-186zM575 1218zM651 1234v209h186v-209h-186z" />
    <glyph glyph-name="divide" unicode="&#xf7;" horiz-adv-x="1196" 
d="M80 447v150h1047v-150h-1047zM464 104q0 56 41 95q41 40 99 40q57 0 98 -40q41 -39 41 -95q0 -57 -42 -97q-41 -40 -98 -40t-98 40t-41 97zM464 942q0 55 41 95t99 40q57 0 98 -41q41 -40 41 -96t-42 -96q-41 -39 -98 -39t-98 40t-41 97z" />
    <glyph glyph-name="oslash" unicode="&#xf8;" horiz-adv-x="1251" 
d="M93 4l131 148q-117 154 -117 384q0 244 135 407t366 163q191 0 338 -133l132 149l65 -54l-143 -162q109 -154 109 -371q0 -241 -137 -405t-366 -164q-195 0 -326 124l-122 -140zM293 540q0 -134 53 -248l486 551q-90 104 -223 104q-140 0 -228 -107t-88 -300zM393 215
q80 -90 214 -90t225 106q91 107 91 305q0 118 -48 228z" />
    <glyph glyph-name="ugrave" unicode="&#xf9;" 
d="M138 299v773h180v-710q0 -237 214 -237q126 0 210 89t84 266v592h180v-1072h-169v158q-39 -72 -117 -131t-224 -61q-164 0 -261 84q-97 85 -97 249zM276 1506h221l179 -288h-137zM582 1218z" />
    <glyph glyph-name="uacute" unicode="&#xfa;" 
d="M138 299v773h180v-710q0 -237 214 -237q126 0 210 89t84 266v592h180v-1072h-169v158q-39 -72 -117 -131t-224 -61q-164 0 -261 84q-97 85 -97 249zM473 1218l179 288h221l-263 -288h-137zM582 1218z" />
    <glyph glyph-name="ucircumflex" unicode="&#xfb;" 
d="M138 299v773h180v-710q0 -237 214 -237q126 0 210 89t84 266v592h180v-1072h-169v158q-39 -72 -117 -131t-224 -61q-164 0 -261 84q-97 85 -97 249zM284 1218l208 288h189l208 -288h-163l-140 188l-139 -188h-163zM582 1218z" />
    <glyph glyph-name="udieresis" unicode="&#xfc;" 
d="M138 299v773h180v-710q0 -237 214 -237q126 0 210 89t84 266v592h180v-1072h-169v158q-39 -72 -117 -131t-224 -61q-164 0 -261 84q-97 85 -97 249zM328 1234v209h186v-209h-186zM582 1218zM658 1234v209h186v-209h-186z" />
    <glyph glyph-name="yacute" unicode="&#xfd;" horiz-adv-x="1024" 
d="M16 1072h206l287 -872l283 872h200l-384 -1054q-116 -325 -188 -390q-72 -64 -201 -64q-54 0 -107 16v162q61 -19 114 -19q63 0 88 32q25 33 46 84l56 131zM395 1218l179 288h221l-263 -288h-137zM504 1218z" />
    <glyph glyph-name="thorn" unicode="&#xfe;" 
d="M118 -416v1888h180v-542q68 101 146 138q78 38 172 38q198 0 324 -146q126 -145 126 -397q0 -276 -132 -437q-132 -160 -339 -160q-187 0 -297 144v-526h-180zM290 504q0 -163 77 -271q78 -108 220 -108q132 0 212 108q81 108 81 329q0 188 -71 286q-70 99 -219 99
q-136 0 -218 -101q-82 -100 -82 -342z" />
    <glyph glyph-name="ydieresis" unicode="&#xff;" horiz-adv-x="1024" 
d="M16 1072h206l287 -872l283 872h200l-384 -1054q-116 -325 -188 -390q-72 -64 -201 -64q-54 0 -107 16v162q61 -19 114 -19q63 0 88 32q25 33 46 84l56 131zM250 1234v209h186v-209h-186zM504 1218zM580 1234v209h186v-209h-186z" />
    <glyph glyph-name="OE" unicode="&#x152;" horiz-adv-x="2048" 
d="M75 724q0 343 163 564q163 222 457 222q249 0 372 -192v154h909v-174h-710v-457h676v-174h-676v-493h713v-174h-912v154q-132 -192 -388 -192q-279 0 -442 205q-162 205 -162 557zM280 708q0 -275 103 -424q104 -148 326 -148q156 0 252 91q97 92 97 246v535
q0 149 -94 238q-93 90 -265 90q-195 0 -307 -159q-112 -158 -112 -469z" />
    <glyph glyph-name="oe" unicode="&#x153;" horiz-adv-x="1933" 
d="M70 536q0 242 135 406q136 164 365 164q268 0 407 -224q85 126 182 175t225 49q210 0 336 -150q127 -149 133 -476h-784q11 -355 306 -355q111 0 189 56q78 57 98 153h177q-30 -161 -156 -265q-125 -103 -314 -103q-275 0 -409 208q-120 -208 -382 -208q-225 0 -367 159
q-141 159 -141 411zM256 536q0 -175 79 -293q80 -118 236 -118q132 0 223 103q92 104 92 308q0 175 -80 293t-235 118q-146 0 -231 -106q-84 -106 -84 -305zM1069 622h598q-13 172 -89 248q-76 77 -201 77q-135 0 -220 -94t-88 -231z" />
    <glyph glyph-name="Ydieresis" unicode="&#x178;" horiz-adv-x="1366" 
d="M16 1472h233l426 -701l427 701h233l-560 -880v-592h-199v592zM422 1638v209h186v-209h-186zM676 1622zM752 1638v209h186v-209h-186z" />
    <glyph glyph-name="circumflex" unicode="&#x2c6;" horiz-adv-x="682" 
d="M32 1216l208 288h189l208 -288h-163l-140 188l-139 -188h-163zM330 1216z" />
    <glyph glyph-name="tilde" unicode="&#x2dc;" horiz-adv-x="682" 
d="M-16 1245q39 219 216 219q77 0 165 -38q89 -37 131 -37q75 0 96 95h102q-38 -226 -207 -226q-48 0 -154 37q-106 38 -151 38q-65 0 -96 -88h-102zM347 1216z" />
    <glyph glyph-name="uni2000" unicode="&#x2000;" horiz-adv-x="955" 
 />
    <glyph glyph-name="uni2001" unicode="&#x2001;" horiz-adv-x="1910" 
 />
    <glyph glyph-name="uni2002" unicode="&#x2002;" horiz-adv-x="955" 
 />
    <glyph glyph-name="uni2003" unicode="&#x2003;" horiz-adv-x="1910" 
 />
    <glyph glyph-name="uni2004" unicode="&#x2004;" horiz-adv-x="636" 
 />
    <glyph glyph-name="uni2005" unicode="&#x2005;" horiz-adv-x="477" 
 />
    <glyph glyph-name="uni2006" unicode="&#x2006;" horiz-adv-x="318" 
 />
    <glyph glyph-name="uni2007" unicode="&#x2007;" horiz-adv-x="318" 
 />
    <glyph glyph-name="uni2008" unicode="&#x2008;" horiz-adv-x="238" 
 />
    <glyph glyph-name="uni2009" unicode="&#x2009;" horiz-adv-x="382" 
 />
    <glyph glyph-name="uni200A" unicode="&#x200a;" horiz-adv-x="106" 
 />
    <glyph glyph-name="uni2010" unicode="&#x2010;" horiz-adv-x="682" 
d="M96 474v183h496v-183h-496z" />
    <glyph glyph-name="uni2011" unicode="&#x2011;" horiz-adv-x="682" 
d="M96 474v183h496v-183h-496z" />
    <glyph glyph-name="figuredash" unicode="&#x2012;" horiz-adv-x="682" 
d="M96 474v183h496v-183h-496z" />
    <glyph glyph-name="endash" unicode="&#x2013;" 
d="M0 491v149h1136v-149h-1136z" />
    <glyph glyph-name="emdash" unicode="&#x2014;" horiz-adv-x="2048" 
d="M0 491v149h2048v-149h-2048z" />
    <glyph glyph-name="quoteleft" unicode="&#x2018;" horiz-adv-x="455" 
d="M138 951v199q0 134 48 211q47 76 166 111v-95q-109 -20 -109 -209h103v-217h-208z" />
    <glyph glyph-name="quoteright" unicode="&#x2019;" horiz-adv-x="455" 
d="M103 951v95q109 20 109 209h-103v217h208v-199q0 -134 -48 -211q-47 -76 -166 -111z" />
    <glyph glyph-name="quotesinglbase" unicode="&#x201a;" horiz-adv-x="455" 
d="M103 -207q109 20 109 209h-103v217h208v-199q0 -134 -48 -211q-47 -76 -166 -111v95z" />
    <glyph glyph-name="quotedblleft" unicode="&#x201c;" horiz-adv-x="682" 
d="M84 951v199q0 154 57 224q56 70 157 98v-95q-109 -20 -109 -209h103v-217h-208zM420 951v199q0 148 54 220q53 72 160 102v-95q-109 -24 -109 -209h103v-217h-208z" />
    <glyph glyph-name="quotedblright" unicode="&#x201d;" horiz-adv-x="682" 
d="M48 951v95q109 24 109 209h-103v217h208v-199q0 -148 -54 -220q-53 -72 -160 -102zM384 951v95q109 20 109 209h-103v217h208v-199q0 -154 -57 -224q-56 -70 -157 -98z" />
    <glyph glyph-name="quotedblbase" unicode="&#x201e;" horiz-adv-x="682" 
d="M48 -207q109 24 109 209h-103v217h208v-199q0 -148 -54 -220q-53 -72 -160 -102v95zM384 -207q109 20 109 209h-103v217h208v-199q0 -154 -57 -224q-56 -70 -157 -98v95z" />
    <glyph glyph-name="bullet" unicode="&#x2022;" horiz-adv-x="717" 
d="M40 737q0 131 93 225q94 95 227 95q136 0 228 -95q92 -94 92 -225q0 -133 -95 -227q-94 -93 -225 -93q-133 0 -227 89q-93 89 -93 231z" />
    <glyph glyph-name="ellipsis" unicode="&#x2026;" horiz-adv-x="2048" 
d="M234 0v217h214v-217h-214zM922 0v217h214v-217h-214zM1610 0v217h214v-217h-214z" />
    <glyph glyph-name="uni202F" unicode="&#x202f;" horiz-adv-x="382" 
 />
    <glyph glyph-name="guilsinglleft" unicode="&#x2039;" horiz-adv-x="682" 
d="M182 474l320 -256v180l-215 172l215 170v180l-320 -256v-190z" />
    <glyph glyph-name="guilsinglright" unicode="&#x203a;" horiz-adv-x="682" 
d="M180 218v180l215 172l-215 170v180l320 -256v-190z" />
    <glyph glyph-name="uni205F" unicode="&#x205f;" horiz-adv-x="477" 
 />
    <glyph glyph-name="Euro" unicode="&#x20ac;" 
d="M45 536l25 116h113v49q0 15 2 79h-140l25 116h124q37 261 165 405q129 144 315 144q162 0 273 -99q112 -99 151 -287h-192q-22 105 -86 164q-63 60 -148 60q-122 0 -199 -109t-87 -278h453l-25 -116h-439v-128h416l-25 -116h-383q7 -166 82 -289q76 -122 209 -122
q96 0 155 65q60 65 83 175h183q-41 -186 -147 -294t-272 -108q-213 0 -338 157q-124 158 -144 416h-149z" />
    <glyph glyph-name="trademark" unicode="&#x2122;" horiz-adv-x="2048" 
d="M92 1350v122h670v-122h-260v-726h-150v726h-260zM910 624v848h231l238 -623l233 623h231v-848h-150v699l-266 -699h-101l-266 699v-699h-150z" />
    <glyph glyph-name="uni25FC" unicode="&#x25fc;" horiz-adv-x="1070" 
d="M0 0v1070h1070v-1070h-1070z" />
  </font>
</defs>
</svg>
