<?xml version="1.0" standalone="no"?> <!DOCTYPE svg PUBLIC "-//W3C//DTD SVG 1.0//EN" "http://www.w3.org/TR/2001/REC-SVG-20010904/DTD/svg10.dtd" > <svg xmlns="http://www.w3.org/2000/svg" width="100%" height="100%">
<defs >
<font horiz-adv-x="581" ><font-face
    font-family="Helvetica"
    units-per-em="1000"
    panose-1="2 11 4 3 2 2 2 2 2 4"
    ascent="770"
    descent="-230"
    alphabetic="0" />
<missing-glyph horiz-adv-x="648" d="M148 700H648V0H148V700ZM568 650H228L398 395L568 650ZM598 95V605L428 350L598 95ZM568 50L398 305L228 50H568ZM198 95L368 350L198 605V95Z" />
<glyph unicode=" " glyph-name="space" horiz-adv-x="278" />
<glyph unicode="!" glyph-name="exclam" horiz-adv-x="333" d="M235 496L283 720H356L308 496L227 181H182L235 496ZM130 0L149 88H222L203 0H130Z" />
<glyph unicode="&quot;" glyph-name="quotedbl" horiz-adv-x="278" d="M210 720H262L214 494H162L210 720ZM321 720H373L325 494H273L321 720Z" />
<glyph unicode="#" glyph-name="numbersign" horiz-adv-x="556" d="M552 228H441L361 0H302L381 228H244L162 0H103L185 228H75L88 287H207L258 427H146L158 486H278L355 698H415L338 486H474L550 698H609L533 486H633L621 427H513L463 287H565L552 228ZM318 427L266
287H404L454 427H318Z" />
<glyph unicode="$" glyph-name="dollar" horiz-adv-x="556" d="M393 651Q365 651 339 642T291 617T254 577T232 526Q225 493 231 471T252 435T290 411T339 394L393 651ZM309 35Q340 35 370 46T425 76T467 121T492 180Q500 217 494 241T470 281T427 306T370 322L309
35ZM282 -95H236L252 -19Q168 -14 122 28T75 154Q75 167 76 179T80 203H145Q138 169 143 140T163 88T203 51T262 35L326 332Q287 342 253 355T197 390T166 444T167 523Q176 565 199 599T255 657T326 693T406 705L419 766H465L452 705Q493 705 525 694T579 660T608
604T609 529H544Q550 556 545 578T525 617T489 642T440 651L384 385Q430 373 467 359T527 322T558 263T554 169Q545 125 519 91T457 32T380 -5T298 -19L282 -95Z" />
<glyph unicode="%" glyph-name="percent" horiz-adv-x="889" d="M728 331Q762 331 789 318T833 283T856 230T856 166Q849 132 830 102T785 49T725 13T658 0Q624 0 597 13T551 48T527 101T527 166Q534 200 553 230T600 282T661 318T728 331ZM715 274Q692 274 671
265T632 241T602 206T584 164Q579 143 584 124T600 89T630 66T669 57Q691 57 712 66T751 90T781 124T799 166Q804 188 800 207T784 242T755 265T715 274ZM511 532Q504 498 485 468T438 416T377 380T310 367Q276 367 249 380T204 415T180 468T180 532Q187 566 206
596T253 648T313 684T380 698Q414 698 441 685T487 650T511 597T511 532ZM322 424Q344 424 365 432T405 456T436 490T454 532Q458 554 454 573T438 608T408 632T368 641Q346 641 325 633T285 609T255 574T237 532Q232 510 237 491T253 456T282 433T322 424ZM268
-14H216L766 705H818L268 -14Z" />
<glyph unicode="&amp;" glyph-name="ampersand" horiz-adv-x="667" d="M329 375Q296 361 267 342T213 298T172 247T149 190Q141 154 147 126T171 77T216 46T278 35Q336 35 386 61T482 131L329 375ZM493 540Q506 560 509 582T505 623T481 654T435 666Q416 666 398
660T363 643T336 616T320 580Q317 564 321 545T332 508T349 474T367 445Q401 463 435 484T493 540ZM528 186Q553 218 566 253T587 326H646Q633 277 613 229T556 138L644 0H563L511 85Q452 29 393 5T262 -19Q215 -19 178 -4T115 40T81 107T82 195Q91 235 112 269T162
331T228 380T302 418Q291 435 281 453T265 492T256 533T259 579Q266 613 284 639T329 684T386 711T451 720Q484 720 509 709T551 679T572 635T572 581Q564 545 547 519T506 472T453 434T392 400L528 186Z" />
<glyph unicode="&apos;" glyph-name="quotesingle" horiz-adv-x="222" d="M238 720H290L242 494H190L238 720Z" />
<glyph unicode="(" glyph-name="parenleft" horiz-adv-x="333" d="M434 739Q340 635 274 517T182 271Q155 146 172 29T236 -191H185Q156 -134 136 -81T105 28T97 144T114 276Q129 345 153 405T211 522T288 631T383 739H434Z" />
<glyph unicode=")" glyph-name="parenright" horiz-adv-x="333" d="M15 -191Q109 -87 175 31T268 277Q294 402 278 519T213 739H264Q293 682 313 629T344 520T353 404T336 272Q321 203 297 143T239 26T162 -83T66 -191H15Z" />
<glyph unicode="*" glyph-name="asterisk" horiz-adv-x="389" d="M301 603L326 720H368L343 603L466 645L472 601L350 564L402 458L358 434L307 542L207 436L177 463L276 564L172 604L199 646L301 603Z" />
<glyph unicode="+" glyph-name="plus" horiz-adv-x="660" d="M406 500H466L420 280H640L627 220H407L360 0H300L347 220H127L140 280H360L406 500Z" />
<glyph unicode="," glyph-name="comma" horiz-adv-x="278" d="M169 -30Q159 -74 133 -100T73 -137L81 -100Q95 -92 108 -78T129 -34L136 0H102L121 88H194L169 -30Z" />
<glyph unicode="-" glyph-name="hyphen" horiz-adv-x="333" d="M355 291L342 229H89L102 291H355Z" />
<glyph unicode="." glyph-name="period" horiz-adv-x="278" d="M102 0L121 88H194L175 0H102Z" />
<glyph unicode="/" glyph-name="slash" horiz-adv-x="278" d="M34 -90H-22L389 739H445L34 -90Z" />
<glyph unicode="0" glyph-name="zero" horiz-adv-x="556" d="M526 347Q538 404 543 458T538 556T499 625T414 651Q361 651 322 625T255 554T207 454T175 340Q161 272 158 217T166 122T207 62T287 40Q344 40 384 68T452 140T497 239T526 347ZM428 705Q480 705 514
690T570 647T599 584T608 508T603 424T588 340Q573 270 550 206T490 93T401 15T275 -14Q202 -14 162 15T105 93T93 208T113 347Q127 414 149 478T208 592T298 674T428 705Z" />
<glyph unicode="1" glyph-name="one" horiz-adv-x="556" d="M413 524H231L240 566Q281 569 314 574T375 593T425 633T465 705H516L366 0H302L413 524Z" />
<glyph unicode="2" glyph-name="two" horiz-adv-x="556" d="M170 474Q181 526 206 568T267 641T350 688T448 705Q501 705 538 690T597 648T625 586T623 510Q613 463 590 427T536 363T468 313T392 272T317 234T250 196Q230 183 211 169T175 137T147 100T127 54H520L509
0H48Q59 51 78 92T140 172Q186 214 232 244T320 297T401 340T470 383T522 435T553 506Q560 540 554 567T530 613T487 641T428 651Q393 651 362 637T305 598T262 542T238 474H170Z" />
<glyph unicode="3" glyph-name="three" horiz-adv-x="556" d="M304 392Q349 392 387 397T455 418T505 460T535 527Q542 560 535 583T511 622T467 644T411 651Q377 651 347 640T293 609T252 561T228 500H164Q175 548 199 586T266 658Q305 688 348 696T436 705Q478
705 512 695T569 663T600 608T600 531Q588 476 556 436T466 374Q502 362 522 343T551 300T560 250T555 200Q546 156 523 118T464 51T383 5T282 -14Q221 -14 179 -3T111 33T78 100T77 204H141Q133 164 139 134T164 82T213 51T282 40Q320 40 355 53T419 88T466 139T490
199Q498 242 486 270T447 315T380 337T293 340L304 392Z" />
<glyph unicode="4" glyph-name="four" horiz-adv-x="556" d="M395 174H73L85 229L512 698H570L470 228H568L557 174H459L422 0H358L395 174ZM147 228H406L486 602L147 228Z" />
<glyph unicode="5" glyph-name="five" horiz-adv-x="556" d="M138 183Q133 111 173 76T282 40Q321 40 355 54T417 92T462 149T489 220Q497 259 492 292T469 349T422 386T352 399Q304 399 263 382T183 326L132 333L266 698H616L605 644H309L215 407Q238 420 257
429T296 443T335 451T379 453Q427 453 465 437T526 391T557 318T553 220Q541 164 513 121T448 47T367 2T280 -14Q230 -14 189 -4T120 29T79 90T74 183H138Z" />
<glyph unicode="6" glyph-name="six" horiz-adv-x="556" d="M550 532Q551 586 525 618T441 651Q376 651 332 620T258 542T209 438T176 332Q195 352 215 372T260 407T315 432T384 442Q491 442 537 382T560 215Q537 108 465 47T285 -14Q232 -14 191 3T125 61T95
165T110 323Q119 365 133 409T167 496T214 577T275 643T352 688T447 705Q531 705 577 661T616 532H550ZM370 388Q333 388 301 374T243 336T199 281T174 213Q168 183 170 153T186 97T227 56T298 40Q343 40 377 55T435 96T474 153T496 217Q513 299 483 343T370 388Z"
/>
<glyph unicode="7" glyph-name="seven" horiz-adv-x="556" d="M207 698H656L644 638Q550 552 478 462T353 286T269 126T222 0H152Q173 76 216 161T316 331T437 493T566 634H194L207 698Z" />
<glyph unicode="8" glyph-name="eight" horiz-adv-x="556" d="M352 345Q278 345 222 309T149 194Q142 161 148 133T173 85T222 52T292 40Q327 40 359 51T418 84T463 134T490 198Q498 235 491 262T464 308T416 336T352 345ZM414 651Q354 651 306 619T244 524Q237
491 244 468T270 429T313 407T368 399Q426 399 471 431T533 538Q544 592 516 621T414 651ZM248 379Q226 395 211 409T187 441T177 479T182 533Q190 569 212 601T267 656T339 693T420 705Q460 705 496 695T558 664T595 611T596 533Q585 478 554 439T467 375Q521
354 544 308T555 200Q532 96 453 41T261 -14Q223 -14 187 -1T124 38T86 103T85 194Q99 257 140 306T248 379Z" />
<glyph unicode="9" glyph-name="nine" horiz-adv-x="556" d="M151 155Q149 40 264 40Q327 40 371 71T445 149T495 250T526 353L524 355Q480 301 427 273T311 245Q261 245 225 261T166 307T137 379T141 472Q152 522 175 564T232 638T313 687T418 705Q489 705 530
677T590 601T607 488T589 349Q570 259 537 192T459 78T363 9T255 -14Q214 -14 181 -4T125 27T92 80T86 155H151ZM406 651Q325 649 274 601T205 470Q188 389 221 344T332 299Q369 299 401 313T459 351T502 406T527 474Q543 552 512 600T406 651Z" />
<glyph unicode=":" glyph-name="colon" horiz-adv-x="278" d="M102 0L121 88H194L175 0H102ZM188 404L207 492H280L261 404H188Z" />
<glyph unicode=";" glyph-name="semicolon" horiz-adv-x="278" d="M169 -30Q159 -74 133 -100T73 -137L81 -100Q95 -92 108 -78T129 -34L136 0H102L121 88H194L169 -30ZM188 404L207 492H280L261 404H188Z" />
<glyph unicode="&lt;" glyph-name="less" horiz-adv-x="660" d="M592 58L579 -6L129 229L140 282L687 505L674 441L213 255L592 58Z" />
<glyph unicode="=" glyph-name="equal" horiz-adv-x="660" d="M648 318H148L160 378H660L648 318ZM606 124H106L119 184H619L606 124Z" />
<glyph unicode="&gt;" glyph-name="greater" horiz-adv-x="660" d="M629 229L79 -6L92 58L555 255L174 441L187 505L640 282L629 229Z" />
<glyph unicode="?" glyph-name="question" horiz-adv-x="500" d="M255 182Q265 237 283 282T349 368Q376 391 404 413T458 457T501 504T526 556Q537 610 505 647T398 685Q361 685 330 672T273 636T232 583T209 516H148Q155 566 178 607T237 677T317 723T411 739Q514
739 560 688T589 551Q580 507 554 476T494 417T424 363T359 301Q337 275 328 244T313 182H255ZM210 0L229 88H302L283 0H210Z" />
<glyph unicode="@" glyph-name="at" horiz-adv-x="800" d="M778 167Q745 123 703 89T613 30T515 -6T415 -19Q335 -19 272 11T169 93T115 214T117 363Q133 441 178 509T285 629T421 709T572 739Q644 739 702 716T797 650T850 550T850 423Q837 364 805 311T730 218T642
155T555 131Q529 131 506 143T480 183Q452 160 417 147T350 133Q318 133 295 145T258 177T241 225T243 283Q254 333 283 386T355 484T448 557T556 586Q591 586 618 569T654 520L678 566H745L580 264Q571 247 564 233T556 207T559 190T580 183Q611 183 644 206T708
264T760 343T791 426Q804 487 791 536T747 619T668 671T563 689Q494 689 430 663T315 591T227 485T176 356Q161 288 173 229T219 126T305 57T426 31Q504 31 582 66T719 167H778ZM379 196Q402 196 425 209T472 243T515 291T553 347T581 403T598 454Q605 483 591
505T545 527Q505 527 468 503T401 442T349 364T320 288Q312 252 326 224T379 196Z" />
<glyph unicode="A" glyph-name="A" horiz-adv-x="667" d="M15 0L451 720H528L651 0H581L546 226H218L85 0H15ZM253 284H535L475 662L253 284Z" />
<glyph unicode="B" glyph-name="B" horiz-adv-x="667" d="M161 58H334Q390 58 432 63T506 83T556 127T585 203Q594 248 585 275T552 318T489 338T403 344H222L161 58ZM234 402H406Q459 402 497 411T561 437T602 480T624 539Q631 573 625 596T598 634T540 655T447
662H290L234 402ZM81 0L234 720H494Q557 720 599 707T665 670T694 613T692 539Q684 501 668 474T632 428T589 399T544 384L543 382Q615 371 641 323T653 203Q641 147 616 108T554 45T472 11T375 0H81Z" />
<glyph unicode="C" glyph-name="C" horiz-adv-x="722" d="M701 511Q699 603 651 642T510 681Q445 681 392 655T300 585T233 484T193 362Q180 302 180 244T199 141T262 67T379 39Q425 39 466 54T541 95T603 158T649 237H720Q697 185 664 139T587 57T484 2T354 -19Q271
-19 219 11T140 94T111 214T125 360Q147 463 187 535T282 652T402 718T540 739Q651 739 714 681T771 511H701Z" />
<glyph unicode="D" glyph-name="D" horiz-adv-x="722" d="M81 0L234 720H480Q510 720 538 719T594 712T645 695T691 666Q721 640 736 603T756 524T757 440T746 361Q738 325 726 288T697 216T655 148T601 88Q570 60 537 43T469 17T399 4T327 0H81ZM161 58H324Q370
58 412 63T500 91Q540 109 570 140T621 207T656 284T678 361Q686 400 689 440T687 517T663 584T612 635Q583 652 541 657T453 662H290L161 58Z" />
<glyph unicode="E" glyph-name="E" horiz-adv-x="611" d="M81 0L234 720H713L701 662H290L234 402H605L593 344H222L161 58H582L570 0H81Z" />
<glyph unicode="F" glyph-name="F" horiz-adv-x="556" d="M74 0L227 720H691L679 662H283L227 402H587L575 344H215L142 0H74Z" />
<glyph unicode="G" glyph-name="G" horiz-adv-x="778" d="M454 314L466 372H774L695 0H637L663 123Q612 58 541 20T364 -19Q296 -19 243 5T159 76T119 196T130 364Q147 443 181 511T268 630T389 710T543 739Q600 739 646 725T726 683T778 612T796 511H726Q726
551 711 583T671 636T611 669T536 681Q465 681 409 656T310 586T238 477T193 337Q180 277 186 223T217 128T285 63T390 39Q419 39 451 45T516 67T578 106T634 165Q659 199 673 236T697 314H454Z" />
<glyph unicode="H" glyph-name="H" horiz-adv-x="722" d="M80 0L233 720H301L235 411H661L727 720H795L642 0H574L649 353H223L148 0H80Z" />
<glyph unicode="I" glyph-name="I" horiz-adv-x="278" d="M105 0L258 720H326L173 0H105Z" />
<glyph unicode="J" glyph-name="J" horiz-adv-x="500" d="M138 228Q130 194 126 161T129 102T159 59T229 43Q299 43 336 83T389 199L500 720H568L457 197Q434 92 374 37T208 -19Q147 -19 114 1T68 56T57 135T70 228H138Z" />
<glyph unicode="K" glyph-name="K" horiz-adv-x="667" d="M85 0L238 720H306L227 347L675 720H752L407 433L649 0H566L349 391L212 278L153 0H85Z" />
<glyph unicode="L" glyph-name="L" horiz-adv-x="556" d="M81 0L234 720H302L161 58H547L535 0H81Z" />
<glyph unicode="M" glyph-name="M" horiz-adv-x="833" d="M78 0L231 720H335L436 85H438L805 720H908L755 0H687L823 642H821L449 0H385L284 642H282L146 0H78Z" />
<glyph unicode="N" glyph-name="N" horiz-adv-x="722" d="M282 628H280L147 0H79L232 720H309L591 91H593L727 720H795L642 0H563L282 628Z" />
<glyph unicode="O" glyph-name="O" horiz-adv-x="778" d="M129 359Q145 438 181 507T271 627T393 709T542 739Q626 739 683 710T772 629T810 508T800 359Q783 281 748 213T659 93T537 11T384 -19Q301 -19 245 11T157 92T119 212T129 359ZM397 39Q467 39 523 65T621
136T691 238T732 359Q748 434 742 493T710 595T639 659T532 681Q463 681 407 654T309 583T239 480T197 359Q183 295 186 237T213 135T281 65T397 39Z" />
<glyph unicode="P" glyph-name="P" horiz-adv-x="611" d="M78 0L231 720H494Q564 720 606 704T668 660T692 596T686 519Q673 459 641 420T564 359T469 327T368 318H214L146 0H78ZM382 376Q430 376 469 382T538 404T588 449T619 524Q634 592 597 627T463 662H287L226
376H382Z" />
<glyph unicode="Q" glyph-name="Q" horiz-adv-x="778" d="M706 -6L658 -52L569 30Q527 7 480 -6T379 -19Q296 -19 240 11T152 92T114 212T124 359Q140 434 175 502T262 623T384 707T537 739Q613 739 670 714T761 641T805 522T795 359Q777 271 734 196T625 68L706
-6ZM584 107Q639 151 675 217T727 359Q744 440 737 500T702 600T630 661T527 681Q458 681 402 654T304 582T234 479T192 359Q178 295 181 237T208 135T276 65T392 39Q430 39 463 47T525 71L456 134L502 181L584 107Z" />
<glyph unicode="R" glyph-name="R" horiz-adv-x="667" d="M442 385Q480 385 514 393T576 418T623 463T651 528Q660 568 651 594T621 635T570 656T505 662H289L230 385H442ZM218 327L148 0H80L233 720H515Q634 720 687 676T720 531Q706 463 670 423T565 355Q595
344 608 323T625 275T625 218T616 160Q608 119 605 92T601 48T604 22T613 7L612 0H537Q530 19 532 50T539 117Q544 152 550 185T556 239Q556 268 546 285T520 312T480 324T432 327H218Z" />
<glyph unicode="S" glyph-name="S" horiz-adv-x="611" d="M155 215Q149 167 159 134T192 79T249 49T324 39Q372 39 409 51T473 83T516 131T539 188Q548 230 535 256T494 298T429 325T353 344T277 367T214 402T177 458T176 546Q184 583 207 618T266 680T351 723T461
739Q522 739 563 722T629 676T660 607T657 524H592Q601 565 593 595T564 644T514 672T449 681Q397 681 359 667T294 629T254 578T239 522Q237 487 254 466T301 432T367 410T442 392T515 369T574 334T608 278T608 191Q587 91 506 36T300 -19Q244 -19 199 -5T126
39T87 112T89 215H155Z" />
<glyph unicode="T" glyph-name="T" horiz-adv-x="556" d="M169 720H693L681 662H453L312 0H244L385 662H157L169 720Z" />
<glyph unicode="U" glyph-name="U" horiz-adv-x="722" d="M235 720H303L212 291Q183 157 220 98T369 39Q427 39 470 54T546 101T599 180T634 291L725 720H793L698 271Q668 130 583 56T357 -19Q216 -19 163 57T140 271L235 720Z" />
<glyph unicode="V" glyph-name="V" horiz-adv-x="611" d="M171 720H242L323 80L675 720H746L343 0H268L171 720Z" />
<glyph unicode="W" glyph-name="W" horiz-adv-x="889" d="M666 96H668L958 720H1028L686 0H611L579 636H577L275 0H200L167 720H235L257 96H259L559 720H635L666 96Z" />
<glyph unicode="X" glyph-name="X" horiz-adv-x="611" d="M372 318L95 0H18L345 370L181 720H260L393 417L655 720H734L424 370L592 0H514L372 318Z" />
<glyph unicode="Y" glyph-name="Y" horiz-adv-x="611" d="M381 373L672 720H751L404 314L337 0H269L335 309L165 720H243L381 373Z" />
<glyph unicode="Z" glyph-name="Z" horiz-adv-x="611" d="M31 0L43 57L633 662H211L223 720H729L717 663L127 58H591L579 0H31Z" />
<glyph unicode="[" glyph-name="bracketleft" horiz-adv-x="333" d="M50 -191L248 739H439L428 689H301L125 -141H250L239 -191H50Z" />
<glyph unicode="\" glyph-name="backslash" horiz-adv-x="278" d="M147 739H203L262 -90H206L147 739Z" />
<glyph unicode="]" glyph-name="bracketright" horiz-adv-x="333" d="M201 -191H10L21 -141H148L324 689H199L210 739H399L201 -191Z" />
<glyph unicode="^" glyph-name="asciicircum" horiz-adv-x="660" d="M125 245L451 698H503L638 245H581L463 637L183 245H125Z" />
<glyph unicode="_" glyph-name="underscore" horiz-adv-x="500" d="M484 -75L473 -125H-27L-16 -75H484Z" />
<glyph unicode="`" glyph-name="grave" horiz-adv-x="333" d="M197 713H275L356 574H305L197 713Z" />
<glyph unicode="a" glyph-name="a" horiz-adv-x="556" d="M469 272Q427 256 388 251T308 243Q238 238 194 212T138 133Q133 109 139 92T158 63T191 46T231 40Q267 40 302 49T368 76T421 123T452 191L469 272ZM374 302Q391 304 415 308T457 319Q474 326 480 342T490
373Q495 396 492 415T477 448T442 470T384 478Q322 478 276 453T208 361H147Q160 407 184 439T242 492T314 522T396 532Q435 532 467 524T521 497T551 447T550 371L490 89Q482 54 492 45T544 49L534 2Q527 0 513 -4T485 -8Q472 -8 459 -5Q430 0 426 22T427 72Q380
30 327 8T216 -14Q182 -14 153 -5T103 23T75 69T75 135Q102 267 289 291L374 302Z" />
<glyph unicode="b" glyph-name="b" horiz-adv-x="611" d="M194 261Q184 214 187 174T206 104T251 57T323 40Q361 40 396 53T460 93T510 156T543 243Q555 292 554 334T538 409T493 459T416 478Q375 478 339 461T274 414T224 345T194 261ZM139 0H79L232 720H292L231
435Q270 483 326 507T437 532Q496 532 535 510T594 450T618 362T610 258Q598 201 574 151T514 65T430 7T318 -14Q293 -14 269 -7T223 13T185 45T160 91H158L139 0Z" />
<glyph unicode="c" glyph-name="c" horiz-adv-x="556" d="M514 355Q511 413 479 445T387 478Q341 478 304 459T239 409T193 338T166 258Q157 217 158 178T174 108T218 59T294 40Q361 40 409 77T482 179H546Q529 136 504 101T446 40T372 0T282 -14Q220 -14 180
7T118 64T93 151T102 258Q113 312 139 361T203 449T290 509T398 532Q488 532 534 489T575 355H514Z" />
<glyph unicode="d" glyph-name="d" horiz-adv-x="611" d="M527 261Q536 305 533 344T513 413T469 460T399 478Q352 478 314 460T247 409T199 335T172 243Q162 194 167 157T191 93T238 54T306 40Q348 40 384 57T449 103T497 173T527 261ZM625 720H685L532 0H472L491
91H489Q471 65 446 46T394 13T340 -7T287 -14Q224 -14 184 7T124 64T102 151T111 258Q123 312 147 362T207 449T292 509T400 532Q455 532 500 508T564 435L625 720Z" />
<glyph unicode="e" glyph-name="e" horiz-adv-x="556" d="M510 295Q518 333 515 366T496 424T453 463T385 478Q345 478 312 463T251 423T204 365T172 295H510ZM161 245Q152 203 155 166T174 101T219 57T292 40Q351 40 399 71T474 159H541Q522 122 498 91T441 36T369
-1T280 -14Q218 -14 178 7T116 64T91 150T100 257Q112 314 139 364T204 451T291 510T396 532Q503 532 548 459T563 245H161Z" />
<glyph unicode="f" glyph-name="f" horiz-adv-x="278" d="M119 468L130 518H207L225 600Q238 662 270 698T363 734Q392 734 412 730L400 675Q382 680 366 680Q343 680 328 672T304 649T290 618T281 582L267 518H367L356 468H256L157 0H97L196 468H119Z" />
<glyph unicode="g" glyph-name="g" horiz-adv-x="611" d="M527 257Q537 304 534 344T515 414T470 461T399 478Q361 478 326 465T262 425T211 362T178 275Q166 226 167 184T183 109T229 59T306 40Q347 40 383 57T448 104T497 173T527 257ZM582 518H642L543 50Q532
-2 512 -49T456 -133T370 -190T244 -212Q187 -212 149 -198T90 -161T61 -113T57 -63H121Q121 -92 132 -110T161 -139T204 -154T255 -158Q316 -158 357 -137T425 -82T466 -5T490 83Q451 35 395 11T284 -14Q225 -14 186 8T127 68T103 156T111 260Q123 317 147 367T207
453T291 511T403 532Q428 532 452 525T498 505T536 472T561 427H563L582 518Z" />
<glyph unicode="h" glyph-name="h" horiz-adv-x="556" d="M72 0L225 720H285L227 446Q271 484 314 508T412 532Q460 532 497 516T554 458Q567 430 565 401T555 339L483 0H423L495 338Q510 408 487 443T391 478Q363 478 338 470T292 447T253 415T225 377Q211 352
204 329T191 279L132 0H72Z" />
<glyph unicode="i" glyph-name="i" horiz-adv-x="222" d="M81 0L191 518H251L141 0H81ZM212 631L231 720H297L278 631H212Z" />
<glyph unicode="j" glyph-name="j" horiz-adv-x="222" d="M258 518L133 -69Q126 -102 118 -127T96 -169T60 -195T1 -204Q-21 -204 -38 -200L-26 -147Q24 -154 43 -136T72 -77L198 518H258ZM285 631H219L238 720H304L285 631Z" />
<glyph unicode="k" glyph-name="k" horiz-adv-x="500" d="M68 0L221 720H281L186 272L492 518H574L340 331L487 0H420L287 289L170 196L128 0H68Z" />
<glyph unicode="l" glyph-name="l" horiz-adv-x="222" d="M81 0L234 720H294L141 0H81Z" />
<glyph unicode="m" glyph-name="m" horiz-adv-x="833" d="M124 0H64L174 518H234L218 440H220Q252 485 300 508T399 532Q435 532 458 524T496 503T518 471T530 432Q566 483 615 507T720 532Q773 532 801 515T840 469T849 403T838 327L768 0H708L784 358Q790 386
790 408T780 445T751 469T699 478Q666 478 632 464T569 419Q557 406 547 389T528 352T514 314T505 279L446 0H386L462 358Q468 386 468 408T458 445T429 469T377 478Q344 478 310 464T247 419Q235 406 225 389T206 352T192 314T183 279L124 0Z" />
<glyph unicode="n" glyph-name="n" horiz-adv-x="556" d="M132 0H72L182 518H242L227 446Q271 484 314 508T412 532Q460 532 497 516T554 458Q567 430 565 401T555 339L483 0H423L495 338Q510 408 487 443T391 478Q363 478 338 470T292 447T253 415T225 377Q211
352 204 329T191 279L132 0Z" />
<glyph unicode="o" glyph-name="o" horiz-adv-x="556" d="M275 -14Q225 -13 186 4T121 55T87 140T93 259Q105 316 130 365T194 452T281 510T391 532Q452 532 492 511T555 453T581 366T573 259Q560 197 532 147T465 61T378 6T275 -14ZM509 259Q518 305 517 345T502
414T458 461T380 478Q333 478 296 460T230 411T184 341T157 259Q147 211 150 171T169 101T214 56T287 40Q334 40 371 58T436 108T482 178T509 259Z" />
<glyph unicode="p" glyph-name="p" horiz-adv-x="611" d="M194 257Q185 213 188 174T208 105T253 58T323 40Q369 40 407 58T474 109T522 183T549 275Q569 373 531 425T416 478Q374 478 338 461T273 415T224 345T194 257ZM96 -204H36L189 518H249L230 427H232Q250
452 275 472T327 505T381 525T434 532Q497 532 537 511T597 454T619 367T610 260Q598 206 574 156T514 69T429 9T321 -14Q266 -14 221 10T157 83L96 -204Z" />
<glyph unicode="q" glyph-name="q" horiz-adv-x="611" d="M527 261Q536 305 533 344T513 413T469 460T399 478Q352 478 314 460T247 409T199 335T172 243Q162 194 167 157T191 93T238 54T306 40Q348 40 384 57T449 103T497 173T527 261ZM582 518H642L489 -204H429L490
83Q451 35 395 11T284 -14Q225 -14 186 8T127 68T103 156T111 260Q123 317 147 367T207 453T291 511T403 532Q428 532 452 525T498 505T536 472T561 427H563L582 518Z" />
<glyph unicode="r" glyph-name="r" horiz-adv-x="333" d="M135 0H75L185 518H245L224 421H226Q264 483 309 507T419 532L405 467Q355 468 319 451T257 405T215 337T189 254L135 0Z" />
<glyph unicode="s" glyph-name="s" horiz-adv-x="500" d="M141 162Q142 95 172 68T271 40Q304 40 329 48T373 69T403 100T419 136Q427 174 407 192T351 221T275 239T200 262T148 305T140 384Q154 449 210 490T353 532Q437 532 481 495T518 369H457Q461 429 429
453T341 478Q284 478 249 454T205 389Q199 363 210 346T242 318T291 300T348 285T405 267T453 241T482 199T483 137Q475 100 454 72T400 24T327 -4T240 -14Q194 -14 162 -1T109 37T82 93T80 162H141Z" />
<glyph unicode="t" glyph-name="t" horiz-adv-x="278" d="M254 -2Q243 -4 224 -9T182 -14Q137 -14 119 8T112 89L192 468H119L130 518H203L234 662H294L263 518H360L349 468H252L177 113Q173 94 171 80T172 57T185 44T214 40Q226 40 238 42T264 47L254 -2Z" />
<glyph unicode="u" glyph-name="u" horiz-adv-x="556" d="M533 518H593L483 0H423L438 72Q423 58 405 43T365 16T315 -5T253 -14Q201 -14 169 0T121 41T103 101T110 177L182 518H242L170 178Q156 111 179 76T274 40Q311 40 343 54T401 95T445 157T473 236L533 518Z" />
<glyph unicode="v" glyph-name="v" horiz-adv-x="500" d="M127 518H192L266 74L528 518H593L282 0H215L127 518Z" />
<glyph unicode="w" glyph-name="w" horiz-adv-x="722" d="M527 80L756 518H817L539 0H475L454 435H452L245 0H173L125 518H185L225 76L439 518H506L527 80Z" />
<glyph unicode="x" glyph-name="x" horiz-adv-x="500" d="M300 224L91 0H18L274 268L144 518H218L317 312L508 518H584L344 268L481 0H409L300 224Z" />
<glyph unicode="y" glyph-name="y" horiz-adv-x="500" d="M38 -141Q49 -143 61 -145T87 -147Q112 -147 131 -131T166 -93T193 -46T218 -4L128 518H195L267 73L527 518H592L290 7Q261 -42 237 -81T189 -147T139 -189T82 -204Q66 -204 52 -202T26 -197L38 -141Z" />
<glyph unicode="z" glyph-name="z" horiz-adv-x="500" d="M33 0L44 53L476 468H155L166 518H564L553 465L121 50H478L467 0H33Z" />
<glyph unicode="{" glyph-name="braceleft" horiz-adv-x="333" d="M250 577Q259 621 272 652T306 702T356 730T429 737Q341 709 322 616L281 424Q275 395 267 371T246 328T214 296T167 275V273Q214 262 223 228T220 138L177 -68Q166 -119 180 -147T239 -189L238
-191Q194 -192 167 -184T125 -158T110 -113T117 -47L160 157Q165 180 166 199T161 233T141 258T103 273V275Q133 283 151 293T181 318T199 351T211 395L250 577Z" />
<glyph unicode="|" glyph-name="bar" horiz-adv-x="402" d="M301 820V-273H250V820H301Z" />
<glyph unicode="}" glyph-name="braceright" horiz-adv-x="333" d="M287 395Q282 372 281 353T286 319T306 294T344 279V277Q314 269 296 259T266 234T248 201T236 157L198 -25Q189 -69 176 -100T142 -150T92 -178T19 -185Q105 -157 125 -64L166 128Q172 157 180
181T201 224T233 256T280 277V279Q233 290 224 324T227 414L271 620Q282 671 268 699T209 741V743Q253 744 280 736T322 710T337 665T330 599L287 395Z" />
<glyph unicode="~" glyph-name="asciitilde" horiz-adv-x="660" d="M290 324Q317 324 345 313T399 288Q426 274 450 263T495 252Q512 252 528 260T560 282T588 310T612 339L645 305Q630 285 612 266T574 231T530 206T482 196Q468 196 451 200T417 211T384 225T356
238Q338 246 319 257T278 268Q258 268 240 259T206 236T176 206T150 174L127 221Q141 237 158 255T196 288T239 314T290 324Z" />
</font>
</defs>
</svg>
