<?xml version="1.0" standalone="no"?>
<!DOCTYPE svg PUBLIC "-//W3C//DTD SVG 1.1//EN" "http://www.w3.org/Graphics/SVG/1.1/DTD/svg11.dtd" >
<svg>
<metadata>
Created by FontForge 20120731 at Wed Aug 28 06:10:54 2019
 By www-data
(c) 1990-2006 Apple Computer Inc. (c) 1981 Linotype AG (c) 1990-91 Type Solutions Inc.
</metadata>
<defs>
<font id="Helvetica-Oblique" horiz-adv-x="1139" >
  <font-face 
    font-family="Helvetica"
    font-weight="400"
    font-style="oblique"
    font-stretch="normal"
    units-per-em="2048"
    panose-1="0 0 0 0 0 0 0 0 0 0"
    ascent="1638"
    descent="-410"
    x-height="1071"
    cap-height="1470"
    bbox="-1910 -985 3218 2331"
    underline-thickness="101"
    underline-position="-105"
    slope="-12"
    unicode-range="U+0008-FFA7"
  />
<missing-glyph horiz-adv-x="1298" 
d="M66 0v1469h1166v-1469h-1166zM1048 184v1101h-798v-1101h798z" />
    <glyph glyph-name="fi" unicode="fi" horiz-adv-x="1024" 
d="M513 1398q82 92 262 92q17 0 35 -1t40 -3l-35 -164q-27 2 -39.5 2.5t-23.5 0.5q-82 0 -107 -42.5t-62 -216.5h178l-30 -142h-180l-196 -924h-178l196 924h-149l30 142h149l36 168q28 112 74 164zM976 1265l44 204h180l-44 -204h-180zM934 1066h180l-226 -1066h-180z" />
    <glyph glyph-name="fl" unicode="fl" horiz-adv-x="1024" 
d="M884 0h-180l312 1469h180zM355 0h-178l196 924h-149l30 142h149l40 190q26 119 111.5 176.5t208.5 57.5q24 0 43.5 -1.5t43.5 -5.5l-35 -161q-27 2 -39.5 2.5t-23.5 0.5q-76 0 -110 -44q-21 -25 -33 -82l-28 -133h180l-30 -142h-180z" />
    <glyph glyph-name=".notdef" horiz-adv-x="1298" 
d="M66 0v1469h1166v-1469h-1166zM1048 184v1101h-798v-1101h798z" />
    <glyph glyph-name=".null" horiz-adv-x="0" 
 />
    <glyph glyph-name=".null" horiz-adv-x="0" 
 />
    <glyph glyph-name=".null" horiz-adv-x="0" 
 />
    <glyph glyph-name="nonmarkingreturn" unicode="&#x9;" horiz-adv-x="569" 
 />
    <glyph glyph-name="nonmarkingreturn" unicode="&#xd;" horiz-adv-x="569" 
 />
    <glyph glyph-name="nonmarkingreturn" unicode="&#xa;" horiz-adv-x="569" 
 />
    <glyph glyph-name="space" unicode=" " horiz-adv-x="569" 
 />
    <glyph glyph-name="exclam" unicode="!" horiz-adv-x="569" 
d="M549 1469h203l-103 -483l-184 -636h-102l83 636zM281 208h199l-44 -208h-199z" />
    <glyph glyph-name="quotedbl" unicode="&#x22;" horiz-adv-x="727" 
d="M918 1469l-155 -588h-121l94 588h182zM575 1469l-154 -588h-121l94 588h181z" />
    <glyph glyph-name="numbersign" unicode="#" 
d="M149 561h233l167 344h-232l56 116h232l214 448h149l-216 -448h221l218 448h147l-216 -448h232l-56 -116h-232l-168 -344h233l-56 -116h-230l-217 -445h-147l215 445h-223l-213 -445h-149l215 445h-232zM749 561l168 344h-221l-165 -344h218z" />
    <glyph glyph-name="dollar" unicode="$" 
d="M895 229q47 60 64 139q26 125 -52 190q-45 38 -163 72l-111 -526q172 8 262 125zM691 836l100 470q-132 -5 -203.5 -80t-88.5 -157q-21 -99 32.5 -155t159.5 -78zM825 1455l28 133h95l-28 -131q196 -14 280.5 -117.5t53.5 -273.5h-175q9 76 -13 131q-42 101 -179 106
l-103 -486q218 -65 289 -122q115 -94 76 -278q-56 -266 -253 -378q-109 -62 -295 -82l-41 -194h-95l41 194q-287 19 -351 206q-35 101 1 273h177q-21 -137 1 -200q38 -113 203 -127l116 545q-208 41 -290.5 137t-46.5 266q32 152 169.5 274t339.5 124z" />
    <glyph glyph-name="percent" unicode="%" horiz-adv-x="1821" 
d="M1817 348q-30 -144 -153.5 -246t-267.5 -102q-145 0 -225.5 102t-50.5 246q31 144 154.5 246t268.5 102q144 0 224.5 -102t49.5 -246zM1554 1426h111l-1113 -1464h-111zM842 1040q18 85 -30 145.5t-134 60.5q-85 0 -158 -60t-91 -146q-19 -85 29 -145.5t133 -60.5
q86 0 159 60.5t92 145.5zM984 1040q-31 -144 -154.5 -246t-268.5 -102q-144 0 -224.5 102t-49.5 246q30 144 154 246.5t268 102.5q145 0 225 -102.5t50 -246.5zM1675 348q19 85 -29 145.5t-133 60.5q-86 0 -159 -60.5t-92 -145.5q-18 -85 30 -145.5t134 -60.5q85 0 158 60.5
t91 145.5z" />
    <glyph glyph-name="ampersand" unicode="&#x26;" horiz-adv-x="1366" 
d="M930 1007q73 68 91 151q13 65 -20 112t-106 47q-111 0 -169 -74q-30 -38 -40 -83q-13 -61 8.5 -117t80.5 -145q110 67 155 109zM914 289l-246 405q-161 -94 -215 -144q-82 -75 -104 -183q-25 -117 47 -180t169 -63q111 0 202 51t147 114zM506 1138q31 142 146.5 235.5
t276.5 93.5q153 0 220.5 -87t42.5 -208q-30 -141 -142 -247q-65 -62 -204 -143l200 -320q44 80 62.5 119.5t45.5 110.5h171q-47 -141 -125.5 -270.5t-73.5 -104.5l194 -317h-232l-103 168q-101 -89 -177 -130q-135 -72 -290 -72q-229 0 -306.5 123.5t-44.5 278.5
q35 167 160 279q76 68 267 170q-70 107 -86 180t-2 141z" />
    <glyph glyph-name="quotesingle" unicode="'" horiz-adv-x="391" 
d="M650 1469l-158 -588h-116l92 588h182z" />
    <glyph glyph-name="parenleft" unicode="(" horiz-adv-x="682" 
d="M923 1493q-222 -305 -300 -449q-117 -219 -178 -506q-62 -290 -32 -530q19 -148 107 -426h-121q-98 228 -119.5 291t-39.5 171q-25 148 -11 316q8 87 24 166q63 296 205 527q91 147 340 440h125z" />
    <glyph glyph-name="parenright" unicode=")" horiz-adv-x="682" 
d="M-17 -418q224 310 300 452q115 215 177 504q61 289 31 529q-18 148 -106 426h121q102 -246 122 -303.5t37 -158.5q21 -125 15.5 -247t-29.5 -235q-63 -296 -206 -528q-91 -149 -338 -439h-124z" />
    <glyph glyph-name="asterisk" unicode="*" horiz-adv-x="797" 
d="M762 1469l-48 -223l234 76l17 -111l-233 -71l95 -188l-114 -71l-90 195l-173 -195l-87 71l177 188l-205 71l63 111l200 -78l48 225h116z" />
    <glyph glyph-name="plus" unicode="+" horiz-adv-x="1196" 
d="M185 438l35 168h436l94 439h171l-94 -439h436l-35 -168h-436l-93 -438h-171l93 438h-436z" />
    <glyph glyph-name="comma" unicode="," horiz-adv-x="569" 
d="M125 -209q72 12 118 97q24 45 33 87q2 7 2.5 12.5t0.5 12.5h-109l46 218h214l-43 -202q-25 -119 -92.5 -209t-189.5 -111z" />
    <glyph glyph-name="hyphen" unicode="-" horiz-adv-x="682" 
d="M225 663h502l-39 -185h-502z" />
    <glyph glyph-name="period" unicode="." horiz-adv-x="569" 
d="M221 218h209l-46 -218h-209z" />
    <glyph glyph-name="slash" unicode="/" horiz-adv-x="569" 
d="M778 1469h152l-778 -1469h-152z" />
    <glyph glyph-name="zero" unicode="0" 
d="M1211 1203q59 -177 -7 -485q-62 -292 -190 -483q-184 -274 -470 -274q-258 0 -336 224q-65 187 2 502q51 244 152 419q187 326 496 326q278 0 353 -229zM1009 711q51 244 24.5 401.5t-199.5 157.5q-159 0 -264 -149.5t-167 -440.5q-47 -219 -28 -352q29 -203 203 -203
q140 0 249.5 124t181.5 462z" />
    <glyph glyph-name="one" unicode="1" 
d="M411 1014l29 138q199 19 285.5 63.5t160.5 210.5h142l-303 -1426h-192l215 1014h-337z" />
    <glyph glyph-name="two" unicode="2" 
d="M521 571l215 111q145 75 209 128q99 83 122 190q27 125 -32.5 198.5t-184.5 73.5q-185 0 -286 -140q-54 -75 -86 -208h-183q43 187 134 305q161 208 457 208q246 0 331 -133t51 -296q-37 -172 -184 -294q-85 -71 -287 -172l-153 -76q-110 -54 -176 -103
q-119 -87 -167 -193h782l-36 -170h-983q49 185 144.5 322t312.5 249z" />
    <glyph glyph-name="three" unicode="3" 
d="M142 440h188q-18 -139 9 -202q46 -113 229 -113q142 0 244 76t128 196q31 148 -47 207t-239 59q-18 0 -36.5 -0.5t-37.5 -1.5l34 159q27 -3 46 -4t41 -1q101 0 173 32q125 56 156 200q23 107 -41 165t-165 58q-180 0 -274 -120q-52 -66 -83 -188h-178q34 160 122 272
q152 200 429 200q219 0 318.5 -97.5t60.5 -282.5q-29 -132 -117 -214q-55 -51 -131 -80q106 -31 151 -119.5t18 -216.5q-44 -205 -206.5 -334t-410.5 -129q-254 0 -338.5 139.5t-42.5 339.5z" />
    <glyph glyph-name="four" unicode="4" 
d="M784 507l138 649l-597 -649h459zM680 0l74 350h-628l37 176l850 910h152l-198 -929h211l-33 -157h-211l-74 -350h-180z" />
    <glyph glyph-name="five" unicode="5" 
d="M330 365q-15 -154 98 -213q57 -30 141 -30q160 0 259 102t125 226q32 150 -42 232t-202 82q-93 0 -167 -36t-135 -100l-154 9l273 771h744l-37 -174h-609l-146 -398q58 38 107 57q87 33 192 33q197 0 307 -127t69 -322q-43 -203 -201.5 -358t-433.5 -155
q-175 0 -288.5 98.5t-86.5 302.5h187z" />
    <glyph glyph-name="six" unicode="6" 
d="M1252 1057h-178q2 85 -23 133q-45 90 -177 90q-151 0 -270 -139.5t-184 -399.5q81 91 185 136q94 40 200 40q180 0 290 -115t61 -343q-41 -195 -200 -345.5t-394 -150.5q-201 0 -315 152.5t-37 513.5q57 267 161 453q201 356 533 356q240 0 308 -124.5t40 -256.5z
M963 444q23 110 -18.5 209.5t-207.5 99.5q-116 0 -220 -77t-137 -232q-29 -136 31 -228.5t201 -92.5q142 0 232.5 95.5t118.5 225.5z" />
    <glyph glyph-name="seven" unicode="7" 
d="M1370 1408l-34 -157q-83 -67 -232.5 -233t-278.5 -358q-127 -187 -205 -341q-50 -99 -142 -319h-199q155 410 473 816q188 238 375 411h-792l39 181h996z" />
    <glyph glyph-name="eight" unicode="8" 
d="M1034 1057q17 80 -32.5 147t-180.5 67q-130 0 -202.5 -67t-91.5 -157q-21 -101 41.5 -158t164.5 -57q119 0 200.5 66.5t100.5 158.5zM941 392q29 139 -40.5 211t-202.5 72q-129 0 -226 -73.5t-125 -203.5q-24 -112 33.5 -193.5t213.5 -81.5q125 0 221.5 67.5t125.5 201.5
zM373 838q-62 80 -35 208q34 160 174.5 275t353.5 115q206 0 300 -108.5t63 -253.5q-29 -134 -114 -217q-48 -47 -138 -92q80 -41 120 -94q74 -100 40 -260q-40 -189 -195 -320.5t-387 -131.5q-209 0 -329.5 113.5t-74.5 329.5q27 127 108.5 219.5t214.5 141.5
q-69 32 -101 75z" />
    <glyph glyph-name="nine" unicode="9" 
d="M345 346q-24 -149 71 -206q49 -30 118 -30q129 0 243 107.5t222 436.5q-81 -95 -177.5 -133.5t-198.5 -38.5q-207 0 -300 129t-50 332q41 195 191.5 343t382.5 148q313 0 372 -282q33 -155 -16 -388q-56 -263 -178 -466q-203 -338 -516 -338q-210 0 -295.5 110t-50.5 276
h182zM1032 957q34 158 -29.5 235.5t-186.5 77.5q-132 0 -228 -88.5t-128 -236.5q-29 -140 21.5 -222.5t199.5 -82.5q107 0 210.5 70.5t140.5 246.5z" />
    <glyph glyph-name="colon" unicode=":" horiz-adv-x="569" 
d="M451 1057h209l-46 -218h-209zM273 218h209l-46 -218h-209z" />
    <glyph glyph-name="semicolon" unicode=";" horiz-adv-x="569" 
d="M182 -209q73 13 117 93q23 42 33 92q1 5 1.5 8.5t2.5 15.5h-109l46 218h213l-43 -202q-23 -107 -69 -179q-77 -118 -212 -141zM451 1057h213l-46 -218h-213z" />
    <glyph glyph-name="less" unicode="&#x3c;" horiz-adv-x="1196" 
d="M156 606l1267 458l-39 -180l-1032 -361l879 -362l-39 -180l-1071 459z" />
    <glyph glyph-name="equal" unicode="=" horiz-adv-x="1196" 
d="M1309 822l-35 -168h-1043l35 168h1043zM1218 393l-36 -171h-1043l36 171h1043z" />
    <glyph glyph-name="greater" unicode="&#x3e;" horiz-adv-x="1196" 
d="M1290 438l-1267 -457l39 180l1032 362l-879 361l39 180l1071 -458z" />
    <glyph glyph-name="question" unicode="?" 
d="M537 208h199l-44 -208h-199zM929 1488q197 0 291.5 -112.5t57.5 -287.5q-23 -106 -80.5 -172t-216.5 -194q-116 -93 -158 -157.5t-69 -190.5h-178q30 143 83 230.5t192 200.5l96 79q44 34 73 71q54 65 69 135q21 98 -22 170t-178 72q-167 0 -258 -124q-50 -69 -83 -199
h-178q46 216 196 347.5t363 131.5z" />
    <glyph glyph-name="at" unicode="@" horiz-adv-x="2079" 
d="M1317 1054q-114 0 -226.5 -134.5t-140.5 -267.5q-21 -98 11 -149.5t97 -51.5q135 0 244 157.5t136 284.5q13 62 -17.5 111.5t-103.5 49.5zM452 218q-137 209 -78 483q69 326 337 554q298 254 709 254q356 0 522 -180q155 -170 97 -441q-48 -228 -219 -389.5t-340 -161.5
q-99 0 -136 47.5t-22 114.5q2 11 6.5 23t10.5 25q-78 -115 -169 -162.5t-177 -47.5q-123 0 -180.5 89t-27.5 229q42 199 205 351t313 152q102 0 156 -59t40 -142l86 168h147l-226 -438q-26 -51 -39.5 -82t-19.5 -55q-9 -45 14 -65.5t58 -20.5q114 0 230 119t157 311
q49 232 -85 364.5t-408 132.5q-380 0 -628 -222q-212 -189 -273 -475q-53 -250 75 -420q149 -201 504 -201q166 0 320 52.5t292 141.5l47 -90q-107 -80 -301 -150t-409 -70q-418 0 -588 261z" />
    <glyph glyph-name="A" unicode="A" horiz-adv-x="1366" 
d="M1037 602l-85 649l-375 -649h460zM895 1469h225l221 -1469h-218l-56 440h-581l-252 -440h-204z" />
    <glyph glyph-name="B" unicode="B" horiz-adv-x="1366" 
d="M888 848q126 0 203 35q122 55 152 198q31 144 -75 194q-61 28 -191 28h-355l-96 -455h362zM811 170q183 0 283 106q63 67 84 162q34 160 -97 218q-69 31 -194 31h-395l-110 -517h429zM463 1469h631q258 0 334 -154q45 -91 19 -210q-29 -139 -127 -228q-51 -47 -136 -86
q103 -43 148 -97q79 -96 43 -265q-30 -142 -144 -257q-169 -172 -459 -172h-621z" />
    <glyph glyph-name="C" unicode="C" horiz-adv-x="1479" 
d="M1597 1028h-194q-3 142 -84 225t-259 83q-217 0 -382.5 -152.5t-232.5 -467.5q-55 -258 31.5 -418.5t325.5 -160.5q220 0 371 169q79 89 140 234h194q-75 -232 -254 -389q-216 -189 -513 -189q-256 0 -397 155q-185 205 -94 633q69 325 285 533q234 226 561 226
q279 0 402 -147t100 -334z" />
    <glyph glyph-name="D" unicode="D" horiz-adv-x="1479" 
d="M756 170q101 0 170 21q124 39 222 150q78 89 133 228q33 83 48 154q58 273 -18.5 424t-317.5 151h-353l-239 -1128h355zM477 1469h595q303 0 424 -215q108 -194 43 -497q-49 -234 -178 -423q-225 -334 -603 -334h-593z" />
    <glyph glyph-name="E" unicode="E" horiz-adv-x="1366" 
d="M487 1469h1071l-39 -180h-877l-94 -446h811l-36 -170h-811l-106 -498h892l-37 -175h-1086z" />
    <glyph glyph-name="F" unicode="F" horiz-adv-x="1251" 
d="M487 1469h1019l-39 -180h-820l-94 -446h721l-38 -175h-721l-141 -668h-199z" />
    <glyph glyph-name="G" unicode="G" horiz-adv-x="1593" 
d="M1452 1427q194 -115 182 -403h-197q-2 161 -99 234.5t-269 73.5q-204 0 -376 -153t-237 -456q-56 -262 24.5 -426.5t340.5 -164.5q199 0 354 115.5t212 373.5h-460l36 165h645l-167 -786h-128l-8 189q-125 -111 -212 -154q-147 -74 -349 -74q-261 0 -413 169
q-160 212 -81 582q78 369 325 587q234 208 536 208q207 0 341 -80z" />
    <glyph glyph-name="H" unicode="H" horiz-adv-x="1479" 
d="M473 1469h201l-129 -607h764l129 607h201l-312 -1469h-201l146 687h-764l-146 -687h-201z" />
    <glyph glyph-name="I" unicode="I" horiz-adv-x="569" 
d="M513 1469h201l-312 -1469h-201z" />
    <glyph glyph-name="J" unicode="J" horiz-adv-x="1024" 
d="M970 438q-40 -186 -117 -289q-142 -188 -428 -188q-165 0 -263 89.5t-49 318.5l22 105h187l-22 -105q-26 -120 15 -180.5t154 -60.5q159 0 231 109q44 67 84 253l208 979h197z" />
    <glyph glyph-name="K" unicode="K" horiz-adv-x="1366" 
d="M468 1469h194l-152 -716l868 716h275l-737 -592l442 -877h-259l-358 737l-283 -225l-108 -512h-194z" />
    <glyph glyph-name="L" unicode="L" 
d="M468 1469h199l-275 -1294h744l-37 -175h-943z" />
    <glyph glyph-name="M" unicode="M" horiz-adv-x="1706" 
d="M463 1469h285l158 -1242l683 1242h282l-312 -1469h-189l184 867q9 45 33.5 149t49.5 223l-682 -1239h-197l-159 1239l-10 -45q-11 -54 -32 -164.5t-32 -162.5l-184 -867h-190z" />
    <glyph glyph-name="N" unicode="N" horiz-adv-x="1479" 
d="M468 1469h235l489 -1190l253 1190h189l-312 -1469h-223l-501 1189l-252 -1189h-190z" />
    <glyph glyph-name="O" unicode="O" horiz-adv-x="1593" 
d="M1633 1259q105 -195 40 -499q-70 -329 -283 -547q-251 -256 -614 -256q-339 0 -485 224q-127 216 -57 546q63 298 256 510q248 272 620 272q389 0 523 -250zM1468 757q55 259 -46.5 417t-336.5 158q-228 0 -405.5 -156.5t-242.5 -461.5q-52 -244 36 -411.5t365 -167.5
q263 0 420.5 188.5t209.5 433.5z" />
    <glyph glyph-name="P" unicode="P" horiz-adv-x="1366" 
d="M487 1469h661q196 0 292.5 -110.5t53.5 -310.5q-36 -172 -170.5 -299.5t-356.5 -127.5h-462l-131 -621h-199zM1220 1267q-60 31 -175 31h-396l-108 -509h396q134 0 229.5 57t126.5 201q34 162 -73 220z" />
    <glyph glyph-name="Q" unicode="Q" horiz-adv-x="1593" 
d="M1500 4l-125 -121l-191 173q-91 -45 -192.5 -72t-214.5 -27q-342 0 -488 224q-125 218 -55 546q63 298 256 510q248 272 620 272q389 0 523 -250q105 -195 40 -499q-30 -142 -93 -273q-95 -200 -248 -326zM1058 177l-134 126l126 123l160 -149q113 104 173 233t85 247
q55 259 -46.5 417t-336.5 158q-238 0 -409.5 -151.5t-238.5 -466.5q-56 -265 44 -422t358 -157q62 0 118 8.5t101 33.5z" />
    <glyph glyph-name="R" unicode="R" horiz-adv-x="1479" 
d="M1008 796q140 0 233.5 56t124.5 202q33 157 -69 214q-55 30 -157 30h-486l-106 -502h460zM492 1469h680q168 0 266 -49q187 -94 134 -347q-28 -132 -100.5 -216t-181.5 -135q79 -35 110 -92t9 -185l-35 -197q-15 -84 -12 -125q3 -70 45 -90l-7 -33h-244q-6 19 -6 49
t15 116l40 245q23 144 -66 193q-52 27 -174 27h-453l-133 -630h-199z" />
    <glyph glyph-name="S" unicode="S" horiz-adv-x="1366" 
d="M386 474q-19 -125 16 -203q68 -146 318 -146q112 0 211 32q191 62 225 222q26 120 -39 171q-65 50 -219 87l-190 45q-185 44 -255 97q-120 92 -81 275q42 198 206 325t415 127q231 0 368.5 -111.5t85.5 -356.5h-187q10 118 -25 181q-67 115 -285 115q-176 0 -268.5 -74
t-113.5 -172q-23 -108 56 -158q52 -32 250 -80l196 -47q142 -34 210 -93q119 -103 77 -299q-52 -244 -252 -349t-435 -105q-274 0 -399 140q-125 139 -72 377h187z" />
    <glyph glyph-name="T" unicode="T" horiz-adv-x="1251" 
d="M1537 1469l-37 -175h-495l-275 -1294h-202l275 1294h-495l37 175h1192z" />
    <glyph glyph-name="U" unicode="U" horiz-adv-x="1479" 
d="M684 1469l-193 -908q-34 -160 3 -266q55 -160 266 -160q253 0 381 173q69 94 103 253l193 908h202l-176 -825q-57 -271 -161 -417q-191 -266 -563 -266t-448 266q-42 146 15 417l176 825h202z" />
    <glyph glyph-name="V" unicode="V" horiz-adv-x="1366" 
d="M584 1469l156 -1251l683 1251h223l-848 -1469h-211l-223 1469h220z" />
    <glyph glyph-name="W" unicode="W" horiz-adv-x="1933" 
d="M565 1469l23 -1195l586 1195h216l78 -1195l531 1195h218l-698 -1469h-209l-81 1218l-599 -1218h-209l-72 1469h216z" />
    <glyph glyph-name="X" unicode="X" horiz-adv-x="1366" 
d="M282 0h-240l686 753l-341 716h249l255 -562l492 562h237l-645 -716l357 -753h-247l-268 604z" />
    <glyph glyph-name="Y" unicode="Y" horiz-adv-x="1366" 
d="M354 1469h232l272 -706l572 706h233l-742 -877l-125 -592h-199l125 592z" />
    <glyph glyph-name="Z" unicode="Z" horiz-adv-x="1251" 
d="M82 165l1141 1129h-835l37 175h1091l-37 -171l-1144 -1123h906l-37 -175h-1157z" />
    <glyph glyph-name="bracketleft" unicode="[" horiz-adv-x="569" 
d="M442 1479h384l-31 -147h-214l-338 -1588h214l-31 -147h-384z" />
    <glyph glyph-name="backslash" unicode="\" horiz-adv-x="569" 
d="M399 1469l259 -1469h-156l-259 1469h156z" />
    <glyph glyph-name="bracketright" unicode="]" horiz-adv-x="569" 
d="M-7 -256h212l338 1588h-213l31 147h384l-400 -1882h-383z" />
    <glyph glyph-name="asciicircum" unicode="^" horiz-adv-x="961" 
d="M937 1469l169 -863h-163l-125 662l-406 -662h-164l535 863h154z" />
    <glyph glyph-name="underscore" unicode="_" 
d="M-54 -256l22 101h1138l-22 -101h-1138z" />
    <glyph glyph-name="grave" unicode="`" horiz-adv-x="682" 
d="M818 1213h-137l-244 289h223z" />
    <glyph glyph-name="a" unicode="a" 
d="M486 117q95 0 194 44q165 73 201 239l30 145q-37 -21 -92 -35t-106 -20l-112 -14q-101 -13 -156 -41q-93 -47 -115 -150q-17 -78 30.5 -123t125.5 -45zM843 649q64 8 95 52q17 24 26 69q20 92 -37 133.5t-179 41.5q-141 0 -216 -76q-42 -42 -69 -125h-168
q47 198 187 275.5t303 77.5q189 0 291 -72t70 -224l-131 -617q-6 -28 1.5 -45t44.5 -17q12 0 27.5 1.5t33.5 4.5l-29 -133q-44 -12 -66.5 -15t-60.5 -3q-93 0 -121 66q-15 35 -10 99q-71 -72 -185 -125t-238 -53q-149 0 -224.5 90.5t-46.5 226.5q32 149 142.5 231t265.5 101
z" />
    <glyph glyph-name="b" unicode="b" 
d="M431 1474h175l-113 -533q75 77 165.5 117.5t186.5 40.5q200 0 295.5 -137.5t38.5 -405.5q-54 -254 -213 -422t-377 -168q-122 0 -193 59q-43 35 -83 112l-29 -137h-166zM993 547q36 169 -13 280t-190 111q-123 0 -235 -91t-156 -300q-32 -151 -14 -245q33 -177 227 -177
q146 0 243 116t138 306z" />
    <glyph glyph-name="c" unicode="c" horiz-adv-x="1024" 
d="M1127 711h-175q5 99 -38 164.5t-169 65.5q-172 0 -282 -168q-71 -109 -105 -269q-35 -161 10 -271t191 -110q112 0 192 68.5t130 187.5h175q-75 -213 -216 -311.5t-328 -98.5q-210 0 -302.5 153.5t-43.5 383.5q60 282 230.5 439t382.5 157q181 0 275.5 -88t72.5 -303z
" />
    <glyph glyph-name="d" unicode="d" 
d="M578 119q125 0 228 107.5t146 308.5q43 203 -19 300.5t-184 97.5q-136 0 -242.5 -104t-149.5 -306q-37 -172 11.5 -288t209.5 -116zM943 1038q42 -30 87 -105l115 541h173l-313 -1474h-162l31 149q-84 -99 -179.5 -143t-206.5 -44q-179 0 -278 150.5t-45 400.5
q49 234 205 405.5t378 171.5q123 0 195 -52z" />
    <glyph glyph-name="e" unicode="e" 
d="M1153 903q37 -81 32 -189q1 -74 -34 -236h-785q-30 -163 21.5 -261.5t202.5 -98.5q141 0 244 93q60 54 95 125h177q-20 -59 -74.5 -131.5t-113.5 -118.5q-99 -80 -226 -108q-69 -16 -151 -16q-200 0 -308 145.5t-52 407.5q55 258 229 419t400 161q114 0 210 -53.5
t133 -138.5zM996 621q14 117 -11 187q-46 130 -219 130q-124 0 -227 -89.5t-138 -227.5h595z" />
    <glyph glyph-name="f" unicode="f" horiz-adv-x="569" 
d="M513 1398q82 92 262 92q17 0 35 -1t40 -3l-35 -164q-27 2 -39.5 2.5t-23.5 0.5q-82 0 -107 -42.5t-62 -216.5h178l-30 -142h-180l-196 -924h-178l196 924h-149l30 142h149l36 168q28 112 74 164z" />
    <glyph glyph-name="g" unicode="g" 
d="M948 1028q44 -35 82 -102l29 135h166l-207 -974q-43 -204 -128 -322q-159 -218 -470 -218q-173 0 -274.5 77.5t-80.5 242.5h183q-2 -72 29 -111q48 -60 179 -60q207 0 302 146q56 86 100 307q-71 -82 -155.5 -122t-209.5 -40q-174 0 -278.5 123.5t-43.5 408.5
q57 269 220.5 420t349.5 151q126 0 207 -62zM740 931q-190 0 -297 -178q-58 -95 -90 -249q-39 -181 14.5 -275.5t177.5 -94.5q194 0 310 175q65 99 93 231q43 199 -19 295t-189 96z" />
    <glyph glyph-name="h" unicode="h" 
d="M445 1474h180l-117 -548q82 81 140 114q99 57 229 57q233 0 281 -163q26 -89 -7 -247l-146 -687h-185l143 675q25 118 7 173q-31 88 -166 88q-112 0 -219 -77t-153 -291l-120 -568h-180z" />
    <glyph glyph-name="i" unicode="i" horiz-adv-x="455" 
d="M358 1066h183l-226 -1066h-183zM444 1469h183l-44 -204h-183z" />
    <glyph glyph-name="j" unicode="j" horiz-adv-x="455" 
d="M580 1261h-180l44 208h180zM-95 -271q121 4 149 21.5t48 109.5l256 1206h180l-260 -1225q-25 -117 -75 -175q-84 -98 -259 -98q-13 0 -27.5 1t-44.5 4z" />
    <glyph glyph-name="k" unicode="k" horiz-adv-x="1024" 
d="M440 1469h173l-182 -853l559 455h230l-495 -401l291 -670h-230l-220 540l-180 -138l-85 -402h-173z" />
    <glyph glyph-name="l" unicode="l" horiz-adv-x="455" 
d="M449 1469h180l-312 -1469h-180z" />
    <glyph glyph-name="m" unicode="m" horiz-adv-x="1706" 
d="M359 1071h178l-32 -152q81 79 140 115q102 61 215 61q128 0 193 -63q36 -36 57 -106q79 86 168.5 127.5t190.5 41.5q216 0 261 -156q24 -84 -6 -226l-151 -713h-187l158 744q22 107 -23 147t-122 40q-106 0 -197.5 -71t-126.5 -237l-132 -623h-183l148 699q23 109 8 159
q-25 75 -137 75q-102 0 -202.5 -79t-144.5 -286l-120 -568h-180z" />
    <glyph glyph-name="n" unicode="n" 
d="M359 1071h171l-32 -152q96 94 189.5 135t197.5 41q228 0 274 -159q26 -87 -8 -249l-146 -687h-183l143 675q21 98 5 158q-27 100 -153 100q-64 0 -108 -13q-79 -22 -149 -88q-56 -53 -81.5 -109.5t-47.5 -161.5l-119 -561h-180z" />
    <glyph glyph-name="o" unicode="o" 
d="M986 553q32 150 4 244q-45 148 -231 148q-165 0 -266.5 -126t-139.5 -304q-36 -171 14.5 -285t213.5 -114q179 0 274.5 135.5t130.5 301.5zM1175 558q-55 -259 -217 -428t-427 -169q-221 0 -319 149.5t-45 401.5q58 270 229 430t402 160q207 0 320.5 -138t56.5 -406z" />
    <glyph glyph-name="p" unicode="p" 
d="M992 542q27 128 9 220q-32 177 -218 177q-187 0 -296 -187q-58 -100 -91 -254q-26 -124 -7 -211q34 -166 220 -166q126 0 232 105.5t151 315.5zM344 1066h175l-30 -142q69 73 142 113q104 60 227 60q182 0 279 -139.5t42 -398.5q-74 -350 -289 -500q-136 -95 -290 -95
q-121 0 -192 53q-42 30 -85 103l-116 -547h-180z" />
    <glyph glyph-name="q" unicode="q" 
d="M348 288q33 -167 211 -167q188 0 297 176q59 97 91 248q30 139 7 232q-40 159 -224 159q-117 0 -222 -101.5t-150 -313.5q-29 -139 -10 -233zM956 1028q42 -36 73 -106l32 149h171l-318 -1498h-181l117 550q-61 -72 -149.5 -114.5t-207.5 -42.5q-171 0 -277.5 134
t-48.5 408q55 257 216.5 422t362.5 165q133 0 210 -67z" />
    <glyph glyph-name="r" unicode="r" horiz-adv-x="682" 
d="M364 1071h171l-39 -185q32 54 130.5 131.5t205.5 77.5q5 0 17 -1t40 -4l-40 -190q-16 3 -29 4t-29 1q-136 0 -227.5 -87.5t-116.5 -201.5l-130 -616h-180z" />
    <glyph glyph-name="s" unicode="s" horiz-adv-x="1024" 
d="M310 336q-11 -90 16 -138q49 -87 217 -87q100 0 185.5 43.5t104.5 134.5q15 69 -39 105q-34 22 -143 51l-135 36q-130 34 -186 76q-101 73 -73 202q32 152 161.5 246t314.5 94q242 0 319 -142q48 -90 24 -194h-170q8 61 -20 111q-47 71 -200 71q-102 0 -162.5 -39
t-74.5 -103q-15 -70 45 -112q35 -25 109 -44l113 -29q184 -47 241 -91q90 -69 58 -217q-30 -143 -160.5 -247t-352.5 -104q-239 0 -315.5 108.5t-49.5 268.5h173z" />
    <glyph glyph-name="t" unicode="t" horiz-adv-x="569" 
d="M459 1370h182l-64 -299h171l-31 -147h-171l-149 -699q-12 -56 22 -75q19 -11 68 -11q13 0 28 0.5t36 2.5l-30 -142q-33 -9 -67.5 -13t-73.5 -4q-126 0 -157.5 64.5t-9.5 167.5l151 709h-145l31 147h145z" />
    <glyph glyph-name="u" unicode="u" 
d="M539 1071l-151 -711q-17 -82 -2 -134q27 -96 158 -96q188 0 292 168q56 90 89 247l112 526h180l-227 -1071h-170l35 158q-48 -61 -109 -103q-121 -84 -268 -84q-229 0 -279 153q-28 82 1 219l155 728h184z" />
    <glyph glyph-name="v" unicode="v" horiz-adv-x="1024" 
d="M447 1071l101 -872l484 872h197l-631 -1071h-192l-168 1071h209z" />
    <glyph glyph-name="w" unicode="w" horiz-adv-x="1479" 
d="M442 1071l27 -844l388 844h202l32 -839l397 839h180l-538 -1071h-187l-42 829l-387 -829h-187l-82 1071h197z" />
    <glyph glyph-name="x" unicode="x" horiz-adv-x="1024" 
d="M257 1071h233l166 -377l329 377l218 -5l-471 -517l261 -549h-230l-181 402l-343 -402h-228l493 549z" />
    <glyph glyph-name="y" unicode="y" horiz-adv-x="1024" 
d="M1028 1071h199q-60 -103 -269 -470q-156 -276 -259 -450q-244 -410 -327 -500t-239 -90q-38 0 -58 3t-48 11l35 164q44 -13 64.5 -16t36.5 -3q50 0 77 16.5t48 40.5q7 8 53.5 82t68.5 110l-162 1102h204l102 -872z" />
    <glyph glyph-name="z" unicode="z" horiz-adv-x="1024" 
d="M82 142l798 768h-588l34 161h830l-31 -147l-793 -763h650l-34 -161h-896z" />
    <glyph glyph-name="braceleft" unicode="{" horiz-adv-x="684" 
d="M389 -5q-32 -154 32 -219.5t155 -76.5l-25 -117q-175 18 -273 104.5t-56 284.5l44 206q23 109 3 172q-38 115 -210 134l24 114q182 21 266 131q47 61 71 175l35 163q40 188 145 298t357 131l-24 -114q-164 -14 -248 -142q-46 -70 -72 -194l-24 -112q-32 -150 -86 -230
q-98 -145 -295 -163q189 -17 225 -168q19 -83 -11 -226z" />
    <glyph glyph-name="bar" unicode="|" horiz-adv-x="532" 
d="M315 0h-171l316 1490h171z" />
    <glyph glyph-name="braceright" unicode="}" horiz-adv-x="684" 
d="M477 702q-20 80 12 231l24 112q28 132 11 200q-30 122 -189 136l24 114q254 -21 316 -160q41 -89 3 -269l-35 -163q-23 -112 -3 -174q38 -113 211 -132l-24 -114q-180 -18 -268 -135q-47 -64 -70 -171l-44 -206q-43 -202 -177 -286t-314 -103l25 117q108 14 194.5 85.5
t115.5 210.5l33 151q30 144 85 226q100 151 294 168q-188 18 -224 162z" />
    <glyph glyph-name="asciitilde" unicode="~" horiz-adv-x="1196" 
d="M536 687q55 -8 103 -29l204 -87q47 -20 77 -30q50 -15 90 -15q73 0 136.5 57.5t99.5 141.5h116q-56 -142 -154 -259t-247 -117q-45 0 -103 18q-34 11 -99 38l-188 78q-35 15 -73.5 23t-64.5 8q-84 0 -146 -65q-36 -38 -84 -129h-117q34 83 66.5 141.5t98.5 132.5
q52 50 106 74t119 24q29 0 60 -5z" />
    <glyph glyph-name="nonbreakingspace" unicode="&#xa0;" horiz-adv-x="569" 
 />
    <glyph glyph-name="exclamdown" unicode="&#xa1;" horiz-adv-x="682" 
d="M459 1071h204l-44 -209h-204zM250 85l187 635h101l-84 -635l-103 -484h-204z" />
    <glyph glyph-name="cent" unicode="&#xa2;" 
d="M396 269q18 -66 70 -111l386 775q-11 4 -26.5 7t-40.5 3q-126 0 -237 -115t-151 -305q-33 -156 -1 -254zM928 1092l92 183h83l-98 -202q108 -49 155.5 -141.5t31.5 -225.5h-168q2 59 -16 117q-21 62 -83 87l-390 -785q18 -6 33.5 -9t45.5 -3q136 0 230 94q56 55 112 167
h173q-63 -149 -157 -247q-165 -170 -408 -170q-37 0 -59 3.5t-48 10.5l-106 -208h-85l118 232q-138 71 -172.5 211.5t2.5 314.5q55 256 222 418.5t404 162.5q21 0 43.5 -2.5t44.5 -7.5z" />
    <glyph glyph-name="sterling" unicode="&#xa3;" 
d="M91 118q129 79 218.5 174.5t113.5 207.5q7 32 3 75q-3 27 -12 74h-221l23 104h157q-2 -5 -21 62.5t-23 98.5q-4 29 -3 67.5t11 82.5q33 156 186 279.5t390 123.5q223 0 311.5 -122t44.5 -345h-185q32 151 -21.5 229.5t-197.5 78.5q-140 0 -228 -73.5t-110 -178.5
q-11 -52 0 -107t54 -196h328l-23 -104h-283q1 -46 0 -72t-7 -54q-22 -100 -102.5 -197.5t-228.5 -193.5q76 35 147.5 55.5t135.5 20.5q72 0 183 -35.5t148 -35.5q47 0 89 18q27 11 83 46l55 -135q-66 -45 -115 -67q-80 -35 -162 -35q-60 0 -192 46t-214 46q-76 0 -149 -26
q-44 -16 -115 -54z" />
    <glyph glyph-name="currency" unicode="&#xa4;" 
d="M648 412q119 0 223.5 83.5t130.5 208.5q27 125 -42 209t-188 84q-122 0 -226 -85t-130 -208q-25 -120 42 -206t190 -86zM307 1095l115 94l109 -137q65 42 129 63.5t133 21.5q83 0 140.5 -22.5t102.5 -64.5l166 139l75 -94l-170 -140q34 -58 43 -121t-6 -137
q-13 -58 -46 -121.5t-97 -123.5l110 -137l-115 -95l-108 135q-66 -43 -132.5 -64.5t-134.5 -21.5q-62 0 -120 18t-118 70l-167 -139l-75 97l170 137q-31 54 -39.5 116t6.5 130q18 85 55 147t86 115z" />
    <glyph glyph-name="yen" unicode="&#xa5;" 
d="M490 1405l222 -675l510 675h223l-359 -445h175l-29 -136h-253l-176 -218h349l-28 -135h-373l-100 -471h-189l100 471h-363l28 135h339l-81 218h-258l29 136h180l-169 445h223z" />
    <glyph glyph-name="brokenbar" unicode="&#xa6;" horiz-adv-x="532" 
d="M337 912l123 578h171l-123 -578h-171zM315 0h-171l122 578h171z" />
    <glyph glyph-name="section" unicode="&#xa7;" 
d="M868 1470q240 0 297 -159q31 -83 5 -216h-175q13 95 -3 140q-30 82 -148 82q-94 0 -152.5 -44.5t-74.5 -118.5q-9 -43 2 -77.5t42 -60.5q64 -51 230 -157q296 -188 251 -398q-25 -119 -116 -208q-52 -51 -164 -121q42 -49 58.5 -107t2.5 -125q-28 -135 -154 -233.5
t-304 -98.5q-235 0 -297 152q-35 82 -14 232h178q-13 -98 5 -144q30 -83 149 -83q78 0 130 21q96 39 119 147q10 46 -9 86q-11 22 -35 46q-13 13 -89 73q-44 35 -84 67l-153 119q-91 71 -125 123q-60 89 -36 200q20 96 95.5 173.5t183.5 136.5q-35 40 -49 86q-15 58 -1 123
q31 145 151.5 244.5t283.5 99.5zM777 215q66 34 102 68q62 59 81 146q16 78 -25 133q-26 34 -114 96l-253 178q-66 -32 -100 -62q-65 -56 -82 -136q-9 -43 -3 -76q12 -61 71 -105z" />
    <glyph glyph-name="dieresis" unicode="&#xa8;" horiz-adv-x="682" 
d="M719 1445h187l-45 -208h-187zM389 1445h187l-45 -208h-187z" />
    <glyph glyph-name="copyright" unicode="&#xa9;" horiz-adv-x="1509" 
d="M837 310q-165 0 -256.5 118t-50.5 314q39 183 170.5 306t301.5 123q107 0 184 -43q133 -77 108 -256h-121q7 75 -35.5 130t-145.5 55q-145 0 -237 -130q-60 -83 -81 -179q-29 -137 19 -230.5t176 -93.5q82 0 146 43.5t104 126.5h121q-52 -135 -162 -209.5t-241 -74.5z
M559 1184q-222 -185 -278 -447q-56 -264 87 -450q144 -186 406 -186t486 186q221 186 277 450q56 262 -88 447q-143 186 -405 186q-261 0 -485 -186zM1318 216q-260 -216 -565 -216t-475 216q-169 216 -104 521q65 304 325 518q261 214 566 214t474 -214q170 -214 105 -518
q-65 -305 -326 -521z" />
    <glyph glyph-name="ordfeminine" unicode="&#xaa;" horiz-adv-x="758" 
d="M743 1168q-51 -21 -167 -36q-131 -26 -149 -109q-9 -41 11.5 -64.5t71.5 -23.5q82 0 140.5 37t76.5 120zM701 1242q26 4 45.5 14.5t26.5 43.5q11 53 -14.5 78t-98.5 25q-72 0 -109.5 -28.5t-53.5 -76.5h-128q30 101 104.5 156t230.5 55q155 0 201 -72q30 -48 11 -134
l-66 -315q-5 -21 0 -33t34 -12q6 0 34 2l-22 -106q-23 -6 -44 -9t-43 -3q-52 0 -71.5 28.5t-14.5 73.5q-63 -59 -136.5 -80.5t-131.5 -21.5q-111 0 -153.5 59t-25.5 135q22 106 122 158q55 30 140 41z" />
    <glyph glyph-name="guillemotleft" unicode="&#xab;" 
d="M752 654l376 251l-38 -180l-252 -166l181 -166l-38 -180l-270 251zM333 654l375 251l-38 -180l-251 -166l180 -166l-38 -180l-269 251z" />
    <glyph glyph-name="logicalnot" unicode="&#xac;" horiz-adv-x="1196" 
d="M1309 822l-127 -600h-168l92 432h-875l35 168h1043z" />
    <glyph glyph-name="softhyphen" unicode="&#xad;" horiz-adv-x="682" 
d="M225 663h502l-39 -185h-502z" />
    <glyph glyph-name="registered" unicode="&#xae;" horiz-adv-x="1509" 
d="M558 1184q-223 -185 -279 -447q-56 -264 88 -450t407 -186t487 186q223 186 279 450q56 262 -89 447q-145 186 -407 186q-261 0 -486 -186zM1318 216q-260 -216 -565 -216t-474 216q-167 215 -102 521q65 303 325 518q260 214 563 214q305 0 474 -214q170 -214 105 -518
q-65 -305 -326 -521zM942 1045h-121l-62 -292h128q90 0 138 18q90 33 110 126q19 88 -28 118t-165 30zM981 1142q150 0 214 -29q114 -52 82 -204q-23 -108 -113 -159q-48 -27 -125 -39q91 -15 121.5 -79t17.5 -125l-12 -59q-6 -28 -11 -60t-2 -42l3 -10h-133q0 4 -0.5 8
t0.5 9l2 26l14 64q29 140 -37 185q-39 26 -152 26h-112l-68 -318h-142l171 806h282z" />
    <glyph glyph-name="macron" unicode="&#xaf;" horiz-adv-x="682" 
d="M316 1400h640l-23 -118h-640z" />
    <glyph glyph-name="degree" unicode="&#xb0;" horiz-adv-x="819" 
d="M955 1130q-28 -130 -137 -216.5t-229 -86.5q-133 0 -198.5 90t-40.5 210q27 128 135.5 216t232.5 88q127 0 195 -87.5t42 -213.5zM612 936q77 0 146.5 56.5t87.5 137.5q16 78 -28.5 135t-123.5 57t-148.5 -56.5t-86.5 -137.5q-16 -78 28.5 -135t124.5 -57z" />
    <glyph glyph-name="plusminus" unicode="&#xb1;" horiz-adv-x="1124" 
d="M1169 161l-34 -161h-1043l34 161h1043zM210 557l33 158h436l71 330h171l-71 -330h436l-33 -158h-436l-68 -318h-171l68 318h-436z" />
    <glyph glyph-name="twosuperior" unicode="&#xb2;" horiz-adv-x="682" 
d="M456 946q164 74 216.5 110t64.5 96q14 66 -14.5 106t-109.5 40t-123.5 -51t-59.5 -124h-157q32 150 134.5 229.5t239.5 79.5q139 0 209 -67t43 -196q-25 -119 -99.5 -180t-221.5 -125q-187 -77 -233 -153h457l-30 -140h-640q31 145 120 234t204 141z" />
    <glyph glyph-name="threesuperior" unicode="&#xb3;" horiz-adv-x="682" 
d="M330 832q-10 -82 5 -114q25 -55 126 -55q97 0 147.5 42t63.5 103q21 96 -75 128q-51 17 -138 14l26 121q96 -1 140 13q79 25 96 105q10 48 -15.5 83.5t-97.5 35.5q-69 0 -120.5 -37.5t-71.5 -126.5h-145q29 136 127 211.5t235 75.5q132 0 197.5 -67t44.5 -165
q-14 -69 -55 -114t-103 -61q80 -21 103.5 -75.5t4.5 -141.5q-27 -127 -140 -196t-248 -69q-129 0 -206.5 65t-47.5 225h147z" />
    <glyph glyph-name="acute" unicode="&#xb4;" horiz-adv-x="682" 
d="M843 1502l-294 -289h-138l210 289h222z" />
    <glyph glyph-name="mu" unicode="&#xb5;" horiz-adv-x="1180" 
d="M660 1069l-324 -757q-8 -17 -12 -29.5t-7 -27.5q-11 -48 3 -76q24 -51 121 -51q145 0 268 106.5t184 248.5l253 586h183l-457 -1069h-173l80 180q-32 -44 -117 -105q-144 -103 -294 -103q-47 0 -92.5 17t-64.5 39l-192 -450h-184l640 1491h185z" />
    <glyph glyph-name="paragraph" unicode="&#xb6;" horiz-adv-x="1100" 
d="M862 -363h-147l365 1716h-231l-365 -1716h-147l189 889q-212 3 -287.5 148.5t-38.5 320.5q31 148 128 264q175 210 473 210h576l-25 -116h-125z" />
    <glyph glyph-name="periodcentered" unicode="&#xb7;" horiz-adv-x="569" 
d="M556 701q-12 -53 -57.5 -90.5t-98.5 -37.5t-82.5 37.5t-17.5 90.5q11 53 56 90.5t99 37.5t83 -37.5t18 -90.5z" />
    <glyph glyph-name="cedilla" unicode="&#xb8;" horiz-adv-x="682" 
d="M339 0h97l-124 -128q31 9 77 9q70 0 107 -40.5t21 -115.5q-16 -76 -87.5 -131t-195.5 -55q-53 0 -107 15q-31 8 -79 28l52 81q35 -14 54 -20q37 -11 70 -11q37 0 68 11q56 21 68 76q7 32 -14 55.5t-65 23.5q-22 0 -41 -4t-45 -13l-25 41z" />
    <glyph glyph-name="onesuperior" unicode="&#xb9;" horiz-adv-x="682" 
d="M590 571h-161l124 583h-221l23 107q128 11 172 32q69 32 114 133h131z" />
    <glyph glyph-name="ordmasculine" unicode="&#xba;" horiz-adv-x="748" 
d="M949 1171q-31 -149 -135.5 -246.5t-266.5 -97.5q-185 0 -239 134q-37 88 -12 202q24 113 99 205q117 141 307 141q143 0 213 -85t34 -253zM440 1158q-19 -89 9 -152t118 -63q112 0 179 95q40 57 57 134q23 110 -15.5 165.5t-110.5 55.5q-88 0 -150.5 -60.5t-86.5 -174.5z
" />
    <glyph glyph-name="guillemotright" unicode="&#xbb;" 
d="M696 393l246 166l-175 166l38 180l270 -251l-41 -190l-376 -251zM277 393l246 166l-175 166l38 180l269 -251l-41 -190l-375 -251z" />
    <glyph glyph-name="onequarter" unicode="&#xbc;" horiz-adv-x="1708" 
d="M666 571h-161l124 583h-221l23 107q127 11 172 32q69 32 114 133h131zM1559 860h135l-115 -543h114l-26 -123h-114l-41 -194h-154l41 194h-408l28 135zM1422 317l73 344l-343 -344h270zM1565 1431h135l-1190 -1469h-135z" />
    <glyph glyph-name="onehalf" unicode="&#xbd;" horiz-adv-x="1708" 
d="M263 -38l1162 1469h135l-1162 -1469h-135zM592 571h-161l124 583h-220l23 107q126 11 171 32q71 33 115 133h130zM1273 374q165 74 217 111t65 96q15 70 -15.5 108t-108.5 38q-90 0 -138 -65q-27 -37 -46 -110h-156q26 125 119.5 216.5t259.5 91.5q138 0 205.5 -69.5
t42.5 -186.5q-22 -103 -85.5 -168t-211.5 -132q-212 -89 -259 -165h457l-29 -139h-640q39 134 108 221t215 153z" />
    <glyph glyph-name="threequarters" unicode="&#xbe;" horiz-adv-x="1708" 
d="M1578 860h135l-115 -543h114l-26 -123h-114l-41 -194h-154l41 194h-408l28 135zM1441 317l73 344l-343 -344h270zM1757 1431l-1209 -1469h-136l1209 1469h136zM398 832q-15 -72 9 -118q26 -51 122 -51t147 41t64 101q20 98 -74 131q-51 17 -138 14l26 121q97 -1 141 13
q78 26 96 107q9 43 -15 80t-100 37q-69 0 -119.5 -37t-72.5 -127h-144q30 144 131 215.5t231 71.5q131 0 196.5 -67t44.5 -165q-12 -60 -53 -108.5t-105 -66.5q93 -32 113 -105q10 -41 -3 -105q-29 -133 -141 -202.5t-248 -69.5q-192 0 -244 119q-31 77 -11 171h147z" />
    <glyph glyph-name="questiondown" unicode="&#xbf;" horiz-adv-x="1251" 
d="M773 1076h199l-44 -209h-199zM505 374q110 91 145 152t60 175h178q-33 -152 -78 -224t-213 -217l-96 -83q-63 -54 -91 -101t-37 -90q-22 -102 27.5 -172t186.5 -70q151 0 239 111q49 64 91 211h173q-49 -247 -205 -363t-341 -116t-293.5 103t-70.5 285q22 101 85 177
t183 175z" />
    <glyph glyph-name="Agrave" unicode="&#xc0;" horiz-adv-x="1366" 
d="M1037 602l-85 649l-375 -649h460zM895 1469h225l221 -1469h-218l-56 440h-581l-252 -440h-204zM1260 1585h-137l-244 289h223z" />
    <glyph glyph-name="Aacute" unicode="&#xc1;" horiz-adv-x="1366" 
d="M1037 602l-85 649l-375 -649h460zM895 1469h225l221 -1469h-218l-56 440h-581l-252 -440h-204zM1280 1874l-294 -289h-138l210 289h222z" />
    <glyph glyph-name="Acircumflex" unicode="&#xc2;" horiz-adv-x="1366" 
d="M1037 602l-85 649l-375 -649h460zM895 1469h225l221 -1469h-218l-56 440h-581l-252 -440h-204zM1216 1874l158 -289h-164l-104 192l-166 -192h-163l249 289h190z" />
    <glyph glyph-name="Atilde" unicode="&#xc3;" horiz-adv-x="1366" 
d="M1037 602l-85 649l-375 -649h460zM895 1469h225l221 -1469h-218l-56 440h-581l-252 -440h-204zM1125 1775q25 -12 47.5 -19t46.5 -7q56 0 86 35q15 19 26 57h105q-40 -127 -107.5 -175t-138.5 -48q-22 0 -54 8t-57 18l-50 19q-43 17 -72 25.5t-57 8.5q-35 0 -61 -23
t-42 -70h-98q25 79 64 129q70 92 182 92q34 0 74 -10t106 -40z" />
    <glyph glyph-name="Adieresis" unicode="&#xc4;" horiz-adv-x="1366" 
d="M1037 602l-85 649l-375 -649h460zM895 1469h225l221 -1469h-218l-56 440h-581l-252 -440h-204zM1166 1817h187l-45 -208h-187zM836 1817h187l-45 -208h-187z" />
    <glyph glyph-name="Aring" unicode="&#xc5;" horiz-adv-x="1366" 
d="M1037 602l-85 649l-375 -649h460zM895 1469h225l221 -1469h-218l-56 440h-581l-252 -440h-204zM1027 1629q52 0 98 37t59 89q12 52 -17 89t-81 37q-51 0 -96 -37t-57 -89q-13 -52 15 -89t79 -37zM1107 1964q86 0 133 -61.5t27 -147.5q-23 -86 -99 -147.5t-162 -61.5
t-132.5 61.5t-23.5 147.5q20 86 95.5 147.5t161.5 61.5z" />
    <glyph glyph-name="AE" unicode="&#xc6;" horiz-adv-x="2048" 
d="M1012 1298l-420 -694h472l147 694h-199zM925 1469h1316l-37 -175h-796l-96 -451h730l-36 -166h-730l-106 -502h815l-37 -175h-1012l92 436h-541l-255 -436h-216z" />
    <glyph glyph-name="Ccedilla" unicode="&#xc7;" horiz-adv-x="1479" 
d="M1597 1028h-194q-3 142 -84 225t-259 83q-217 0 -382.5 -152.5t-232.5 -467.5q-55 -258 31.5 -418.5t325.5 -160.5q220 0 371 169q79 89 140 234h194q-75 -232 -254 -389q-216 -189 -492 -189l-85 -90q31 9 77 9q70 0 107 -40.5t21 -115.5q-16 -76 -87.5 -131t-195.5 -55
q-53 0 -107 15q-31 8 -80 28l52 81q35 -14 55 -20q38 -11 71 -11q37 0 67 11q56 21 68 76q7 32 -14.5 55.5t-65.5 23.5q-22 0 -40.5 -4t-44.5 -13l-26 41l131 140q-175 0 -320 139q-186 221 -95 649q69 325 285 533q234 226 561 226q279 0 402 -147t100 -334z" />
    <glyph glyph-name="Egrave" unicode="&#xc8;" horiz-adv-x="1366" 
d="M487 1469h1071l-39 -180h-877l-94 -446h811l-36 -170h-811l-106 -498h892l-37 -175h-1086zM1292 1585h-137l-244 289h223z" />
    <glyph glyph-name="Eacute" unicode="&#xc9;" horiz-adv-x="1366" 
d="M487 1469h1071l-39 -180h-877l-94 -446h811l-36 -170h-811l-106 -498h892l-37 -175h-1086zM1322 1874l-294 -289h-138l210 289h222z" />
    <glyph glyph-name="Ecircumflex" unicode="&#xca;" horiz-adv-x="1366" 
d="M487 1469h1071l-39 -180h-877l-94 -446h811l-36 -170h-811l-106 -498h892l-37 -175h-1086zM1248 1874l158 -289h-164l-104 192l-166 -192h-163l249 289h190z" />
    <glyph glyph-name="Edieresis" unicode="&#xcb;" horiz-adv-x="1366" 
d="M487 1469h1071l-39 -180h-877l-94 -446h811l-36 -170h-811l-106 -498h892l-37 -175h-1086zM1188 1817h187l-45 -208h-187zM858 1817h187l-45 -208h-187z" />
    <glyph glyph-name="Igrave" unicode="&#xcc;" horiz-adv-x="569" 
d="M496 1469h201l-312 -1469h-201zM743 1584h-137l-206 289h223z" />
    <glyph glyph-name="Iacute" unicode="&#xcd;" horiz-adv-x="569" 
d="M513 1469h201l-312 -1469h-201zM909 1870l-328 -289h-138l244 289h222z" />
    <glyph glyph-name="Icircumflex" unicode="&#xce;" horiz-adv-x="569" 
d="M513 1469h201l-312 -1469h-201zM785 1878l142 -289h-164l-94 192l-176 -192h-163l265 289h190z" />
    <glyph glyph-name="Idieresis" unicode="&#xcf;" horiz-adv-x="569" 
d="M513 1469h201l-312 -1469h-201zM747 1813h187l-44 -208h-187zM417 1813h187l-44 -208h-187z" />
    <glyph glyph-name="Eth" unicode="&#xd0;" horiz-adv-x="1479" 
d="M216 865h132l129 604h562q365 0 477 -251q82 -183 24 -459q-52 -244 -186 -436q-224 -323 -596 -323h-593l146 687h-132zM548 865h419l-37 -178h-419l-110 -517h355q101 0 170 21q124 39 222 150q78 89 133 228q33 83 48 154q58 273 -18.5 424t-317.5 151h-353z" />
    <glyph glyph-name="Ntilde" unicode="&#xd1;" horiz-adv-x="1479" 
d="M468 1469h235l489 -1190l253 1190h189l-312 -1469h-223l-501 1189l-252 -1189h-190zM1175 1775q25 -12 47.5 -19t46.5 -7q56 0 86 35q15 19 26 57h105q-40 -127 -107.5 -175t-138.5 -48q-22 0 -54 8t-57 18l-50 19q-43 17 -72 25.5t-57 8.5q-35 0 -61 -23t-42 -70h-98
q25 79 64 129q70 92 182 92q34 0 74 -10t106 -40z" />
    <glyph glyph-name="Ograve" unicode="&#xd2;" horiz-adv-x="1593" 
d="M1633 1259q105 -195 40 -499q-70 -329 -283 -547q-251 -256 -614 -256q-339 0 -485 224q-127 216 -57 546q63 298 256 510q248 272 620 272q389 0 523 -250zM1468 757q55 259 -46.5 417t-336.5 158q-228 0 -405.5 -156.5t-242.5 -461.5q-52 -244 36 -411.5t365 -167.5
q263 0 420.5 188.5t209.5 433.5zM1388 1625h-137l-244 289h223z" />
    <glyph glyph-name="Oacute" unicode="&#xd3;" horiz-adv-x="1593" 
d="M1633 1259q105 -195 40 -499q-70 -329 -283 -547q-251 -256 -614 -256q-339 0 -485 224q-127 216 -57 546q63 298 256 510q248 272 620 272q389 0 523 -250zM1468 757q55 259 -46.5 417t-336.5 158q-228 0 -405.5 -156.5t-242.5 -461.5q-52 -244 36 -411.5t365 -167.5
q263 0 420.5 188.5t209.5 433.5zM1398 1914l-294 -289h-138l210 289h222z" />
    <glyph glyph-name="Ocircumflex" unicode="&#xd4;" horiz-adv-x="1593" 
d="M1633 1259q105 -195 40 -499q-70 -329 -283 -547q-251 -256 -614 -256q-339 0 -485 224q-127 216 -57 546q63 298 256 510q248 272 620 272q389 0 523 -250zM1468 757q55 259 -46.5 417t-336.5 158q-228 0 -405.5 -156.5t-242.5 -461.5q-52 -244 36 -411.5t365 -167.5
q263 0 420.5 188.5t209.5 433.5zM1334 1914l158 -289h-164l-104 192l-166 -192h-163l249 289h190z" />
    <glyph glyph-name="Otilde" unicode="&#xd5;" horiz-adv-x="1593" 
d="M1633 1259q105 -195 40 -499q-70 -329 -283 -547q-251 -256 -614 -256q-339 0 -485 224q-127 216 -57 546q63 298 256 510q248 272 620 272q389 0 523 -250zM1468 757q55 259 -46.5 417t-336.5 158q-228 0 -405.5 -156.5t-242.5 -461.5q-52 -244 36 -411.5t365 -167.5
q263 0 420.5 188.5t209.5 433.5zM1243 1815q25 -12 47.5 -19t46.5 -7q56 0 86 35q15 19 26 57h105q-40 -127 -107.5 -175t-138.5 -48q-22 0 -54 8t-57 18l-50 19q-43 17 -72 25.5t-57 8.5q-35 0 -61 -23t-42 -70h-98q25 79 64 129q70 92 182 92q34 0 74 -10t106 -40z" />
    <glyph glyph-name="Odieresis" unicode="&#xd6;" horiz-adv-x="1593" 
d="M1633 1259q105 -195 40 -499q-70 -329 -283 -547q-251 -256 -614 -256q-339 0 -485 224q-127 216 -57 546q63 298 256 510q248 272 620 272q389 0 523 -250zM1468 757q55 259 -46.5 417t-336.5 158q-228 0 -405.5 -156.5t-242.5 -461.5q-52 -244 36 -411.5t365 -167.5
q263 0 420.5 188.5t209.5 433.5zM1318 1866h187l-45 -208h-187zM988 1866h187l-45 -208h-187z" />
    <glyph glyph-name="multiply" unicode="&#xd7;" horiz-adv-x="1196" 
d="M307 903l144 118l298 -379l461 379l95 -118l-460 -380l299 -379l-147 -121l-299 379l-460 -379l-92 121l460 379z" />
    <glyph glyph-name="Oslash" unicode="&#xd8;" horiz-adv-x="1593" 
d="M840 135q268 0 447 224q132 166 181 398q28 130 13 239q-8 59 -34 129l-950 -846q52 -70 126 -107t217 -37zM124 -36l-53 62l213 180q-59 107 -70 240.5t20 280.5q65 304 267 520q245 263 600 263q177 0 291.5 -44.5t179.5 -121.5l189 165l51 -61l-193 -173
q42 -70 66 -177q29 -147 -12 -338q-77 -364 -330 -586q-246 -217 -559 -217q-187 0 -310 63q-79 40 -144 117zM1302 1281q-92 51 -224 51q-225 0 -400.5 -157.5t-240.5 -460.5q-20 -95 -20.5 -191t35.5 -175l955 846q-54 59 -105 87z" />
    <glyph glyph-name="Ugrave" unicode="&#xd9;" horiz-adv-x="1479" 
d="M684 1469l-193 -908q-34 -160 3 -266q55 -160 266 -160q253 0 381 173q69 94 103 253l193 908h202l-176 -825q-57 -271 -161 -417q-191 -266 -563 -266t-448 266q-42 146 15 417l176 825h202zM1333 1585h-137l-244 289h223z" />
    <glyph glyph-name="Uacute" unicode="&#xda;" horiz-adv-x="1479" 
d="M684 1469l-193 -908q-34 -160 3 -266q55 -160 266 -160q253 0 381 173q69 94 103 253l193 908h202l-176 -825q-57 -271 -161 -417q-191 -266 -563 -266t-448 266q-42 146 15 417l176 825h202zM1353 1874l-294 -289h-138l210 289h222z" />
    <glyph glyph-name="Ucircumflex" unicode="&#xdb;" horiz-adv-x="1479" 
d="M684 1469l-193 -908q-34 -160 3 -266q55 -160 266 -160q253 0 381 173q69 94 103 253l193 908h202l-176 -825q-57 -271 -161 -417q-191 -266 -563 -266t-448 266q-42 146 15 417l176 825h202zM1279 1874l158 -289h-164l-104 192l-166 -192h-163l249 289h190z" />
    <glyph glyph-name="Udieresis" unicode="&#xdc;" horiz-adv-x="1479" 
d="M684 1469l-193 -908q-34 -160 3 -266q55 -160 266 -160q253 0 381 173q69 94 103 253l193 908h202l-176 -825q-57 -271 -161 -417q-191 -266 -563 -266t-448 266q-42 146 15 417l176 825h202zM1202 1808h187l-45 -208h-187zM872 1808h187l-45 -208h-187z" />
    <glyph glyph-name="Yacute" unicode="&#xdd;" horiz-adv-x="1366" 
d="M354 1469h232l272 -706l572 706h233l-742 -877l-125 -592h-199l125 592zM1293 1874l-294 -289h-138l210 289h222z" />
    <glyph glyph-name="Thorn" unicode="&#xde;" horiz-adv-x="1366" 
d="M439 1467h194l-49 -234h456q227 0 312.5 -116.5t44.5 -307.5q-35 -168 -180.5 -294t-363.5 -126h-449l-82 -389h-194zM1031 598q129 58 164 222q14 69 -6 129q-38 111 -188 111h-454l-106 -496h390q129 1 200 34z" />
    <glyph glyph-name="germandbls" unicode="&#xdf;" horiz-adv-x="1251" 
d="M416 1024q61 286 238 397q116 70 268 70q207 0 297 -100.5t55 -265.5q-25 -116 -87 -192t-144 -113q86 -23 132 -99q63 -96 26 -270q-42 -198 -184.5 -339t-348.5 -141q-48 0 -71 2t-57 8l34 156q23 -3 42.5 -5t44.5 -2q108 0 211 68t140 242q36 169 -63 241
q-61 44 -156 44q-17 0 -40 -2t-47 -5l34 161q18 -3 27 -4t20 -1q145 0 216.5 73.5t88.5 154.5q21 102 -25.5 167t-166.5 65q-155 0 -232 -112q-43 -63 -72 -198l-217 -1024h-180z" />
    <glyph glyph-name="agrave" unicode="&#xe0;" 
d="M486 117q95 0 194 44q165 73 201 239l30 145q-37 -21 -92 -35t-106 -20l-112 -14q-101 -13 -156 -41q-93 -47 -115 -150q-17 -78 30.5 -123t125.5 -45zM843 649q64 8 95 52q17 24 26 69q20 92 -37 133.5t-179 41.5q-141 0 -216 -76q-42 -42 -69 -125h-168
q47 198 187 275.5t303 77.5q189 0 291 -72t70 -224l-131 -617q-6 -28 1.5 -45t44.5 -17q12 0 27.5 1.5t33.5 4.5l-29 -133q-44 -12 -66.5 -15t-60.5 -3q-93 0 -121 66q-15 35 -10 99q-71 -72 -185 -125t-238 -53q-149 0 -224.5 90.5t-46.5 226.5q32 149 142.5 231t265.5 101
zM1062 1213h-137l-244 289h223z" />
    <glyph glyph-name="aacute" unicode="&#xe1;" 
d="M486 117q95 0 194 44q165 73 201 239l30 145q-37 -21 -92 -35t-106 -20l-112 -14q-101 -13 -156 -41q-93 -47 -115 -150q-17 -78 30.5 -123t125.5 -45zM843 649q64 8 95 52q17 24 26 69q20 92 -37 133.5t-179 41.5q-141 0 -216 -76q-42 -42 -69 -125h-168
q47 198 187 275.5t303 77.5q189 0 291 -72t70 -224l-131 -617q-6 -28 1.5 -45t44.5 -17q12 0 27.5 1.5t33.5 4.5l-29 -133q-44 -12 -66.5 -15t-60.5 -3q-93 0 -121 66q-15 35 -10 99q-71 -72 -185 -125t-238 -53q-149 0 -224.5 90.5t-46.5 226.5q32 149 142.5 231t265.5 101
zM1082 1502l-294 -289h-138l210 289h222z" />
    <glyph glyph-name="acircumflex" unicode="&#xe2;" 
d="M486 117q95 0 194 44q165 73 201 239l30 145q-37 -21 -92 -35t-106 -20l-112 -14q-101 -13 -156 -41q-93 -47 -115 -150q-17 -78 30.5 -123t125.5 -45zM843 649q64 8 95 52q17 24 26 69q20 92 -37 133.5t-179 41.5q-141 0 -216 -76q-42 -42 -69 -125h-168
q47 198 187 275.5t303 77.5q189 0 291 -72t70 -224l-131 -617q-6 -28 1.5 -45t44.5 -17q12 0 27.5 1.5t33.5 4.5l-29 -133q-44 -12 -66.5 -15t-60.5 -3q-93 0 -121 66q-15 35 -10 99q-71 -72 -185 -125t-238 -53q-149 0 -224.5 90.5t-46.5 226.5q32 149 142.5 231t265.5 101
zM996 1498l158 -289h-164l-104 192l-166 -192h-163l249 289h190z" />
    <glyph glyph-name="atilde" unicode="&#xe3;" 
d="M486 117q95 0 194 44q165 73 201 239l30 145q-37 -21 -92 -35t-106 -20l-112 -14q-101 -13 -156 -41q-93 -47 -115 -150q-17 -78 30.5 -123t125.5 -45zM843 649q64 8 95 52q17 24 26 69q20 92 -37 133.5t-179 41.5q-141 0 -216 -76q-42 -42 -69 -125h-168
q47 198 187 275.5t303 77.5q189 0 291 -72t70 -224l-131 -617q-6 -28 1.5 -45t44.5 -17q12 0 27.5 1.5t33.5 4.5l-29 -133q-44 -12 -66.5 -15t-60.5 -3q-93 0 -121 66q-15 35 -10 99q-71 -72 -185 -125t-238 -53q-149 0 -224.5 90.5t-46.5 226.5q32 149 142.5 231t265.5 101
zM927 1403q25 -12 47.5 -19t46.5 -7q56 0 86 35q15 19 26 57h105q-40 -127 -107.5 -175t-138.5 -48q-22 0 -54 8t-57 18l-50 19q-43 17 -72 25.5t-57 8.5q-35 0 -61 -23t-42 -70h-98q25 79 64 129q70 92 182 92q34 0 74 -10t106 -40z" />
    <glyph glyph-name="adieresis" unicode="&#xe4;" 
d="M486 117q95 0 194 44q165 73 201 239l30 145q-37 -21 -92 -35t-106 -20l-112 -14q-101 -13 -156 -41q-93 -47 -115 -150q-17 -78 30.5 -123t125.5 -45zM843 649q64 8 95 52q17 24 26 69q20 92 -37 133.5t-179 41.5q-141 0 -216 -76q-42 -42 -69 -125h-168
q47 198 187 275.5t303 77.5q189 0 291 -72t70 -224l-131 -617q-6 -28 1.5 -45t44.5 -17q12 0 27.5 1.5t33.5 4.5l-29 -133q-44 -12 -66.5 -15t-60.5 -3q-93 0 -121 66q-15 35 -10 99q-71 -72 -185 -125t-238 -53q-149 0 -224.5 90.5t-46.5 226.5q32 149 142.5 231t265.5 101
zM958 1445h187l-45 -208h-187zM628 1445h187l-45 -208h-187z" />
    <glyph glyph-name="aring" unicode="&#xe5;" 
d="M486 117q95 0 194 44q165 73 201 239l30 145q-37 -21 -92 -35t-106 -20l-112 -14q-101 -13 -156 -41q-93 -47 -115 -150q-17 -78 30.5 -123t125.5 -45zM843 649q64 8 95 52q17 24 26 69q20 92 -37 133.5t-179 41.5q-141 0 -216 -76q-42 -42 -69 -125h-168
q47 198 187 275.5t303 77.5q189 0 291 -72t70 -224l-131 -617q-6 -28 1.5 -45t44.5 -17q12 0 27.5 1.5t33.5 4.5l-29 -133q-44 -12 -66.5 -15t-60.5 -3q-93 0 -121 66q-15 35 -10 99q-71 -72 -185 -125t-238 -53q-149 0 -224.5 90.5t-46.5 226.5q32 149 142.5 231t265.5 101
zM852 1291q52 0 98 37t59 89q12 52 -17 89t-81 37q-51 0 -96 -37t-57 -89q-13 -52 15 -89t79 -37zM932 1626q86 0 133 -61.5t27 -147.5q-23 -86 -99 -147.5t-162 -61.5t-132.5 61.5t-23.5 147.5q20 86 95.5 147.5t161.5 61.5z" />
    <glyph glyph-name="ae" unicode="&#xe6;" horiz-adv-x="1821" 
d="M1674 621q31 157 -35.5 237.5t-186.5 80.5t-224 -80.5t-147 -237.5h593zM897 545q-28 -17 -54 -26.5t-89 -19.5l-158 -23q-115 -18 -169 -45q-89 -46 -109 -144q-18 -84 36 -129t140 -45q49 0 119 25t136 77q59 46 84 94q16 30 36 101zM822 649q53 7 84 36t43 82
q18 86 -28.5 131t-169.5 45q-100 0 -167 -32q-112 -59 -136 -170h-173q58 226 243 309q106 47 274 47q133 0 217 -49q71 -43 98 -112q76 77 173.5 119t208.5 42q117 0 207 -41.5t135 -138.5q42 -80 39.5 -184.5t-34.5 -254.5h-787q-30 -166 26.5 -263t195.5 -97
q130 0 210 57t128 161h182q-26 -80 -102 -164.5t-149 -126.5q-80 -46 -156 -63.5t-153 -17.5q-147 0 -244 76q-88 77 -101 152q-107 -121 -223 -174.5t-238 -53.5q-172 0 -248 86t-47 222q38 178 178 266q89 56 221 73z" />
    <glyph glyph-name="ccedilla" unicode="&#xe7;" horiz-adv-x="1024" 
d="M1127 711h-175q5 99 -38 164.5t-169 65.5q-172 0 -282 -168q-71 -109 -105 -269q-35 -161 10 -271t191 -110q112 0 192 68.5t130 187.5h175q-75 -213 -216 -311.5t-300 -98.5l-92 -97q31 9 77 9q70 0 107 -40.5t21 -115.5q-16 -76 -87.5 -131t-195.5 -55q-53 0 -107 15
q-31 8 -80 28l52 81q35 -14 55 -20q38 -11 71 -11q37 0 67 11q56 21 68 76q7 32 -14.5 55.5t-65.5 23.5q-22 0 -40.5 -4t-44.5 -13l-26 41l139 147q-142 0 -224 114q-109 163 -54 423q60 282 230.5 439t382.5 157q181 0 275.5 -88t72.5 -303z" />
    <glyph glyph-name="egrave" unicode="&#xe8;" 
d="M1153 903q37 -81 32 -189q1 -74 -34 -236h-785q-30 -163 21.5 -261.5t202.5 -98.5q141 0 244 93q60 54 95 125h177q-20 -59 -74.5 -131.5t-113.5 -118.5q-99 -80 -226 -108q-69 -16 -151 -16q-200 0 -308 145.5t-52 407.5q55 258 229 419t400 161q114 0 210 -53.5
t133 -138.5zM996 621q14 117 -11 187q-46 130 -219 130q-124 0 -227 -89.5t-138 -227.5h595zM1066 1213h-137l-244 289h223z" />
    <glyph glyph-name="eacute" unicode="&#xe9;" 
d="M1153 903q37 -81 32 -189q1 -74 -34 -236h-785q-30 -163 21.5 -261.5t202.5 -98.5q141 0 244 93q60 54 95 125h177q-20 -59 -74.5 -131.5t-113.5 -118.5q-99 -80 -226 -108q-69 -16 -151 -16q-200 0 -308 145.5t-52 407.5q55 258 229 419t400 161q114 0 210 -53.5
t133 -138.5zM996 621q14 117 -11 187q-46 130 -219 130q-124 0 -227 -89.5t-138 -227.5h595zM1086 1502l-294 -289h-138l210 289h222z" />
    <glyph glyph-name="ecircumflex" unicode="&#xea;" 
d="M1153 903q37 -81 32 -189q1 -74 -34 -236h-785q-30 -163 21.5 -261.5t202.5 -98.5q141 0 244 93q60 54 95 125h177q-20 -59 -74.5 -131.5t-113.5 -118.5q-99 -80 -226 -108q-69 -16 -151 -16q-200 0 -308 145.5t-52 407.5q55 258 229 419t400 161q114 0 210 -53.5
t133 -138.5zM996 621q14 117 -11 187q-46 130 -219 130q-124 0 -227 -89.5t-138 -227.5h595zM1000 1502l158 -289h-164l-104 192l-166 -192h-163l249 289h190z" />
    <glyph glyph-name="edieresis" unicode="&#xeb;" 
d="M1153 903q37 -81 32 -189q1 -74 -34 -236h-785q-30 -163 21.5 -261.5t202.5 -98.5q141 0 244 93q60 54 95 125h177q-20 -59 -74.5 -131.5t-113.5 -118.5q-99 -80 -226 -108q-69 -16 -151 -16q-200 0 -308 145.5t-52 407.5q55 258 229 419t400 161q114 0 210 -53.5
t133 -138.5zM996 621q14 117 -11 187q-46 130 -219 130q-124 0 -227 -89.5t-138 -227.5h595zM962 1445h187l-45 -208h-187zM632 1445h187l-45 -208h-187z" />
    <glyph glyph-name="igrave" unicode="&#xec;" horiz-adv-x="569" 
d="M415 1066h183l-226 -1066h-183zM787 1213h-137l-244 289h223z" />
    <glyph glyph-name="iacute" unicode="&#xed;" horiz-adv-x="569" 
d="M415 1066h183l-226 -1066h-183zM807 1502l-294 -289h-138l210 289h222z" />
    <glyph glyph-name="icircumflex" unicode="&#xee;" horiz-adv-x="569" 
d="M415 1066h183l-226 -1066h-183zM733 1502l158 -289h-164l-104 192l-166 -192h-163l249 289h190z" />
    <glyph glyph-name="idieresis" unicode="&#xef;" horiz-adv-x="569" 
d="M415 1066h183l-226 -1066h-183zM673 1445h187l-45 -208h-187zM343 1445h187l-45 -208h-187z" />
    <glyph glyph-name="eth" unicode="&#xf0;" 
d="M985 550q38 177 -14.5 286.5t-213.5 109.5q-130 0 -239.5 -107t-150.5 -299q-32 -153 -12 -246q37 -174 241 -174q123 0 234 111t155 319zM869 1063q42 -12 76 -37q-39 89 -81 146t-131 160l-185 -112l-65 67l189 116l-123 123l152 97q36 -33 63 -58.5t69 -69.5l173 105
l60 -67l-173 -107q183 -217 254 -400q84 -224 32 -470q-53 -248 -222.5 -420.5t-419.5 -172.5q-237 0 -327 158t-38 404q56 263 219.5 407t360.5 144q73 0 117 -13z" />
    <glyph glyph-name="ntilde" unicode="&#xf1;" 
d="M359 1071h171l-32 -152q96 94 189.5 135t197.5 41q228 0 274 -159q26 -87 -8 -249l-146 -687h-183l143 675q21 98 5 158q-27 100 -153 100q-64 0 -108 -13q-79 -22 -149 -88q-56 -53 -81.5 -109.5t-47.5 -161.5l-119 -561h-180zM955 1403q25 -12 47.5 -19t46.5 -7
q56 0 86 35q15 19 26 57h105q-40 -127 -107.5 -175t-138.5 -48q-22 0 -54 8t-57 18l-50 19q-43 17 -72 25.5t-57 8.5q-35 0 -61 -23t-42 -70h-98q25 79 64 129q70 92 182 92q34 0 74 -10t106 -40z" />
    <glyph glyph-name="ograve" unicode="&#xf2;" 
d="M986 553q32 150 4 244q-45 148 -231 148q-165 0 -266.5 -126t-139.5 -304q-36 -171 14.5 -285t213.5 -114q179 0 274.5 135.5t130.5 301.5zM1175 558q-55 -259 -217 -428t-427 -169q-221 0 -319 149.5t-45 401.5q58 270 229 430t402 160q207 0 320.5 -138t56.5 -406z
M1053 1213h-137l-244 289h223z" />
    <glyph glyph-name="oacute" unicode="&#xf3;" 
d="M986 553q32 150 4 244q-45 148 -231 148q-165 0 -266.5 -126t-139.5 -304q-36 -171 14.5 -285t213.5 -114q179 0 274.5 135.5t130.5 301.5zM1175 558q-55 -259 -217 -428t-427 -169q-221 0 -319 149.5t-45 401.5q58 270 229 430t402 160q207 0 320.5 -138t56.5 -406z
M1073 1502l-294 -289h-138l210 289h222z" />
    <glyph glyph-name="ocircumflex" unicode="&#xf4;" 
d="M986 553q32 150 4 244q-45 148 -231 148q-165 0 -266.5 -126t-139.5 -304q-36 -171 14.5 -285t213.5 -114q179 0 274.5 135.5t130.5 301.5zM1175 558q-55 -259 -217 -428t-427 -169q-221 0 -319 149.5t-45 401.5q58 270 229 430t402 160q207 0 320.5 -138t56.5 -406z
M1009 1502l158 -289h-164l-104 192l-166 -192h-163l249 289h190z" />
    <glyph glyph-name="otilde" unicode="&#xf5;" 
d="M986 553q32 150 4 244q-45 148 -231 148q-165 0 -266.5 -126t-139.5 -304q-36 -171 14.5 -285t213.5 -114q179 0 274.5 135.5t130.5 301.5zM1175 558q-55 -259 -217 -428t-427 -169q-221 0 -319 149.5t-45 401.5q58 270 229 430t402 160q207 0 320.5 -138t56.5 -406z
M918 1403q25 -12 47.5 -19t46.5 -7q56 0 86 35q15 19 26 57h105q-40 -127 -107.5 -175t-138.5 -48q-22 0 -54 8t-57 18l-50 19q-43 17 -72 25.5t-57 8.5q-35 0 -61 -23t-42 -70h-98q25 79 64 129q70 92 182 92q34 0 74 -10t106 -40z" />
    <glyph glyph-name="odieresis" unicode="&#xf6;" 
d="M986 553q32 150 4 244q-45 148 -231 148q-165 0 -266.5 -126t-139.5 -304q-36 -171 14.5 -285t213.5 -114q179 0 274.5 135.5t130.5 301.5zM1175 558q-55 -259 -217 -428t-427 -169q-221 0 -319 149.5t-45 401.5q58 270 229 430t402 160q207 0 320.5 -138t56.5 -406z
M949 1445h187l-45 -208h-187zM619 1445h187l-45 -208h-187z" />
    <glyph glyph-name="divide" unicode="&#xf7;" horiz-adv-x="1124" 
d="M513 21l47 220h211l-47 -220h-211zM1263 606l-35 -168h-1043l35 168h1043zM937 1024l-47 -221h-211l47 221h211z" />
    <glyph glyph-name="oslash" unicode="&#xf8;" horiz-adv-x="1251" 
d="M818 945q-145 0 -258 -121.5t-154 -312.5q-15 -72 -14 -138q1 -37 10 -94l623 564q-19 43 -75 72.5t-132 29.5zM634 116q189 0 306 178q71 107 100 246q19 90 18 155q0 35 -9 82l-616 -564q37 -57 89.5 -77t111.5 -20zM92 4l157 135q-34 74 -41.5 166t19.5 218
q48 227 212 403.5t406 176.5q126 0 211 -46q50 -27 109 -88l156 142l41 -50l-159 -144q44 -92 46 -211q0 -77 -16 -154q-55 -258 -229.5 -425.5t-405.5 -167.5q-110 0 -189 32.5t-120 88.5l-149 -128z" />
    <glyph glyph-name="ugrave" unicode="&#xf9;" 
d="M539 1071l-151 -711q-17 -82 -2 -134q27 -96 158 -96q188 0 292 168q56 90 89 247l112 526h180l-227 -1071h-170l35 158q-48 -61 -109 -103q-121 -84 -268 -84q-229 0 -279 153q-28 82 1 219l155 728h184zM1064 1213h-137l-244 289h223z" />
    <glyph glyph-name="uacute" unicode="&#xfa;" 
d="M539 1071l-151 -711q-17 -82 -2 -134q27 -96 158 -96q188 0 292 168q56 90 89 247l112 526h180l-227 -1071h-170l35 158q-48 -61 -109 -103q-121 -84 -268 -84q-229 0 -279 153q-28 82 1 219l155 728h184zM1074 1502l-294 -289h-138l210 289h222z" />
    <glyph glyph-name="ucircumflex" unicode="&#xfb;" 
d="M539 1071l-151 -711q-17 -82 -2 -134q27 -96 158 -96q188 0 292 168q56 90 89 247l112 526h180l-227 -1071h-170l35 158q-48 -61 -109 -103q-121 -84 -268 -84q-229 0 -279 153q-28 82 1 219l155 728h184zM1010 1502l158 -289h-164l-104 192l-166 -192h-163l249 289h190z
" />
    <glyph glyph-name="udieresis" unicode="&#xfc;" 
d="M539 1071l-151 -711q-17 -82 -2 -134q27 -96 158 -96q188 0 292 168q56 90 89 247l112 526h180l-227 -1071h-170l35 158q-48 -61 -109 -103q-121 -84 -268 -84q-229 0 -279 153q-28 82 1 219l155 728h184zM950 1445h187l-45 -208h-187zM620 1445h187l-45 -208h-187z" />
    <glyph glyph-name="yacute" unicode="&#xfd;" horiz-adv-x="1024" 
d="M1028 1071h199q-60 -103 -269 -470q-156 -276 -259 -450q-244 -410 -327 -500t-239 -90q-38 0 -58 3t-48 11l35 164q44 -13 64.5 -16t36.5 -3q50 0 77 16.5t48 40.5q7 8 53.5 82t68.5 110l-162 1102h204l102 -872zM1060 1507l-294 -289h-138l210 289h222z" />
    <glyph glyph-name="thorn" unicode="&#xfe;" 
d="M989 522q29 134 12 225q-32 175 -217 175q-113 0 -221.5 -92.5t-150.5 -289.5q-36 -171 -18 -262q30 -167 219 -167q133 0 234 108.5t142 302.5zM622 1021q103 62 230 62q209 0 294 -150.5t33 -391.5q-64 -302 -232 -444.5t-357 -142.5q-131 0 -202 62q-39 34 -62 93
l-116 -546h-175l402 1892h170l-116 -545q73 76 131 111z" />
    <glyph glyph-name="ydieresis" unicode="&#xff;" horiz-adv-x="1024" 
d="M1028 1071h199q-60 -103 -269 -470q-156 -276 -259 -450q-244 -410 -327 -500t-239 -90q-38 0 -58 3t-48 11l35 164q44 -13 64.5 -16t36.5 -3q50 0 77 16.5t48 40.5q7 8 53.5 82t68.5 110l-162 1102h204l102 -872zM902 1445h187l-45 -208h-187zM572 1445h187l-45 -208
h-187z" />
    <glyph glyph-name="Amacron" unicode="&#x100;" horiz-adv-x="1366" 
d="M1037 602l-85 649l-375 -649h460zM895 1469h225l221 -1469h-218l-56 440h-581l-252 -440h-204zM737 1689h640l-23 -118h-640z" />
    <glyph glyph-name="amacron" unicode="&#x101;" 
d="M486 117q95 0 194 44q165 73 201 239l30 145q-37 -21 -92 -35t-106 -20l-112 -14q-101 -13 -156 -41q-93 -47 -115 -150q-17 -78 30.5 -123t125.5 -45zM843 649q64 8 95 52q17 24 26 69q20 92 -37 133.5t-179 41.5q-141 0 -216 -76q-42 -42 -69 -125h-168
q47 198 187 275.5t303 77.5q189 0 291 -72t70 -224l-131 -617q-6 -28 1.5 -45t44.5 -17q12 0 27.5 1.5t33.5 4.5l-29 -133q-44 -12 -66.5 -15t-60.5 -3q-93 0 -121 66q-15 35 -10 99q-71 -72 -185 -125t-238 -53q-149 0 -224.5 90.5t-46.5 226.5q32 149 142.5 231t265.5 101
zM573 1328h640l-23 -118h-640z" />
    <glyph glyph-name="Abreve" unicode="&#x102;" horiz-adv-x="1366" 
d="M898 1876q2 -65 26 -98q44 -59 162 -59q109 0 175 59q39 34 68 98h99q-51 -147 -148.5 -212t-239.5 -65q-177 0 -228 119q-27 62 -16 158h102zM1037 602l-85 649l-375 -649h460zM895 1469h225l221 -1469h-218l-56 440h-581l-252 -440h-204z" />
    <glyph glyph-name="abreve" unicode="&#x103;" 
d="M663 1504q2 -65 26 -98q44 -59 162 -59q109 0 175 59q39 34 68 98h99q-51 -147 -148.5 -212t-239.5 -65q-177 0 -228 119q-27 62 -16 158h102zM486 117q95 0 194 44q165 73 201 239l30 145q-37 -21 -92 -35t-106 -20l-112 -14q-101 -13 -156 -41q-93 -47 -115 -150
q-17 -78 30.5 -123t125.5 -45zM843 649q64 8 95 52q17 24 26 69q20 92 -37 133.5t-179 41.5q-141 0 -216 -76q-42 -42 -69 -125h-168q47 198 187 275.5t303 77.5q189 0 291 -72t70 -224l-131 -617q-6 -28 1.5 -45t44.5 -17q12 0 27.5 1.5t33.5 4.5l-29 -133
q-44 -12 -66.5 -15t-60.5 -3q-93 0 -121 66q-15 35 -10 99q-71 -72 -185 -125t-238 -53q-149 0 -224.5 90.5t-46.5 226.5q32 149 142.5 231t265.5 101z" />
    <glyph glyph-name="Aogonek" unicode="&#x104;" horiz-adv-x="1366" 
d="M1037 602l-85 649l-375 -649h460zM895 1469h225l221 -1469h-218l-56 440h-581l-252 -440h-204zM1305 0l-73 -48q-90 -60 -120.5 -91.5t-40.5 -70.5q-11 -37 8 -64t70 -27q27 0 45.5 5t40.5 16l-37 -131q-38 -14 -65 -21q-54 -13 -106 -13q-96 0 -130.5 56t-14.5 126
q22 81 99 146q61 52 177 117h147z" />
    <glyph glyph-name="aogonek" unicode="&#x105;" 
d="M486 117q95 0 194 44q165 73 201 239l30 145q-37 -21 -92 -35t-106 -20l-112 -14q-101 -13 -156 -41q-93 -47 -115 -150q-17 -78 30.5 -123t125.5 -45zM843 649q64 8 95 52q17 24 26 69q20 92 -37 133.5t-179 41.5q-141 0 -216 -76q-42 -42 -69 -125h-168
q47 198 187 275.5t303 77.5q189 0 291 -72t70 -224l-131 -617q-6 -28 1.5 -45t44.5 -17q12 0 27.5 1.5t33.5 4.5l-29 -133q-44 -12 -66.5 -15t-60.5 -3q-93 0 -121 66q-15 35 -10 99q-71 -72 -185 -125t-238 -53q-149 0 -224.5 90.5t-46.5 226.5q32 149 142.5 231t265.5 101
zM1064 -1l-73 -48q-90 -60 -120.5 -91.5t-40.5 -70.5q-11 -37 8 -64t70 -27q27 0 45.5 5t40.5 16l-37 -131q-38 -14 -65 -21q-54 -13 -106 -13q-96 0 -130.5 56t-14.5 126q22 81 99 146q61 52 177 117h147z" />
    <glyph glyph-name="Cacute" unicode="&#x106;" horiz-adv-x="1479" 
d="M1597 1028h-194q-3 142 -84 225t-259 83q-217 0 -382.5 -152.5t-232.5 -467.5q-55 -258 31.5 -418.5t325.5 -160.5q220 0 371 169q79 89 140 234h194q-75 -232 -254 -389q-216 -189 -513 -189q-256 0 -397 155q-185 205 -94 633q69 325 285 533q234 226 561 226
q279 0 402 -147t100 -334zM1415 1914l-294 -289h-138l210 289h222z" />
    <glyph glyph-name="cacute" unicode="&#x107;" horiz-adv-x="1024" 
d="M1127 711h-175q5 99 -38 164.5t-169 65.5q-172 0 -282 -168q-71 -109 -105 -269q-35 -161 10 -271t191 -110q112 0 192 68.5t130 187.5h175q-75 -213 -216 -311.5t-328 -98.5q-210 0 -302.5 153.5t-43.5 383.5q60 282 230.5 439t382.5 157q181 0 275.5 -88t72.5 -303z
M1182 1507l-294 -289h-138l210 289h222z" />
    <glyph glyph-name="Ccircumflex" unicode="&#x108;" horiz-adv-x="1479" 
d="M1597 1028h-194q-3 142 -84 225t-259 83q-217 0 -382.5 -152.5t-232.5 -467.5q-55 -258 31.5 -418.5t325.5 -160.5q220 0 371 169q79 89 140 234h194q-75 -232 -254 -389q-216 -189 -513 -189q-256 0 -397 155q-185 205 -94 633q69 325 285 533q234 226 561 226
q279 0 402 -147t100 -334zM1303 1907l158 -289h-164l-104 192l-166 -192h-163l249 289h190z" />
    <glyph glyph-name="ccircumflex" unicode="&#x109;" horiz-adv-x="1024" 
d="M1127 711h-175q5 99 -38 164.5t-169 65.5q-172 0 -282 -168q-71 -109 -105 -269q-35 -161 10 -271t191 -110q112 0 192 68.5t130 187.5h175q-75 -213 -216 -311.5t-328 -98.5q-210 0 -302.5 153.5t-43.5 383.5q60 282 230.5 439t382.5 157q181 0 275.5 -88t72.5 -303z
M1006 1489l158 -289h-164l-104 192l-166 -192h-163l249 289h190z" />
    <glyph glyph-name="Cdotaccent" unicode="&#x10a;" horiz-adv-x="1479" 
d="M1597 1028h-194q-3 142 -84 225t-259 83q-217 0 -382.5 -152.5t-232.5 -467.5q-55 -258 31.5 -418.5t325.5 -160.5q220 0 371 169q79 89 140 234h194q-75 -232 -254 -389q-216 -189 -513 -189q-256 0 -397 155q-185 205 -94 633q69 325 285 533q234 226 561 226
q279 0 402 -147t100 -334zM1085 1881h187l-45 -208h-187z" />
    <glyph glyph-name="cdotaccent" unicode="&#x10b;" horiz-adv-x="1024" 
d="M1127 711h-175q5 99 -38 164.5t-169 65.5q-172 0 -282 -168q-71 -109 -105 -269q-35 -161 10 -271t191 -110q112 0 192 68.5t130 187.5h175q-75 -213 -216 -311.5t-328 -98.5q-210 0 -302.5 153.5t-43.5 383.5q60 282 230.5 439t382.5 157q181 0 275.5 -88t72.5 -303z
M772 1459h187l-45 -208h-187z" />
    <glyph glyph-name="Ccaron" unicode="&#x10c;" horiz-adv-x="1479" 
d="M1597 1028h-194q-3 142 -84 225t-259 83q-217 0 -382.5 -152.5t-232.5 -467.5q-55 -258 31.5 -418.5t325.5 -160.5q220 0 371 169q79 89 140 234h194q-75 -232 -254 -389q-216 -189 -513 -189q-256 0 -397 155q-185 205 -94 633q69 325 285 533q234 226 561 226
q279 0 402 -147t100 -334zM1222 1625h-190l-168 289h163l112 -192l158 192h164z" />
    <glyph glyph-name="ccaron" unicode="&#x10d;" horiz-adv-x="1024" 
d="M1127 711h-175q5 99 -38 164.5t-169 65.5q-172 0 -282 -168q-71 -109 -105 -269q-35 -161 10 -271t191 -110q112 0 192 68.5t130 187.5h175q-75 -213 -216 -311.5t-328 -98.5q-210 0 -302.5 153.5t-43.5 383.5q60 282 230.5 439t382.5 157q181 0 275.5 -88t72.5 -303z
M917 1218h-190l-168 289h163l112 -192l158 192h164z" />
    <glyph glyph-name="Dcaron" unicode="&#x10e;" horiz-adv-x="1479" 
d="M756 170q101 0 170 21q124 39 222 150q78 89 133 228q33 83 48 154q58 273 -18.5 424t-317.5 151h-353l-239 -1128h355zM477 1469h595q303 0 424 -215q108 -194 43 -497q-49 -234 -178 -423q-225 -334 -603 -334h-593zM1112 1552h-190l-168 289h163l112 -192l158 192h164
z" />
    <glyph glyph-name="dcaron" unicode="&#x10f;" horiz-adv-x="1352" 
d="M1395 1359q72 12 118 97q24 45 33 87q2 7 2.5 12.5t0.5 12.5h-109l46 218h214l-43 -202q-25 -119 -92.5 -209t-189.5 -111zM578 119q125 0 228 107.5t146 308.5q43 203 -19 300.5t-184 97.5q-136 0 -242.5 -104t-149.5 -306q-37 -172 11.5 -288t209.5 -116zM943 1038
q42 -30 87 -105l115 541h173l-313 -1474h-162l31 149q-84 -99 -179.5 -143t-206.5 -44q-179 0 -278 150.5t-45 400.5q49 234 205 405.5t378 171.5q123 0 195 -52z" />
    <glyph glyph-name="Dcroat" unicode="&#x110;" horiz-adv-x="1479" 
d="M216 865h132l129 604h562q365 0 477 -251q82 -183 24 -459q-52 -244 -186 -436q-224 -323 -596 -323h-593l146 687h-132zM548 865h419l-37 -178h-419l-110 -517h355q101 0 170 21q124 39 222 150q78 89 133 228q33 83 48 154q58 273 -18.5 424t-317.5 151h-353z" />
    <glyph glyph-name="dcroat" unicode="&#x111;" 
d="M578 119q125 0 228 107.5t146 308.5q43 203 -19 300.5t-184 97.5q-136 0 -242.5 -104t-149.5 -306q-37 -172 11.5 -288t209.5 -116zM943 1038q42 -30 87 -105l59 278h-334l25 118h334l31 145h173l-31 -145h133l-25 -118h-133l-257 -1211h-162l31 149q-84 -99 -179.5 -143
t-206.5 -44q-179 0 -278 150.5t-45 400.5q49 234 205 405.5t378 171.5q123 0 195 -52z" />
    <glyph glyph-name="Emacron" unicode="&#x112;" horiz-adv-x="1366" 
d="M487 1469h1071l-39 -180h-877l-94 -446h811l-36 -170h-811l-106 -498h892l-37 -175h-1086zM780 1689h640l-23 -118h-640z" />
    <glyph glyph-name="emacron" unicode="&#x113;" 
d="M1153 903q37 -81 32 -189q1 -74 -34 -236h-785q-30 -163 21.5 -261.5t202.5 -98.5q141 0 244 93q60 54 95 125h177q-20 -59 -74.5 -131.5t-113.5 -118.5q-99 -80 -226 -108q-69 -16 -151 -16q-200 0 -308 145.5t-52 407.5q55 258 229 419t400 161q114 0 210 -53.5
t133 -138.5zM996 621q14 117 -11 187q-46 130 -219 130q-124 0 -227 -89.5t-138 -227.5h595zM546 1328h640l-23 -118h-640z" />
    <glyph glyph-name="Ebreve" unicode="&#x114;" horiz-adv-x="1366" 
d="M834 1846q2 -65 26 -98q44 -59 162 -59q109 0 175 59q38 34 68 98h99q-51 -147 -148.5 -212t-239.5 -65q-177 0 -229 119q-27 62 -15 158h102zM487 1469h1071l-39 -180h-877l-94 -446h811l-36 -170h-811l-106 -498h892l-37 -175h-1086z" />
    <glyph glyph-name="ebreve" unicode="&#x115;" 
d="M686 1474q2 -65 26 -98q43 -59 161 -59q109 0 176 59q38 34 68 98h99q-51 -147 -148.5 -212t-239.5 -65q-177 0 -229 119q-27 62 -15 158h102zM1153 903q37 -81 32 -189q1 -74 -34 -236h-785q-30 -163 21.5 -261.5t202.5 -98.5q141 0 244 93q60 54 95 125h177
q-20 -59 -74.5 -131.5t-113.5 -118.5q-99 -80 -226 -108q-69 -16 -151 -16q-200 0 -308 145.5t-52 407.5q55 258 229 419t400 161q114 0 210 -53.5t133 -138.5zM996 621q14 117 -11 187q-46 130 -219 130q-124 0 -227 -89.5t-138 -227.5h595z" />
    <glyph glyph-name="Edotaccent" unicode="&#x116;" horiz-adv-x="1366" 
d="M487 1469h1071l-39 -180h-877l-94 -446h811l-36 -170h-811l-106 -498h892l-37 -175h-1086zM1036 1823h187l-45 -208h-187z" />
    <glyph glyph-name="edotaccent" unicode="&#x117;" 
d="M1153 903q37 -81 32 -189q1 -74 -34 -236h-785q-30 -163 21.5 -261.5t202.5 -98.5q141 0 244 93q60 54 95 125h177q-20 -59 -74.5 -131.5t-113.5 -118.5q-99 -80 -226 -108q-69 -16 -151 -16q-200 0 -308 145.5t-52 407.5q55 258 229 419t400 161q114 0 210 -53.5
t133 -138.5zM996 621q14 117 -11 187q-46 130 -219 130q-124 0 -227 -89.5t-138 -227.5h595zM792 1416h187l-45 -208h-187z" />
    <glyph glyph-name="Eogonek" unicode="&#x118;" horiz-adv-x="1366" 
d="M487 1469h1071l-39 -180h-877l-94 -446h811l-36 -170h-811l-106 -498h892l-37 -175h-1086zM1010 0l-73 -48q-90 -60 -120.5 -91.5t-40.5 -70.5q-11 -37 8 -64t70 -27q27 0 45.5 5t40.5 16l-37 -131q-38 -14 -65 -21q-54 -13 -106 -13q-96 0 -130.5 56t-14.5 126
q22 81 99 146q61 52 177 117h147z" />
    <glyph glyph-name="eogonek" unicode="&#x119;" 
d="M1153 903q37 -81 32 -189q1 -74 -34 -236h-785q-30 -163 21.5 -261.5t202.5 -98.5q141 0 244 93q60 54 95 125h177q-20 -59 -74.5 -131.5t-113.5 -118.5q-99 -80 -226 -108q-69 -16 -151 -16q-200 0 -308 145.5t-52 407.5q55 258 229 419t400 161q114 0 210 -53.5
t133 -138.5zM996 621q14 117 -11 187q-46 130 -219 130q-124 0 -227 -89.5t-138 -227.5h595zM692 -13l-73 -48q-90 -60 -120.5 -91.5t-40.5 -70.5q-11 -37 8 -64t70 -27q27 0 45.5 5t40.5 16l-37 -131q-38 -14 -65 -21q-54 -13 -106 -13q-96 0 -130.5 56t-14.5 126
q22 81 99 146q61 52 177 117h147z" />
    <glyph glyph-name="Ecaron" unicode="&#x11a;" horiz-adv-x="1366" 
d="M487 1469h1071l-39 -180h-877l-94 -446h811l-36 -170h-811l-106 -498h892l-37 -175h-1086zM1163 1558h-190l-168 289h163l112 -192l158 192h164z" />
    <glyph glyph-name="ecaron" unicode="&#x11b;" 
d="M1153 903q37 -81 32 -189q1 -74 -34 -236h-785q-30 -163 21.5 -261.5t202.5 -98.5q141 0 244 93q60 54 95 125h177q-20 -59 -74.5 -131.5t-113.5 -118.5q-99 -80 -226 -108q-69 -16 -151 -16q-200 0 -308 145.5t-52 407.5q55 258 229 419t400 161q114 0 210 -53.5
t133 -138.5zM996 621q14 117 -11 187q-46 130 -219 130q-124 0 -227 -89.5t-138 -227.5h595zM943 1185h-190l-168 289h163l112 -192l158 192h164z" />
    <glyph glyph-name="Gcircumflex" unicode="&#x11c;" horiz-adv-x="1593" 
d="M1452 1427q194 -115 182 -403h-197q-2 161 -99 234.5t-269 73.5q-204 0 -376 -153t-237 -456q-56 -262 24.5 -426.5t340.5 -164.5q199 0 354 115.5t212 373.5h-460l36 165h645l-167 -786h-128l-8 189q-125 -111 -212 -154q-147 -74 -349 -74q-261 0 -413 169
q-160 212 -81 582q78 369 325 587q234 208 536 208q207 0 341 -80zM1339 1893l158 -289h-164l-104 192l-166 -192h-163l249 289h190z" />
    <glyph glyph-name="gcircumflex" unicode="&#x11d;" 
d="M948 1028q44 -35 82 -102l29 135h166l-207 -974q-43 -204 -128 -322q-159 -218 -470 -218q-173 0 -274.5 77.5t-80.5 242.5h183q-2 -72 29 -111q48 -60 179 -60q207 0 302 146q56 86 100 307q-71 -82 -155.5 -122t-209.5 -40q-174 0 -278.5 123.5t-43.5 408.5
q57 269 220.5 420t349.5 151q126 0 207 -62zM740 931q-190 0 -297 -178q-58 -95 -90 -249q-39 -181 14.5 -275.5t177.5 -94.5q194 0 310 175q65 99 93 231q43 199 -19 295t-189 96zM1014 1463l158 -289h-164l-104 192l-166 -192h-163l249 289h190z" />
    <glyph glyph-name="Gbreve" unicode="&#x11e;" horiz-adv-x="1593" 
d="M993 1912q2 -65 26 -98q44 -59 162 -59q109 0 175 59q38 34 68 98h99q-51 -147 -148.5 -212t-239.5 -65q-177 0 -229 119q-26 62 -15 158h102zM1452 1427q194 -115 182 -403h-197q-2 161 -99 234.5t-269 73.5q-204 0 -376 -153t-237 -456q-56 -262 24.5 -426.5
t340.5 -164.5q199 0 354 115.5t212 373.5h-460l36 165h645l-167 -786h-128l-8 189q-125 -111 -212 -154q-147 -74 -349 -74q-261 0 -413 169q-160 212 -81 582q78 369 325 587q234 208 536 208q207 0 341 -80z" />
    <glyph glyph-name="gbreve" unicode="&#x11f;" 
d="M638 1500q3 -65 27 -98q43 -59 161 -59q109 0 176 59q38 34 67 98h99q-51 -147 -148.5 -212t-239.5 -65q-177 0 -228 119q-27 62 -16 158h102zM948 1028q44 -35 82 -102l29 135h166l-207 -974q-43 -204 -128 -322q-159 -218 -470 -218q-173 0 -274.5 77.5t-80.5 242.5
h183q-2 -72 29 -111q48 -60 179 -60q207 0 302 146q56 86 100 307q-71 -82 -155.5 -122t-209.5 -40q-174 0 -278.5 123.5t-43.5 408.5q57 269 220.5 420t349.5 151q126 0 207 -62zM740 931q-190 0 -297 -178q-58 -95 -90 -249q-39 -181 14.5 -275.5t177.5 -94.5
q194 0 310 175q65 99 93 231q43 199 -19 295t-189 96z" />
    <glyph glyph-name="Gdotaccent" unicode="&#x120;" horiz-adv-x="1593" 
d="M1452 1427q194 -115 182 -403h-197q-2 161 -99 234.5t-269 73.5q-204 0 -376 -153t-237 -456q-56 -262 24.5 -426.5t340.5 -164.5q199 0 354 115.5t212 373.5h-460l36 165h645l-167 -786h-128l-8 189q-125 -111 -212 -154q-147 -74 -349 -74q-261 0 -413 169
q-160 212 -81 582q78 369 325 587q234 208 536 208q207 0 341 -80zM1148 1857h187l-45 -208h-187z" />
    <glyph glyph-name="gdotaccent" unicode="&#x121;" 
d="M948 1028q44 -35 82 -102l29 135h166l-207 -974q-43 -204 -128 -322q-159 -218 -470 -218q-173 0 -274.5 77.5t-80.5 242.5h183q-2 -72 29 -111q48 -60 179 -60q207 0 302 146q56 86 100 307q-71 -82 -155.5 -122t-209.5 -40q-174 0 -278.5 123.5t-43.5 408.5
q57 269 220.5 420t349.5 151q126 0 207 -62zM740 931q-190 0 -297 -178q-58 -95 -90 -249q-39 -181 14.5 -275.5t177.5 -94.5q194 0 310 175q65 99 93 231q43 199 -19 295t-189 96zM831 1444h187l-45 -208h-187z" />
    <glyph glyph-name="Gcommaaccent" unicode="&#x122;" horiz-adv-x="1593" 
d="M1452 1427q194 -115 182 -403h-197q-2 161 -99 234.5t-269 73.5q-204 0 -376 -153t-237 -456q-56 -262 24.5 -426.5t340.5 -164.5q199 0 354 115.5t212 373.5h-460l36 165h645l-167 -786h-128l-8 189q-125 -111 -212 -154q-147 -74 -349 -74q-261 0 -413 169
q-160 212 -81 582q78 369 325 587q234 208 536 208q207 0 341 -80zM564 -589q72 12 118 97q24 45 33 87q2 7 2.5 12.5t0.5 12.5h-109l46 218h214l-43 -202q-25 -119 -92.5 -209t-189.5 -111z" />
    <glyph glyph-name="gcommaaccent" unicode="&#x123;" 
d="M948 1028q44 -35 82 -102l29 135h166l-207 -974q-43 -204 -128 -322q-159 -218 -470 -218q-173 0 -274.5 77.5t-80.5 242.5h183q-2 -72 29 -111q48 -60 179 -60q207 0 302 146q56 86 100 307q-71 -82 -155.5 -122t-209.5 -40q-174 0 -278.5 123.5t-43.5 408.5
q57 269 220.5 420t349.5 151q126 0 207 -62zM740 931q-190 0 -297 -178q-58 -95 -90 -249q-39 -181 14.5 -275.5t177.5 -94.5q194 0 310 175q65 99 93 231q43 199 -19 295t-189 96zM1019 1672q-72 -12 -118 -97q-24 -45 -33 -87q-2 -7 -2.5 -12.5t-0.5 -12.5h109l-46 -218
h-214l43 202q25 119 92.5 209t189.5 111z" />
    <glyph glyph-name="Hcircumflex" unicode="&#x124;" horiz-adv-x="1479" 
d="M473 1469h201l-129 -607h764l129 607h201l-312 -1469h-201l146 687h-764l-146 -687h-201zM1266 1821l158 -289h-164l-104 192l-166 -192h-163l249 289h190z" />
    <glyph glyph-name="hcircumflex" unicode="&#x125;" 
d="M445 1474h180l-117 -548q82 81 140 114q99 57 229 57q233 0 281 -163q26 -89 -7 -247l-146 -687h-185l143 675q25 118 7 173q-31 88 -166 88q-112 0 -219 -77t-153 -291l-120 -568h-180zM1160 1842l158 -289h-164l-104 192l-166 -192h-163l249 289h190z" />
    <glyph glyph-name="Hbar" unicode="&#x126;" horiz-adv-x="1479" 
d="M334 1248h92l47 221h201l-47 -221h764l47 221h201l-47 -221h89l-32 -147h-88l-234 -1101h-201l146 687h-764l-146 -687h-201l234 1101h-93zM1309 862l51 239h-764l-51 -239h764z" />
    <glyph glyph-name="hbar" unicode="&#x127;" 
d="M445 1474h180l-117 -548q82 81 140 114q99 57 229 57q233 0 281 -163q26 -89 -7 -247l-146 -687h-185l143 675q25 118 7 173q-31 88 -166 88q-112 0 -219 -77t-153 -291l-120 -568h-180zM367 1312h640l-23 -118h-640z" />
    <glyph glyph-name="Itilde" unicode="&#x128;" horiz-adv-x="911" 
d="M658 1474h201l-312 -1469h-201zM888 1807q25 -12 46.5 -19t45.5 -7q56 0 88 35q17 19 30 57h105q-48 -127 -118 -175t-141 -48q-22 0 -54 8t-56 18l-49 19q-44 17 -71.5 25.5t-55.5 8.5q-35 0 -62.5 -23t-45.5 -70h-98q30 79 71 129q76 92 188 92q34 0 73.5 -10
t103.5 -40z" />
    <glyph glyph-name="itilde" unicode="&#x129;" horiz-adv-x="881" 
d="M535 1072h183l-226 -1066h-183zM782 1505q25 -12 47.5 -19t46.5 -7q56 0 86 35q15 19 26 57h105q-40 -127 -107.5 -175t-138.5 -48q-22 0 -54 8t-57 18l-50 19q-43 17 -72 25.5t-57 8.5q-35 0 -61 -23t-42 -70h-98q25 79 64 129q70 92 182 92q34 0 74 -10t106 -40z" />
    <glyph glyph-name="Imacron" unicode="&#x12a;" horiz-adv-x="819" 
d="M625 1469h201l-312 -1469h-201zM448 1689h640l-26 -118h-640z" />
    <glyph glyph-name="imacron" unicode="&#x12b;" horiz-adv-x="799" 
d="M540 1066h183l-226 -1066h-183zM346 1323h640l-23 -118h-640z" />
    <glyph glyph-name="Ibreve" unicode="&#x12c;" horiz-adv-x="569" 
d="M513 1469h201l-312 -1469h-201zM453 1898q13 -65 41 -98q52 -59 170 -59q109 0 167 59q33 34 53 98h99q-30 -147 -118.5 -212t-230.5 -65q-177 0 -244 119q-36 62 -39 158h102z" />
    <glyph glyph-name="ibreve" unicode="&#x12d;" horiz-adv-x="569" 
d="M415 1066h183l-226 -1066h-183zM369 1500q13 -65 41 -98q52 -59 170 -59q109 0 167 59q33 34 53 98h99q-30 -147 -118.5 -212t-230.5 -65q-177 0 -244 119q-36 62 -39 158h102z" />
    <glyph glyph-name="Iogonek" unicode="&#x12e;" horiz-adv-x="569" 
d="M500 1469h201l-312 -1469h-201zM376 9l-69 -48q-86 -60 -113.5 -91.5t-35.5 -70.5q-8 -37 13 -64t72 -27q27 0 45 5t40 16l-28 -131q-36 -14 -63 -21q-53 -13 -105 -13q-96 0 -135 56t-24 126q16 81 88 146q57 52 168 117h147z" />
    <glyph glyph-name="iogonek" unicode="&#x12f;" horiz-adv-x="455" 
d="M358 1066h183l-226 -1066h-183zM444 1469h183l-44 -204h-183zM289 10l-73 -48q-90 -60 -120.5 -91.5t-40.5 -70.5q-11 -37 8 -64t70 -27q27 0 45.5 5t40.5 16l-37 -131q-38 -14 -65 -21q-54 -13 -106 -13q-96 0 -130.5 56t-14.5 126q22 81 99 146q61 52 177 117h147z" />
    <glyph glyph-name="Idotaccent" unicode="&#x130;" horiz-adv-x="569" 
d="M513 1469h201l-312 -1469h-201zM590 1814h187l-44 -208h-187z" />
    <glyph glyph-name="dotlessi" unicode="&#x131;" horiz-adv-x="569" 
d="M415 1066h183l-226 -1066h-183z" />
    <glyph glyph-name="IJ" unicode="&#x132;" horiz-adv-x="1593" 
d="M513 1469h201l-312 -1469h-201zM1539 438q-40 -186 -117 -289q-142 -188 -428 -188q-165 0 -263 89.5t-49 318.5l22 105h187l-22 -105q-26 -120 15 -180.5t154 -60.5q159 0 231 109q44 67 84 253l208 979h197z" />
    <glyph glyph-name="ij" unicode="&#x133;" horiz-adv-x="910" 
d="M358 1066h183l-226 -1066h-183zM444 1469h183l-44 -204h-183zM1035 1261h-180l44 208h180zM360 -271q121 4 149 21.5t48 109.5l256 1206h180l-260 -1225q-25 -117 -75 -175q-84 -98 -259 -98q-13 0 -27.5 1t-44.5 4z" />
    <glyph glyph-name="Jcircumflex" unicode="&#x134;" horiz-adv-x="1024" 
d="M970 438q-40 -186 -117 -289q-142 -188 -428 -188q-165 0 -263 89.5t-49 318.5l22 105h187l-22 -105q-26 -120 15 -180.5t154 -60.5q159 0 231 109q44 67 84 253l208 979h197zM1252 1826l158 -289h-164l-104 192l-166 -192h-163l249 289h190z" />
    <glyph glyph-name="jcircumflex" unicode="&#x135;" horiz-adv-x="455" 
d="M-95 -271q121 4 149 21.5t48 109.5l256 1206h180l-260 -1225q-25 -117 -75 -175q-84 -98 -259 -98q-13 0 -27.5 1t-44.5 4zM638 1491l158 -289h-164l-104 192l-166 -192h-163l249 289h190z" />
    <glyph glyph-name="Kcommaaccent" unicode="&#x136;" horiz-adv-x="1366" 
d="M468 1469h194l-152 -716l868 716h275l-737 -592l442 -877h-259l-358 737l-283 -225l-108 -512h-194zM409 -519q72 12 118 97q24 45 33 87q2 7 2.5 12.5t0.5 12.5h-109l46 218h214l-43 -202q-25 -119 -92.5 -209t-189.5 -111z" />
    <glyph glyph-name="kcommaaccent" unicode="&#x137;" horiz-adv-x="1024" 
d="M440 1469h173l-182 -853l559 455h230l-495 -401l291 -670h-230l-220 540l-180 -138l-85 -402h-173zM306 -529q72 12 118 97q24 45 33 87q2 7 2.5 12.5t0.5 12.5h-109l46 218h214l-43 -202q-25 -119 -92.5 -209t-189.5 -111z" />
    <glyph glyph-name="kgreenlandic" unicode="&#x138;" horiz-adv-x="1024" 
d="M355 1071h173l-97 -455l559 455h230l-495 -401l291 -670h-230l-220 540l-180 -138l-85 -402h-173z" />
    <glyph glyph-name="Lacute" unicode="&#x139;" 
d="M468 1469h199l-275 -1294h744l-37 -175h-943zM983 1831l-294 -289h-138l210 289h222z" />
    <glyph glyph-name="lacute" unicode="&#x13a;" horiz-adv-x="543" 
d="M449 1469h180l-312 -1469h-180zM945 1820l-294 -289h-138l210 289h222z" />
    <glyph glyph-name="Lcommaaccent" unicode="&#x13b;" 
d="M468 1469h199l-275 -1294h744l-37 -175h-943zM404 -539q72 12 118 97q24 45 33 87q2 7 2.5 12.5t0.5 12.5h-109l46 218h214l-43 -202q-25 -119 -92.5 -209t-189.5 -111z" />
    <glyph glyph-name="lcommaaccent" unicode="&#x13c;" horiz-adv-x="455" 
d="M449 1469h180l-312 -1469h-180zM26 -539q72 12 118 97q24 45 33 87q2 7 2.5 12.5t0.5 12.5h-109l46 218h214l-43 -202q-25 -119 -92.5 -209t-189.5 -111z" />
    <glyph glyph-name="Lcaron" unicode="&#x13d;" 
d="M1105 1042q72 12 118 97q24 45 33 87q2 7 2.5 12.5t0.5 12.5h-109l46 218h214l-43 -202q-25 -119 -92.5 -209t-189.5 -111zM468 1469h199l-275 -1294h744l-37 -175h-943z" />
    <glyph glyph-name="lcaron" unicode="&#x13e;" horiz-adv-x="575" 
d="M619 1042q72 12 118 97q24 45 33 87q2 7 2.5 12.5t0.5 12.5h-109l46 218h214l-43 -202q-25 -119 -92.5 -209t-189.5 -111zM390 1469h180l-312 -1469h-180z" />
    <glyph glyph-name="Ldotaccent" unicode="&#x13f;" 
d="M468 1469h199l-275 -1294h744l-37 -175h-943zM791 886h187l-45 -208h-187z" />
    <glyph glyph-name="ldotaccent" unicode="&#x140;" horiz-adv-x="635" 
d="M449 1469h180l-312 -1469h-180zM638 919h187l-45 -208h-187z" />
    <glyph glyph-name="Lslash" unicode="&#x141;" 
d="M79 485l32 152l204 112l153 720h199l-128 -602l364 197l-34 -157l-363 -196l-114 -536h744l-37 -175h-943l126 594z" />
    <glyph glyph-name="lslash" unicode="&#x142;" horiz-adv-x="455" 
d="M317 0h-180l130 613l-201 -106l29 135l202 111l152 716h180l-129 -604l202 109l-29 -135l-201 -109z" />
    <glyph glyph-name="Nacute" unicode="&#x143;" horiz-adv-x="1479" 
d="M468 1469h235l489 -1190l253 1190h189l-312 -1469h-223l-501 1189l-252 -1189h-190zM1448 1811l-294 -289h-138l210 289h222z" />
    <glyph glyph-name="nacute" unicode="&#x144;" 
d="M359 1071h171l-32 -152q96 94 189.5 135t197.5 41q228 0 274 -159q26 -87 -8 -249l-146 -687h-183l143 675q21 98 5 158q-27 100 -153 100q-64 0 -108 -13q-79 -22 -149 -88q-56 -53 -81.5 -109.5t-47.5 -161.5l-119 -561h-180zM1252 1485l-294 -289h-138l210 289h222z
" />
    <glyph glyph-name="Ncommaaccent" unicode="&#x145;" horiz-adv-x="1479" 
d="M468 1469h235l489 -1190l253 1190h189l-312 -1469h-223l-501 1189l-252 -1189h-190zM529 -554q72 12 118 97q24 45 33 87q2 7 2.5 12.5t0.5 12.5h-109l46 218h214l-43 -202q-25 -119 -92.5 -209t-189.5 -111z" />
    <glyph glyph-name="ncommaaccent" unicode="&#x146;" 
d="M359 1071h171l-32 -152q96 94 189.5 135t197.5 41q228 0 274 -159q26 -87 -8 -249l-146 -687h-183l143 675q21 98 5 158q-27 100 -153 100q-64 0 -108 -13q-79 -22 -149 -88q-56 -53 -81.5 -109.5t-47.5 -161.5l-119 -561h-180zM360 -529q72 12 118 97q24 45 33 87
q2 7 2.5 12.5t0.5 12.5h-109l46 218h214l-43 -202q-25 -119 -92.5 -209t-189.5 -111z" />
    <glyph glyph-name="Ncaron" unicode="&#x147;" horiz-adv-x="1479" 
d="M468 1469h235l489 -1190l253 1190h189l-312 -1469h-223l-501 1189l-252 -1189h-190zM1184 1538h-190l-168 289h163l112 -192l158 192h164z" />
    <glyph glyph-name="ncaron" unicode="&#x148;" 
d="M359 1071h171l-32 -152q96 94 189.5 135t197.5 41q228 0 274 -159q26 -87 -8 -249l-146 -687h-183l143 675q21 98 5 158q-27 100 -153 100q-64 0 -108 -13q-79 -22 -149 -88q-56 -53 -81.5 -109.5t-47.5 -161.5l-119 -561h-180zM1013 1205h-190l-168 289h163l112 -192
l158 192h164z" />
    <glyph glyph-name="napostrophe" unicode="&#x149;" 
d="M459 1071h171l-32 -152q96 94 189.5 135t197.5 41q228 0 274 -159q26 -87 -8 -249l-146 -687h-183l143 675q21 98 5 158q-27 100 -153 100q-64 0 -108 -13q-79 -22 -149 -88q-56 -53 -81.5 -109.5t-47.5 -161.5l-119 -561h-180zM287 1294q72 12 118 97q24 45 33 87
q2 7 2.5 12.5t0.5 12.5h-109l46 218h214l-43 -202q-25 -119 -92.5 -209t-189.5 -111z" />
    <glyph glyph-name="Eng" unicode="&#x14a;" horiz-adv-x="1479" 
d="M914 -271q122 4 150 21.5t48 109.5l30 140h-43l-501 1189l-252 -1189h-190l312 1469h235l489 -1190l253 1190h189l-346 -1628q-25 -117 -75 -175q-84 -98 -260 -98q-13 0 -27.5 1t-44.5 4z" />
    <glyph glyph-name="eng" unicode="&#x14b;" 
d="M597 -271q122 4 150 21.5t48 109.5l30 140h-3l143 675q21 98 5 158q-27 100 -153 100q-64 0 -108 -13q-79 -22 -149 -88q-56 -53 -81.5 -109.5t-47.5 -161.5l-119 -561h-180l227 1071h171l-32 -152q96 94 189.5 135t197.5 41q228 0 274 -159q26 -87 -8 -249l-180 -846
q-25 -117 -75 -175q-84 -98 -260 -98q-13 0 -27.5 1t-44.5 4z" />
    <glyph glyph-name="Omacron" unicode="&#x14c;" horiz-adv-x="1593" 
d="M1633 1259q105 -195 40 -499q-70 -329 -283 -547q-251 -256 -614 -256q-339 0 -485 224q-127 216 -57 546q63 298 256 510q248 272 620 272q389 0 523 -250zM1468 757q55 259 -46.5 417t-336.5 158q-228 0 -405.5 -156.5t-242.5 -461.5q-52 -244 36 -411.5t365 -167.5
q263 0 420.5 188.5t209.5 433.5zM947 1724h640l-23 -118h-640z" />
    <glyph glyph-name="omacron" unicode="&#x14d;" 
d="M986 553q32 150 4 244q-45 148 -231 148q-165 0 -266.5 -126t-139.5 -304q-36 -171 14.5 -285t213.5 -114q179 0 274.5 135.5t130.5 301.5zM1175 558q-55 -259 -217 -428t-427 -169q-221 0 -319 149.5t-45 401.5q58 270 229 430t402 160q207 0 320.5 -138t56.5 -406z
M611 1323h640l-23 -118h-640z" />
    <glyph glyph-name="Obreve" unicode="&#x14e;" horiz-adv-x="1593" 
d="M1049 1877q2 -65 26 -98q44 -59 162 -59q109 0 175 59q39 34 68 98h99q-51 -147 -148.5 -212t-239.5 -65q-177 0 -228 119q-27 62 -16 158h102zM1633 1259q105 -195 40 -499q-70 -329 -283 -547q-251 -256 -614 -256q-339 0 -485 224q-127 216 -57 546q63 298 256 510
q248 272 620 272q389 0 523 -250zM1468 757q55 259 -46.5 417t-336.5 158q-228 0 -405.5 -156.5t-242.5 -461.5q-52 -244 36 -411.5t365 -167.5q263 0 420.5 188.5t209.5 433.5z" />
    <glyph glyph-name="obreve" unicode="&#x14f;" 
d="M726 1466q3 -65 27 -98q43 -59 161 -59q109 0 176 59q38 34 67 98h99q-51 -147 -148 -212t-239 -65q-177 0 -229 119q-27 62 -16 158h102zM986 553q32 150 4 244q-45 148 -231 148q-165 0 -266.5 -126t-139.5 -304q-36 -171 14.5 -285t213.5 -114q179 0 274.5 135.5
t130.5 301.5zM1175 558q-55 -259 -217 -428t-427 -169q-221 0 -319 149.5t-45 401.5q58 270 229 430t402 160q207 0 320.5 -138t56.5 -406z" />
    <glyph glyph-name="Ohungarumlaut" unicode="&#x150;" horiz-adv-x="1593" 
d="M1633 1259q105 -195 40 -499q-70 -329 -283 -547q-251 -256 -614 -256q-339 0 -485 224q-127 216 -57 546q63 298 256 510q248 272 620 272q389 0 523 -250zM1468 757q55 259 -46.5 417t-336.5 158q-228 0 -405.5 -156.5t-242.5 -461.5q-52 -244 36 -411.5t365 -167.5
q263 0 420.5 188.5t209.5 433.5zM1496 1902h214l-288 -291h-127zM1163 1902h216l-291 -291h-126z" />
    <glyph glyph-name="ohungarumlaut" unicode="&#x151;" 
d="M986 553q32 150 4 244q-45 148 -231 148q-165 0 -266.5 -126t-139.5 -304q-36 -171 14.5 -285t213.5 -114q179 0 274.5 135.5t130.5 301.5zM1175 558q-55 -259 -217 -428t-427 -169q-221 0 -319 149.5t-45 401.5q58 270 229 430t402 160q207 0 320.5 -138t56.5 -406z
M1150 1502h214l-288 -291h-127zM817 1502h216l-291 -291h-126z" />
    <glyph glyph-name="OE" unicode="&#x152;" horiz-adv-x="2048" 
d="M1163 490l110 517q32 154 -50 243t-231 89q-255 0 -415 -242q-104 -157 -152 -384q-54 -255 17 -420t301 -165q126 0 252 83t168 279zM1351 1320l32 149h901l-37 -175h-711l-96 -451h677l-36 -170h-677l-106 -498h715l-37 -175h-907l32 154q-62 -79 -174.5 -133.5
t-277.5 -54.5q-222 0 -364 189q-135 208 -59 565q62 295 232 505q223 277 561 277q128 0 212 -48.5t120 -133.5z" />
    <glyph glyph-name="oe" unicode="&#x153;" horiz-adv-x="1933" 
d="M811 1099q169 0 263 -81q52 -45 88 -130q85 99 200 154t244 55q119 0 205 -48.5t132 -143.5q42 -87 38 -203q-3 -71 -34 -224h-794q-23 -132 1 -213q43 -154 236 -154q135 0 233 91q55 49 102 134h180q-80 -177 -229 -278t-323 -101q-118 0 -211.5 47t-149.5 171
q-96 -122 -210 -169t-227 -47q-208 0 -320.5 142.5t-52.5 421.5q52 247 220 411.5t409 164.5zM1789 616q17 116 -9 188q-46 134 -224 134q-89 0 -176 -53q-136 -83 -196 -269h605zM1000 549q42 197 -25 295.5t-203 98.5q-134 0 -247.5 -106t-160.5 -325q-39 -184 28 -291.5
t208 -107.5q113 0 230.5 95t169.5 341z" />
    <glyph glyph-name="Racute" unicode="&#x154;" horiz-adv-x="1479" 
d="M1008 796q140 0 233.5 56t124.5 202q33 157 -69 214q-55 30 -157 30h-486l-106 -502h460zM492 1469h680q168 0 266 -49q187 -94 134 -347q-28 -132 -100.5 -216t-181.5 -135q79 -35 110 -92t9 -185l-35 -197q-15 -84 -12 -125q3 -70 45 -90l-7 -33h-244q-6 19 -6 49
t15 116l40 245q23 144 -66 193q-52 27 -174 27h-453l-133 -630h-199zM1384 1869l-294 -289h-138l210 289h222z" />
    <glyph glyph-name="racute" unicode="&#x155;" horiz-adv-x="682" 
d="M364 1071h171l-39 -185q32 54 130.5 131.5t205.5 77.5q5 0 17 -1t40 -4l-40 -190q-16 3 -29 4t-29 1q-136 0 -227.5 -87.5t-116.5 -201.5l-130 -616h-180zM911 1488l-294 -289h-138l210 289h222z" />
    <glyph glyph-name="Rcommaaccent" unicode="&#x156;" horiz-adv-x="1479" 
d="M1008 796q140 0 233.5 56t124.5 202q33 157 -69 214q-55 30 -157 30h-486l-106 -502h460zM492 1469h680q168 0 266 -49q187 -94 134 -347q-28 -132 -100.5 -216t-181.5 -135q79 -35 110 -92t9 -185l-35 -197q-15 -84 -12 -125q3 -70 45 -90l-7 -33h-244q-6 19 -6 49
t15 116l40 245q23 144 -66 193q-52 27 -174 27h-453l-133 -630h-199zM568 -513q72 12 118 97q24 45 33 87q2 7 2.5 12.5t0.5 12.5h-109l46 218h214l-43 -202q-25 -119 -92.5 -209t-189.5 -111z" />
    <glyph glyph-name="rcommaaccent" unicode="&#x157;" horiz-adv-x="682" 
d="M364 1071h171l-39 -185q32 54 130.5 131.5t205.5 77.5q5 0 17 -1t40 -4l-40 -190q-16 3 -29 4t-29 1q-136 0 -227.5 -87.5t-116.5 -201.5l-130 -616h-180zM28 -529q72 12 118 97q24 45 33 87q2 7 2.5 12.5t0.5 12.5h-109l46 218h214l-43 -202q-25 -119 -92.5 -209
t-189.5 -111z" />
    <glyph glyph-name="Rcaron" unicode="&#x158;" horiz-adv-x="1479" 
d="M1008 796q140 0 233.5 56t124.5 202q33 157 -69 214q-55 30 -157 30h-486l-106 -502h460zM492 1469h680q168 0 266 -49q187 -94 134 -347q-28 -132 -100.5 -216t-181.5 -135q79 -35 110 -92t9 -185l-35 -197q-15 -84 -12 -125q3 -70 45 -90l-7 -33h-244q-6 19 -6 49
t15 116l40 245q23 144 -66 193q-52 27 -174 27h-453l-133 -630h-199zM1143 1542h-190l-168 289h163l112 -192l158 192h164z" />
    <glyph glyph-name="rcaron" unicode="&#x159;" horiz-adv-x="682" 
d="M364 1071h171l-39 -185q32 54 130.5 131.5t205.5 77.5q5 0 17 -1t40 -4l-40 -190q-16 3 -29 4t-29 1q-136 0 -227.5 -87.5t-116.5 -201.5l-130 -616h-180zM729 1185h-190l-168 289h163l112 -192l158 192h164z" />
    <glyph glyph-name="Sacute" unicode="&#x15a;" horiz-adv-x="1366" 
d="M386 474q-19 -125 16 -203q68 -146 318 -146q112 0 211 32q191 62 225 222q26 120 -39 171q-65 50 -219 87l-190 45q-185 44 -255 97q-120 92 -81 275q42 198 206 325t415 127q231 0 368.5 -111.5t85.5 -356.5h-187q10 118 -25 181q-67 115 -285 115q-176 0 -268.5 -74
t-113.5 -172q-23 -108 56 -158q52 -32 250 -80l196 -47q142 -34 210 -93q119 -103 77 -299q-52 -244 -252 -349t-435 -105q-274 0 -399 140q-125 139 -72 377h187zM1336 1877l-294 -289h-138l210 289h222z" />
    <glyph glyph-name="sacute" unicode="&#x15b;" horiz-adv-x="1024" 
d="M310 336q-11 -90 16 -138q49 -87 217 -87q100 0 185.5 43.5t104.5 134.5q15 69 -39 105q-34 22 -143 51l-135 36q-130 34 -186 76q-101 73 -73 202q32 152 161.5 246t314.5 94q242 0 319 -142q48 -90 24 -194h-170q8 61 -20 111q-47 71 -200 71q-102 0 -162.5 -39
t-74.5 -103q-15 -70 45 -112q35 -25 109 -44l113 -29q184 -47 241 -91q90 -69 58 -217q-30 -143 -160.5 -247t-352.5 -104q-239 0 -315.5 108.5t-49.5 268.5h173zM1070 1502l-294 -289h-138l210 289h222z" />
    <glyph glyph-name="Scircumflex" unicode="&#x15c;" horiz-adv-x="1366" 
d="M386 474q-19 -125 16 -203q68 -146 318 -146q112 0 211 32q191 62 225 222q26 120 -39 171q-65 50 -219 87l-190 45q-185 44 -255 97q-120 92 -81 275q42 198 206 325t415 127q231 0 368.5 -111.5t85.5 -356.5h-187q10 118 -25 181q-67 115 -285 115q-176 0 -268.5 -74
t-113.5 -172q-23 -108 56 -158q52 -32 250 -80l196 -47q142 -34 210 -93q119 -103 77 -299q-52 -244 -252 -349t-435 -105q-274 0 -399 140q-125 139 -72 377h187zM1241 1872l158 -289h-164l-104 192l-166 -192h-163l249 289h190z" />
    <glyph glyph-name="scircumflex" unicode="&#x15d;" horiz-adv-x="1024" 
d="M310 336q-11 -90 16 -138q49 -87 217 -87q100 0 185.5 43.5t104.5 134.5q15 69 -39 105q-34 22 -143 51l-135 36q-130 34 -186 76q-101 73 -73 202q32 152 161.5 246t314.5 94q242 0 319 -142q48 -90 24 -194h-170q8 61 -20 111q-47 71 -200 71q-102 0 -162.5 -39
t-74.5 -103q-15 -70 45 -112q35 -25 109 -44l113 -29q184 -47 241 -91q90 -69 58 -217q-30 -143 -160.5 -247t-352.5 -104q-239 0 -315.5 108.5t-49.5 268.5h173zM967 1476l158 -289h-164l-104 192l-166 -192h-163l249 289h190z" />
    <glyph glyph-name="Scedilla" unicode="&#x15e;" horiz-adv-x="1366" 
d="M386 474q-19 -125 16 -203q68 -146 318 -146q112 0 211 32q191 62 225 222q26 120 -39 170.5t-219 87.5l-190 45q-185 44 -255 97q-120 92 -81 275q42 198 206 325t415 127q231 0 368.5 -111.5t85.5 -356.5h-187q10 118 -25 181q-67 115 -285 115q-176 0 -268.5 -74
t-113.5 -172q-23 -108 56 -158q52 -32 250 -80l196 -47q142 -34 210 -93q119 -103 77 -299q-52 -244 -252 -349t-407 -105l-79 -85q31 9 77 9q70 0 107 -40.5t21 -115.5q-16 -76 -87.5 -131t-195.5 -55q-53 0 -107 15q-31 8 -80 28l52 81q35 -14 55 -20q38 -11 71 -11
q37 0 67 11q56 21 68 76q7 32 -14.5 55.5t-65.5 23.5q-22 0 -40.5 -4t-44.5 -13l-26 41l127 135q-207 0 -332 139.5t-72 377.5h187z" />
    <glyph glyph-name="scedilla" unicode="&#x15f;" horiz-adv-x="1024" 
d="M310 336q-11 -90 16 -138q49 -87 217 -87q100 0 185.5 43.5t104.5 134.5q15 69 -39 105q-34 22 -143 51l-135 36q-130 34 -186 76q-101 73 -73 202q32 152 161.5 246t314.5 94q242 0 319 -142q48 -90 24 -194h-170q8 61 -20 111q-47 71 -200 71q-102 0 -162.5 -39
t-74.5 -103q-15 -70 45 -112q35 -25 109 -44l113 -29q184 -47 241 -91q90 -69 58 -217q-30 -143 -160.5 -247t-323.5 -104l-83 -87q31 9 77 9q70 0 107 -40.5t21 -115.5q-16 -76 -87.5 -131t-195.5 -55q-53 0 -107 15q-31 8 -80 28l52 81q35 -14 55 -20q38 -11 71 -11
q37 0 67 11q56 21 68 76q7 32 -14.5 55.5t-65.5 23.5q-22 0 -40.5 -4t-44.5 -13l-26 41l129 137q-171 0 -247.5 108.5t-49.5 268.5h173z" />
    <glyph glyph-name="Scaron" unicode="&#x160;" horiz-adv-x="1366" 
d="M386 474q-19 -125 16 -203q68 -146 318 -146q112 0 211 32q191 62 225 222q26 120 -39 171q-65 50 -219 87l-190 45q-185 44 -255 97q-120 92 -81 275q42 198 206 325t415 127q231 0 368.5 -111.5t85.5 -356.5h-187q10 118 -25 181q-67 115 -285 115q-176 0 -268.5 -74
t-113.5 -172q-23 -108 56 -158q52 -32 250 -80l196 -47q142 -34 210 -93q119 -103 77 -299q-52 -244 -252 -349t-435 -105q-274 0 -399 140q-125 139 -72 377h187zM1083 1625h-190l-168 289h163l112 -192l158 192h164z" />
    <glyph glyph-name="scaron" unicode="&#x161;" horiz-adv-x="1024" 
d="M310 336q-11 -90 16 -138q49 -87 217 -87q100 0 185.5 43.5t104.5 134.5q15 69 -39 105q-34 22 -143 51l-135 36q-130 34 -186 76q-101 73 -73 202q32 152 161.5 246t314.5 94q242 0 319 -142q48 -90 24 -194h-170q8 61 -20 111q-47 71 -200 71q-102 0 -162.5 -39
t-74.5 -103q-15 -70 45 -112q35 -25 109 -44l113 -29q184 -47 241 -91q90 -69 58 -217q-30 -143 -160.5 -247t-352.5 -104q-239 0 -315.5 108.5t-49.5 268.5h173zM924 1208h-190l-168 289h163l112 -192l158 192h164z" />
    <glyph glyph-name="Tcedilla" unicode="&#x162;" horiz-adv-x="1251" 
d="M1537 1469l-37 -175h-495l-275 -1294h-202l275 1294h-495l37 175h1192zM573 0h97l-124 -128q31 9 77 9q70 0 107 -40.5t21 -115.5q-16 -76 -87.5 -131t-195.5 -55q-53 0 -107 15q-31 8 -79 28l52 81q35 -14 54 -20q37 -11 70 -11q37 0 68 11q56 21 68 76q7 32 -14 55.5
t-65 23.5q-22 0 -41 -4t-45 -13l-25 41z" />
    <glyph glyph-name="tcedilla" unicode="&#x163;" horiz-adv-x="569" 
d="M459 1370h182l-64 -299h171l-31 -147h-171l-149 -699q-12 -56 22 -75q19 -11 68 -11q13 0 28 0.5t36 2.5l-30 -142q-33 -9 -67.5 -13t-73.5 -4q-126 0 -157.5 64.5t-9.5 167.5l151 709h-145l31 147h145zM348 -6h97l-124 -128q31 9 77 9q70 0 107 -40.5t21 -115.5
q-16 -76 -87.5 -131t-195.5 -55q-53 0 -107 15q-31 8 -79 28l52 81q35 -14 54 -20q37 -11 70 -11q37 0 68 11q56 21 68 76q7 32 -14 55.5t-65 23.5q-22 0 -41 -4t-45 -13l-25 41z" />
    <glyph glyph-name="Tcaron" unicode="&#x164;" horiz-adv-x="1251" 
d="M1537 1469l-37 -175h-495l-275 -1294h-202l275 1294h-495l37 175h1192zM1045 1563h-190l-168 289h163l112 -192l158 192h164z" />
    <glyph glyph-name="tcaron" unicode="&#x165;" horiz-adv-x="737" 
d="M776 1204q72 12 118 97q24 45 33 87q2 7 2.5 12.5t0.5 12.5h-109l46 218h214l-43 -202q-25 -119 -92.5 -209t-189.5 -111zM459 1370h182l-64 -299h171l-31 -147h-171l-149 -699q-12 -56 22 -75q19 -11 68 -11q13 0 28 0.5t36 2.5l-30 -142q-33 -9 -67.5 -13t-73.5 -4
q-126 0 -157.5 64.5t-9.5 167.5l151 709h-145l31 147h145z" />
    <glyph glyph-name="Tbar" unicode="&#x166;" horiz-adv-x="1251" 
d="M1537 1469l-37 -175h-495l-275 -1294h-202l275 1294h-495l37 175h1192zM493 804h640l-23 -118h-640z" />
    <glyph glyph-name="tbar" unicode="&#x167;" horiz-adv-x="655" 
d="M459 1370h182l-64 -299h171l-31 -147h-171l-149 -699q-12 -56 22 -75q19 -11 68 -11q13 0 28 0.5t36 2.5l-30 -142q-33 -9 -67.5 -13t-73.5 -4q-126 0 -157.5 64.5t-9.5 167.5l151 709h-145l31 147h145zM125 746h640l-23 -118h-640z" />
    <glyph glyph-name="Utilde" unicode="&#x168;" horiz-adv-x="1479" 
d="M684 1469l-193 -908q-34 -160 3 -266q55 -160 266 -160q253 0 381 173q69 94 103 253l193 908h202l-176 -825q-57 -271 -161 -417q-191 -266 -563 -266t-448 266q-42 146 15 417l176 825h202zM1187 1736q25 -12 47.5 -19t46.5 -7q56 0 86 35q15 19 26 57h105
q-40 -127 -107.5 -175t-138.5 -48q-22 0 -54 8t-57 18l-50 19q-43 17 -72 25.5t-57 8.5q-35 0 -61 -23t-42 -70h-98q25 79 64 129q70 92 182 92q34 0 74 -10t106 -40z" />
    <glyph glyph-name="utilde" unicode="&#x169;" 
d="M539 1071l-151 -711q-17 -82 -2 -134q27 -96 158 -96q188 0 292 168q56 90 89 247l112 526h180l-227 -1071h-170l35 158q-48 -61 -109 -103q-121 -84 -268 -84q-229 0 -279 153q-28 82 1 219l155 728h184zM892 1367q25 -12 47.5 -19t46.5 -7q56 0 86 35q15 19 26 57h105
q-40 -127 -107.5 -175t-138.5 -48q-22 0 -54 8t-57 18l-50 19q-43 17 -72 25.5t-57 8.5q-35 0 -61 -23t-42 -70h-98q25 79 64 129q70 92 182 92q34 0 74 -10t106 -40z" />
    <glyph glyph-name="Umacron" unicode="&#x16a;" horiz-adv-x="1479" 
d="M684 1469l-193 -908q-34 -160 3 -266q55 -160 266 -160q253 0 381 173q69 94 103 253l193 908h202l-176 -825q-57 -271 -161 -417q-191 -266 -563 -266t-448 266q-42 146 15 417l176 825h202zM800 1689h640l-23 -118h-640z" />
    <glyph glyph-name="umacron" unicode="&#x16b;" 
d="M539 1071l-151 -711q-17 -82 -2 -134q27 -96 158 -96q188 0 292 168q56 90 89 247l112 526h180l-227 -1071h-170l35 158q-48 -61 -109 -103q-121 -84 -268 -84q-229 0 -279 153q-28 82 1 219l155 728h184zM534 1328h640l-23 -118h-640z" />
    <glyph glyph-name="Ubreve" unicode="&#x16c;" horiz-adv-x="1479" 
d="M906 1801q10 -65 38 -98q50 -59 168 -59q109 0 169 59q34 34 56 98h99q-35 -147 -124 -212t-231 -65q-177 0 -243 119q-35 62 -34 158h102zM684 1469l-193 -908q-34 -160 3 -266q55 -160 266 -160q253 0 381 173q69 94 103 253l193 908h202l-176 -825q-57 -271 -161 -417
q-191 -266 -563 -266t-448 266q-42 146 15 417l176 825h202z" />
    <glyph glyph-name="ubreve" unicode="&#x16d;" 
d="M670 1454q2 -65 26 -98q43 -59 161 -59q109 0 176 59q38 34 68 98h99q-52 -147 -149 -212t-239 -65q-177 0 -229 119q-27 62 -15 158h102zM539 1071l-151 -711q-17 -82 -2 -134q27 -96 158 -96q188 0 292 168q56 90 89 247l112 526h180l-227 -1071h-170l35 158
q-48 -61 -109 -103q-121 -84 -268 -84q-229 0 -279 153q-28 82 1 219l155 728h184z" />
    <glyph glyph-name="Uring" unicode="&#x16e;" horiz-adv-x="1479" 
d="M684 1469l-193 -908q-34 -160 3 -266q55 -160 266 -160q253 0 381 173q69 94 103 253l193 908h202l-176 -825q-57 -271 -161 -417q-191 -266 -563 -266t-448 266q-42 146 15 417l176 825h202zM1113 1618q52 0 98 37t59 89q12 52 -17 89t-81 37q-51 0 -96 -37t-57 -89
q-13 -52 15 -89t79 -37zM1193 1953q86 0 133 -61.5t27 -147.5q-23 -86 -99 -147.5t-162 -61.5t-132.5 61.5t-23.5 147.5q20 86 95.5 147.5t161.5 61.5z" />
    <glyph glyph-name="uring" unicode="&#x16f;" 
d="M539 1071l-151 -711q-17 -82 -2 -134q27 -96 158 -96q188 0 292 168q56 90 89 247l112 526h180l-227 -1071h-170l35 158q-48 -61 -109 -103q-121 -84 -268 -84q-229 0 -279 153q-28 82 1 219l155 728h184zM822 1188q52 0 98 37t59 89q12 52 -17 89t-81 37q-51 0 -96 -37
t-57 -89q-13 -52 15 -89t79 -37zM902 1523q86 0 133 -61.5t27 -147.5q-23 -86 -99 -147.5t-162 -61.5t-132.5 61.5t-23.5 147.5q20 86 95.5 147.5t161.5 61.5z" />
    <glyph glyph-name="Uhungarumlaut" unicode="&#x170;" horiz-adv-x="1479" 
d="M684 1469l-193 -908q-34 -160 3 -266q55 -160 266 -160q253 0 381 173q69 94 103 253l193 908h202l-176 -825q-57 -271 -161 -417q-191 -266 -563 -266t-448 266q-42 146 15 417l176 825h202zM1350 1862h214l-288 -291h-127zM1017 1862h216l-291 -291h-126z" />
    <glyph glyph-name="uhungarumlaut" unicode="&#x171;" 
d="M539 1071l-151 -711q-17 -82 -2 -134q27 -96 158 -96q188 0 292 168q56 90 89 247l112 526h180l-227 -1071h-170l35 158q-48 -61 -109 -103q-121 -84 -268 -84q-229 0 -279 153q-28 82 1 219l155 728h184zM1097 1496h214l-288 -291h-127zM764 1496h216l-291 -291h-126z
" />
    <glyph glyph-name="Uogonek" unicode="&#x172;" horiz-adv-x="1479" 
d="M684 1469l-193 -908q-34 -160 3 -266q55 -160 266 -160q253 0 381 173q69 94 103 253l193 908h202l-176 -825q-57 -271 -161 -417q-191 -266 -563 -266t-448 266q-42 146 15 417l176 825h202zM834 -28l-73 -48q-90 -60 -120.5 -91.5t-40.5 -70.5q-11 -37 8 -64t70 -27
q27 0 45.5 5t40.5 16l-37 -131q-38 -14 -65 -21q-54 -13 -106 -13q-96 0 -130.5 56t-14.5 126q22 81 99 146q61 52 177 117h147z" />
    <glyph glyph-name="uogonek" unicode="&#x173;" 
d="M539 1071l-151 -711q-17 -82 -2 -134q27 -96 158 -96q188 0 292 168q56 90 89 247l112 526h180l-227 -1071h-170l35 158q-48 -61 -109 -103q-121 -84 -268 -84q-229 0 -279 153q-28 82 1 219l155 728h184zM968 0l-73 -48q-90 -60 -120.5 -91.5t-40.5 -70.5q-11 -37 8 -64
t70 -27q27 0 45.5 5t40.5 16l-37 -131q-38 -14 -65 -21q-54 -13 -106 -13q-96 0 -130.5 56t-14.5 126q22 81 99 146q61 52 177 117h147z" />
    <glyph glyph-name="Wcircumflex" unicode="&#x174;" horiz-adv-x="1933" 
d="M565 1469l23 -1195l586 1195h216l78 -1195l531 1195h218l-698 -1469h-209l-81 1218l-599 -1218h-209l-72 1469h216zM1476 1889l158 -289h-164l-104 192l-166 -192h-163l249 289h190z" />
    <glyph glyph-name="wcircumflex" unicode="&#x175;" horiz-adv-x="1479" 
d="M442 1071l27 -844l388 844h202l32 -839l397 839h180l-538 -1071h-187l-42 829l-387 -829h-187l-82 1071h197zM1128 1511l158 -289h-164l-104 192l-166 -192h-163l249 289h190z" />
    <glyph glyph-name="Ycircumflex" unicode="&#x176;" horiz-adv-x="1366" 
d="M354 1469h232l272 -706l572 706h233l-742 -877l-125 -592h-199l125 592zM1191 1876l158 -289h-164l-104 192l-166 -192h-163l249 289h190z" />
    <glyph glyph-name="ycircumflex" unicode="&#x177;" horiz-adv-x="1024" 
d="M1028 1071h199q-60 -103 -269 -470q-156 -276 -259 -450q-244 -410 -327 -500t-239 -90q-38 0 -58 3t-48 11l35 164q44 -13 64.5 -16t36.5 -3q50 0 77 16.5t48 40.5q7 8 53.5 82t68.5 110l-162 1102h204l102 -872zM928 1495l158 -289h-164l-104 192l-166 -192h-163
l249 289h190z" />
    <glyph glyph-name="Ydieresis" unicode="&#x178;" horiz-adv-x="1366" 
d="M354 1469h232l272 -706l572 706h233l-742 -877l-125 -592h-199l125 592zM1169 1817h187l-45 -208h-187zM839 1817h187l-45 -208h-187z" />
    <glyph glyph-name="Zacute" unicode="&#x179;" horiz-adv-x="1251" 
d="M82 165l1141 1129h-835l37 175h1091l-37 -171l-1144 -1123h906l-37 -175h-1157zM1204 1864l-294 -289h-138l210 289h222z" />
    <glyph glyph-name="zacute" unicode="&#x17a;" horiz-adv-x="1024" 
d="M82 142l798 768h-588l34 161h830l-31 -147l-793 -763h650l-34 -161h-896zM1031 1490l-294 -289h-138l210 289h222z" />
    <glyph glyph-name="Zdotaccent" unicode="&#x17b;" horiz-adv-x="1251" 
d="M82 165l1141 1129h-835l37 175h1091l-37 -171l-1144 -1123h906l-37 -175h-1157zM952 1817h187l-45 -208h-187z" />
    <glyph glyph-name="zdotaccent" unicode="&#x17c;" horiz-adv-x="1024" 
d="M82 142l798 768h-588l34 161h830l-31 -147l-793 -763h650l-34 -161h-896zM742 1444h187l-45 -208h-187z" />
    <glyph glyph-name="Zcaron" unicode="&#x17d;" horiz-adv-x="1251" 
d="M82 165l1141 1129h-835l37 175h1091l-37 -171l-1144 -1123h906l-37 -175h-1157zM1046 1585h-190l-168 289h163l112 -192l158 192h164z" />
    <glyph glyph-name="zcaron" unicode="&#x17e;" horiz-adv-x="1024" 
d="M82 142l798 768h-588l34 161h830l-31 -147l-793 -763h650l-34 -161h-896zM823 1213h-190l-168 289h163l112 -192l158 192h164z" />
    <glyph glyph-name="slong" unicode="&#x17f;" horiz-adv-x="569" 
d="M551 924l-196 -924h-178l196 924h-149l30 142h149l36 168q28 112 74 164q82 92 262 92q17 0 35 -1t40 -3l-35 -164q-27 2 -39.5 2.5t-23.5 0.5q-82 0 -107 -42.5t-94 -358.5z" />
    <glyph glyph-name="bstroke" unicode="&#x180;" 
d="M666 119q161 0 258.5 116t134.5 288q43 202 -19.5 306t-198.5 104q-122 0 -226 -97.5t-147 -300.5q-43 -201 15 -308.5t183 -107.5zM691 1038q94 52 217 52q222 0 305 -171.5t34 -405.5q-54 -250 -217 -400.5t-342 -150.5q-111 0 -187.5 44t-118.5 143l-31 -149h-162
l257 1211h-133l25 118h133l31 145h173l-31 -145h334l-25 -118h-334l-59 -278q77 75 131 105z" />
    <glyph glyph-name="Btopbar" unicode="&#x182;" horiz-adv-x="1366" 
d="M487 1469h1074l-39 -180h-875l-93 -441h462q222 0 302 -127.5t43 -299.5q-43 -200 -186 -310.5t-339 -110.5h-661zM993 202q133 58 167 220q31 144 -40.5 201t-205.5 57h-396l-108 -509h396q115 0 187 31z" />
    <glyph glyph-name="btopbar" unicode="&#x183;" 
d="M431 1474h30v1h781l-38 -180h-636l-75 -354q75 77 165.5 117.5t186.5 40.5q200 0 295.5 -137.5t38.5 -405.5q-54 -254 -213 -422t-377 -168q-122 0 -193 59q-43 35 -83 112l-29 -137h-166zM993 547q36 169 -13 280t-190 111q-123 0 -235 -91t-156 -300q-32 -151 -14 -245
q33 -177 227 -177q146 0 243 116t138 306z" />
    <glyph glyph-name="Oopen" unicode="&#x186;" horiz-adv-x="1479" 
d="M196 442h194q3 -142 84 -225t259 -83q217 0 383 152.5t233 467.5q55 258 -31.5 418.5t-325.5 160.5q-220 0 -371 -169q-80 -89 -141 -234h-194q75 232 255 389q215 189 512 189q256 0 397 -155q186 -205 95 -633q-70 -325 -286 -533q-234 -226 -561 -226
q-279 0 -401.5 147t-100.5 334z" />
    <glyph glyph-name="Dafrican" unicode="&#x189;" horiz-adv-x="1479" 
d="M216 865h132l129 604h562q365 0 477 -251q82 -183 24 -459q-52 -244 -186 -436q-224 -323 -596 -323h-593l146 687h-132zM548 865h419l-37 -178h-419l-110 -517h355q101 0 170 21q124 39 222 150q78 89 133 228q33 83 48 154q58 273 -18.5 424t-317.5 151h-353z" />
    <glyph glyph-name="Dtopbar" unicode="&#x18b;" horiz-adv-x="1366" 
d="M1272 0h-661q-196 0 -293 110.5t-54 310.5q37 172 171 299.5t356 127.5h462l93 441h-875l39 180h1074zM538 202q60 -31 175 -31h396l108 509h-396q-134 0 -229.5 -57t-126.5 -201q-34 -162 73 -220z" />
    <glyph glyph-name="dtopbar" unicode="&#x18c;" 
d="M1061 0h-166l29 137q-74 -77 -131 -112q-97 -59 -219 -59q-218 0 -305 168t-33 422q57 268 210.5 405.5t353.5 137.5q96 0 169.5 -40.5t116.5 -117.5l75 354h-636l38 180h781v-1h30zM418 547q-41 -190 7 -306t194 -116q194 0 303 177q58 94 90 245q44 209 -29 300
t-196 91q-141 0 -237 -111t-132 -280z" />
    <glyph glyph-name="deltaturned" unicode="&#x18d;" horiz-adv-x="1161" 
d="M280 975q44 209 212 349t392 140q217 0 326.5 -134t66.5 -337q-54 -251 -206 -409t-404 -158l323 -282l-35 -164h-783l31 147h572l-356 316q-113 98 -144 230t5 302zM845 1301q-152 0 -265 -107.5t-148 -271.5q-44 -209 38 -289t214 -80h32q22 4 91.5 14.5t166.5 120
t127 252.5q33 156 -37 258.5t-219 102.5z" />
    <glyph glyph-name="Ereversed" unicode="&#x18e;" horiz-adv-x="1366" 
d="M1260 -1h-1086l37 175h892l106 498h-811l36 170h811l95 446h-877l39 180h1071z" />
    <glyph glyph-name="Schwa" unicode="&#x18f;" horiz-adv-x="1538" 
d="M262 217q-50 109 -43 255q-1 100 45 318h1120q40 220 -52.5 383t-296.5 163q-190 0 -403 -185q-80 -73 -128 -169h-179q27 80 101.5 177.5t153.5 160.5q133 108 305 145q93 22 203 22q270 0 416 -196.5t71 -550.5q-74 -348 -309.5 -565.5t-541.5 -217.5q-153 0 -282 72.5
t-180 187.5zM426 657q-18 -158 3 -312q110 -236 343 -236q168 0 349.5 181t227.5 367h-923z" />
    <glyph glyph-name="Eopen" unicode="&#x190;" horiz-adv-x="1096" 
d="M572 102q131 0 242 107q98 96 141 233h150q-54 -199 -198 -334q-166 -157 -387 -157q-191 0 -287 141q-93 137 -52 330q28 133 82 213q64 93 185 151q-125 127 -88 304q42 195 174 312q136 122 328 122q208 0 299 -144q86 -136 41 -348l-148 -2q27 127 -29 231
q-61 113 -184 113q-119 0 -202.5 -69t-108.5 -189q-34 -158 43 -216q59 -45 225 -48l-32 -147q-49 4 -71 4q-293 0 -352 -277q-30 -145 27 -234q60 -96 202 -96z" />
    <glyph glyph-name="Fhook" unicode="&#x191;" horiz-adv-x="1251" 
d="M-55 -271q121 4 149 21.5t48 109.5l256 1206h3l86 403h1019l-39 -180h-820l-94 -446h721l-38 -175h-721l-175 -827q-25 -117 -75 -175q-106 -98 -281 -98q-13 0 -27.5 1t-44.5 4z" />
    <glyph glyph-name="florin" unicode="&#x192;" 
d="M22 -230q21 -12 43.5 -20.5t48.5 -8.5q102 0 173 100q44 63 122 258l280 702h-226l30 142h254q100 236 124 284t73 117q71 85 151.5 124t166.5 39q44 0 77.5 -7t62.5 -21l-66 -162q-40 19 -61 26.5t-44 7.5q-83 0 -142.5 -79.5t-156.5 -328.5h235l-30 -142h-261
l-197 -503q-147 -375 -238 -505q-149 -213 -366 -213q-45 0 -71 7t-48 17z" />
    <glyph glyph-name="Iotaafrican" unicode="&#x196;" horiz-adv-x="455" 
d="M406 -24q-31 -3 -46 -4t-28 -1q-176 0 -218 98q-26 58 -1 175l261 1225h180l-257 -1206q-19 -92 1.5 -109.5t141.5 -21.5z" />
    <glyph glyph-name="Istroke" unicode="&#x197;" horiz-adv-x="699" 
d="M230 920h232l117 549h180l-117 -549h228l-25 -118h-228l-170 -802h-180l170 802h-232z" />
    <glyph glyph-name="lbar" unicode="&#x19a;" horiz-adv-x="699" 
d="M230 920h232l117 549h180l-117 -549h228l-25 -118h-228l-170 -802h-180l170 802h-232z" />
    <glyph glyph-name="uni019B" unicode="&#x19b;" 
d="M373 1140l272 73l-2 14q-17 100 -102 96h-65l31 149q44 11 105 11q104 0 144 -54q38 -54 57 -171l306 82l-25 -118l-261 -70l178 -921q8 -30 22 -57q16 -27 49 -27h51l-31 -147h-105q-147 0 -170 152l-110 659l-481 -811h-199l638 1030l-12 76l-315 -84z" />
    <glyph glyph-name="Nhookleft" unicode="&#x19d;" horiz-adv-x="1479" 
d="M-71 -271q121 4 149 21.5t48 109.5l342 1609h235l489 -1190l253 1190h189l-312 -1469h-223l-501 1189l-252 -1189h-10l-34 -159q-25 -117 -75 -175q-84 -98 -259 -98q-13 0 -27.5 1t-44.5 4z" />
    <glyph glyph-name="nlegrightlong" unicode="&#x19e;" 
d="M359 1071h171l-32 -152q96 94 189.5 135t197.5 41q228 0 274 -159q26 -87 -8 -249l-231 -1084h-183l228 1072q21 98 5 158q-27 100 -153 100q-64 0 -108 -13q-79 -22 -149 -88q-56 -53 -81.5 -109.5t-47.5 -161.5l-119 -561h-180z" />
    <glyph glyph-name="Ocenteredtilde" unicode="&#x19f;" horiz-adv-x="1593" 
d="M1633 1259q105 -195 40 -499q-70 -329 -283 -547q-251 -256 -614 -256q-339 0 -485 224q-127 216 -57 546q63 298 256 510q248 272 620 272q389 0 523 -250zM473 302q88 -167 365 -167q263 0 420 188q127 152 185 340h-1016q-32 -211 46 -361zM1421 1174
q-101 158 -336 158q-228 0 -406 -157q-149 -131 -217 -365h1016q35 222 -57 364z" />
    <glyph glyph-name="Ohorn" unicode="&#x1a0;" horiz-adv-x="1820" 
d="M1673 760q-70 -329 -283 -547q-251 -256 -614 -256q-339 0 -485 224q-127 216 -57 546q63 298 256 510q248 272 620 272q364 0 504 -220q28 -7 69 1q48 3 91 19l12 5q5 3 11 8l-19 100l219 84l40 -198l-204 -77q-90 -35 -170 -41q64 -177 10 -430zM1468 757
q55 259 -46.5 417t-336.5 158q-228 0 -405.5 -156.5t-242.5 -461.5q-52 -244 36 -411.5t365 -167.5q263 0 420.5 188.5t209.5 433.5z" />
    <glyph glyph-name="ohorn" unicode="&#x1a1;" horiz-adv-x="1384" 
d="M1175 558q-55 -259 -217 -428t-427 -169q-221 0 -319 149.5t-45 401.5q58 270 229 430t402 160q207 0 320 -138q19 -22 32 -48q15 0 34 4q49 3 91 19l12 5q6 3 12 8l-20 100l219 84l40 -198l-203 -77q-80 -31 -151 -39q24 -111 -9 -264zM986 553q32 150 4 244
q-45 148 -231 148q-165 0 -266.5 -126t-139.5 -304q-36 -171 14.5 -285t213.5 -114q179 0 274.5 135.5t130.5 301.5z" />
    <glyph glyph-name="yr" unicode="&#x1a6;" horiz-adv-x="1306" 
d="M364 1469h199l-43 -200h481q168 0 267 -49q187 -94 133 -347q-28 -132 -100.5 -216t-181.5 -135q79 -35 110.5 -92t9.5 -185l-35 -197q-15 -84 -13 -125q3 -70 45 -90l-7 -33h-244q-6 19 -5.5 49t14.5 116l40 245q24 144 -66 193q-51 27 -173 27h-453l-91 -430h-199z
M837 596q140 0 233.5 56t124.5 202q33 157 -68 214q-55 30 -157 30h-486l-107 -502h460z" />
    <glyph glyph-name="Tonetwo" unicode="&#x1a7;" horiz-adv-x="1366" 
d="M1367 474q-47 -238 -232 -377q-185 -140 -459 -140q-235 0 -390 105t-103 349q42 196 203 299q94 59 250 93l216 47q218 48 284 80q101 50 124 158q21 98 -40.5 172t-237.5 74q-218 0 -333 -115q-63 -63 -103 -181h-187q52 245 237.5 356.5t416.5 111.5q251 0 361 -127
t68 -325q-39 -183 -199 -275q-92 -53 -297 -97l-208 -45q-170 -37 -257 -87q-85 -51 -111 -171q-34 -160 131 -222q85 -32 197 -32q250 0 380 146q69 78 102 203h187z" />
    <glyph glyph-name="tonetwo" unicode="&#x1a8;" horiz-adv-x="1024" 
d="M1021 336q-41 -160 -163.5 -268.5t-361.5 -108.5q-222 0 -308.5 104t-56.5 247q32 148 152 217q75 44 279 91l125 29q82 19 127 44q78 42 93 112q14 64 -30.5 103t-146.5 39q-153 0 -230 -71q-48 -50 -66 -111h-170q20 104 106 194q137 142 379 142q185 0 274.5 -94
t57.5 -246q-28 -129 -159 -202q-74 -42 -218 -76l-151 -36q-121 -29 -165 -51q-68 -36 -83 -105q-19 -91 47.5 -134.5t166.5 -43.5q168 0 255 87q47 48 74 138h173z" />
    <glyph glyph-name="Esh" unicode="&#x1a9;" horiz-adv-x="1176" 
d="M91 164l717 567l-430 569l35 164h992l-35 -164h-760l430 -569l-717 -567h829l-34 -164h-1061z" />
    <glyph glyph-name="Tretroflexhook" unicode="&#x1ae;" horiz-adv-x="1251" 
d="M300 -271q122 4 150 21.5t48 109.5l305 1434h-495l37 175h1192l-37 -175h-495l-309 -1453q-25 -117 -75 -175q-106 -98 -282 -98q-13 0 -27.5 1t-44.5 4z" />
    <glyph glyph-name="Uhorn" unicode="&#x1af;" horiz-adv-x="1766" 
d="M684 1469l-193 -908q-34 -160 3 -266q55 -160 266 -160q253 0 381 173q69 94 103 253l193 908h202l-27 -127q17 0 37 4q48 3 91 19l12 5q5 3 11 8l-19 100l219 84l39 -198l-203 -77q-112 -44 -208 -42l-128 -601q-57 -271 -161 -417q-191 -266 -563 -266t-448 266
q-42 146 15 417l176 825h202z" />
    <glyph glyph-name="uhorn" unicode="&#x1b0;" horiz-adv-x="1429" 
d="M539 1071l-151 -711q-17 -82 -2 -134q27 -96 158 -96q188 0 292 168q56 90 89 247l112 526h180l-33 -155q20 -1 45 4q49 3 91 19l12 5q6 3 12 8l-20 100l219 84l40 -198l-203 -77q-117 -45 -216 -41l-174 -820h-170l35 158q-48 -61 -109 -103q-121 -84 -268 -84
q-229 0 -279 153q-28 82 1 219l155 728h184z" />
    <glyph glyph-name="Upsilonafrican" unicode="&#x1b1;" horiz-adv-x="1546" 
d="M1421 693q40 191 -24 372t-220 253l35 166h561l-35 -164h-373q113 -49 202.5 -215t37.5 -412q-65 -303 -283.5 -498.5t-552.5 -195.5t-469.5 194.5t-70.5 499.5q52 246 211.5 412t294.5 215h-373l35 164h561l-35 -166q-188 -72 -328.5 -251t-181.5 -374q-48 -225 56 -367
t336 -142q237 0 402.5 141t213.5 368z" />
    <glyph glyph-name="uni01B5" unicode="&#x1b5;" horiz-adv-x="1251" 
d="M82 165l595 589h-218l25 118h312l427 422h-835l37 175h1091l-37 -171l-434 -426h179l-25 -118h-274l-590 -579h906l-37 -175h-1157z" />
    <glyph glyph-name="uni01B6" unicode="&#x1b6;" horiz-adv-x="1024" 
d="M82 142l387 373h-173l25 118h271l288 277h-588l34 161h830l-31 -147l-303 -291h139l-25 -118h-236l-368 -354h650l-34 -161h-896z" />
    <glyph glyph-name="Ezh" unicode="&#x1b7;" horiz-adv-x="1125" 
d="M431 831l652 474h-760l35 164h992l-35 -164l-426 -312q145 -27 224 -148q104 -157 44 -439q-49 -230 -224 -323.5t-385 -93.5q-187 0 -316 98.5t-114 311.5h175q0 -119 81 -187.5t193 -68.5q146 0 254.5 50t142.5 211q34 160 2.5 298.5t-203.5 138.5l-100 -10h-232z" />
    <glyph glyph-name="Ezhreversed" unicode="&#x1b8;" horiz-adv-x="1125" 
d="M814 831l-96 10q-172 0 -262.5 -138.5t-124.5 -298.5q-34 -161 53.5 -211t233.5 -50q112 0 222 68.5t160 187.5h175q-75 -213 -246 -311.5t-358 -98.5q-210 0 -345 93.5t-86 323.5q60 282 230 439q131 121 288 148l-294 312l35 164h992l-35 -164h-760l450 -474h-232z" />
    <glyph glyph-name="ezhreversed" unicode="&#x1b9;" horiz-adv-x="1025" 
d="M726 428l-95 10q-172 0 -262.5 -138.5t-124.5 -298.5q-35 -161 45.5 -221t226.5 -60q112 0 179 78.5t118 197.5h175q-76 -213 -204 -321.5t-315 -108.5q-210 0 -338 103.5t-79 333.5q60 282 230 439q131 121 288 148l-294 312l35 164h892l-35 -164h-660l450 -474h-232z
" />
    <glyph glyph-name="twostroke" unicode="&#x1bb;" horiz-adv-x="1160" 
d="M526 571l215 111q145 75 209 128q99 83 122 190q27 125 -32.5 198.5t-184.5 73.5q-185 0 -286 -140q-54 -75 -86 -208h-183q43 187 134 305q161 208 457 208q246 0 331 -133t51 -296q-37 -172 -184 -294q-85 -71 -287 -172l-153 -76q-110 -54 -176 -103
q-119 -87 -167 -193h782l-36 -170h-983q49 185 144.5 322t312.5 249zM260 635l31 142h980l-31 -142h-980z" />
    <glyph glyph-name="clickdental" unicode="&#x1c0;" horiz-adv-x="532" 
d="M353 0h-171l316 1490h171z" />
    <glyph glyph-name="clicklateral" unicode="&#x1c1;" horiz-adv-x="883" 
d="M353 0h-171l316 1490h171zM703 0h-171l316 1490h171z" />
    <glyph glyph-name="clickalveolar" unicode="&#x1c2;" horiz-adv-x="1164" 
d="M1298 1002l-35 -168h-446l-56 -261h446l-36 -171h-446l-85 -402h-171l85 402h-426l36 171h426l56 261h-426l35 168h426l104 488h171l-104 -488h446z" />
    <glyph glyph-name="clickretroflex" unicode="&#x1c3;" horiz-adv-x="569" 
d="M549 1469h203l-103 -483l-184 -636h-102l83 636zM281 208h199l-44 -208h-199z" />
    <glyph glyph-name="DZcaron" unicode="&#x1c4;" horiz-adv-x="2530" 
d="M706 170q101 0 170 21q124 39 222 150q78 89 133 228q33 83 48 154q58 273 -18.5 424t-317.5 151h-353l-239 -1128h355zM427 1469h595q303 0 424 -215q108 -194 43 -497q-49 -234 -178 -423q-225 -334 -603 -334h-593zM1343 170l1141 1129h-835l37 175h1091l-37 -171
l-1144 -1123h906l-37 -175h-1157zM2324 1576h-190l-168 289h163l112 -192l158 192h164z" />
    <glyph glyph-name="Dzcaron" unicode="&#x1c5;" horiz-adv-x="2241" 
d="M669 170q101 0 170 21q124 39 222 150q78 89 133 228q33 83 48 154q58 273 -18.5 424t-317.5 151h-353l-239 -1128h355zM390 1469h595q303 0 424 -215q108 -194 43 -497q-49 -234 -178 -423q-225 -334 -603 -334h-593zM1342 142l798 768h-588l34 161h830l-31 -147
l-793 -763h650l-34 -161h-896zM2070 1196h-190l-168 289h163l112 -192l158 192h164z" />
    <glyph glyph-name="dzcaron" unicode="&#x1c6;" horiz-adv-x="2011" 
d="M578 119q125 0 228 107.5t146 308.5q43 203 -19 300.5t-184 97.5q-136 0 -242.5 -104t-149.5 -306q-37 -172 11.5 -288t209.5 -116zM943 1038q42 -30 87 -105l115 541h173l-313 -1474h-162l31 149q-84 -99 -179.5 -143t-206.5 -44q-179 0 -278 150.5t-45 400.5
q49 234 205 405.5t378 171.5q123 0 195 -52zM1114 142l798 768h-588l34 161h830l-31 -147l-793 -763h650l-34 -161h-896zM1862 1190h-190l-168 289h163l112 -192l158 192h164z" />
    <glyph glyph-name="LJ" unicode="&#x1c7;" horiz-adv-x="2010" 
d="M418 1469h199l-275 -1294h744l-37 -175h-943zM2050 438q-40 -186 -117 -289q-142 -188 -428 -188q-165 0 -263 89.5t-49 318.5l22 105h187l-22 -105q-26 -120 15 -180.5t154 -60.5q159 0 231 109q44 67 84 253l208 979h197z" />
    <glyph glyph-name="Lj" unicode="&#x1c8;" horiz-adv-x="1447" 
d="M424 1469h199l-275 -1294h744l-37 -175h-943zM1666 1261h-180l44 208h180zM991 -271q121 4 149 21.5t48 109.5l256 1206h180l-260 -1225q-25 -117 -75 -175q-84 -98 -259 -98q-13 0 -27.5 1t-44.5 4z" />
    <glyph glyph-name="lj" unicode="&#x1c9;" horiz-adv-x="759" 
d="M399 1469h180l-312 -1469h-180zM976 1261h-180l44 208h180zM301 -271q121 4 149 21.5t48 109.5l256 1206h180l-260 -1225q-25 -117 -75 -175q-84 -98 -259 -98q-13 0 -27.5 1t-44.5 4z" />
    <glyph glyph-name="NJ" unicode="&#x1ca;" horiz-adv-x="2279" 
d="M424 1469h235l489 -1190l253 1190h189l-312 -1469h-223l-501 1189l-252 -1189h-190zM2288 465q-40 -186 -117 -289q-142 -188 -428 -188q-165 0 -263 89.5t-49 318.5l22 105h187l-22 -105q-26 -120 15 -180.5t154 -60.5q159 0 231 109q44 67 84 253l208 979h197z" />
    <glyph glyph-name="Nj" unicode="&#x1cb;" horiz-adv-x="1776" 
d="M418 1469h235l489 -1190l253 1190h189l-312 -1469h-223l-501 1189l-252 -1189h-190zM2000 1261h-180l44 208h180zM1325 -271q121 4 149 21.5t48 109.5l256 1206h180l-260 -1225q-25 -117 -75 -175q-84 -98 -259 -98q-13 0 -27.5 1t-44.5 4z" />
    <glyph glyph-name="nj" unicode="&#x1cc;" horiz-adv-x="1441" 
d="M309 1071h171l-32 -152q96 94 189.5 135t197.5 41q228 0 274 -159q26 -87 -8 -249l-146 -687h-183l143 675q21 98 5 158q-27 100 -153 100q-64 0 -108 -13q-79 -22 -149 -88q-56 -53 -81.5 -109.5t-47.5 -161.5l-119 -561h-180zM1660 1261h-180l44 208h180zM985 -271
q121 4 149 21.5t48 109.5l256 1206h180l-260 -1225q-25 -117 -75 -175q-84 -98 -259 -98q-13 0 -27.5 1t-44.5 4z" />
    <glyph glyph-name="Acaron" unicode="&#x1cd;" horiz-adv-x="1366" 
d="M1037 602l-85 649l-375 -649h460zM895 1469h225l221 -1469h-218l-56 440h-581l-252 -440h-204zM1127 1585h-190l-168 289h163l112 -192l158 192h164z" />
    <glyph glyph-name="acaron" unicode="&#x1ce;" 
d="M486 117q95 0 194 44q165 73 201 239l30 145q-37 -21 -92 -35t-106 -20l-112 -14q-101 -13 -156 -41q-93 -47 -115 -150q-17 -78 30.5 -123t125.5 -45zM843 649q64 8 95 52q17 24 26 69q20 92 -37 133.5t-179 41.5q-141 0 -216 -76q-42 -42 -69 -125h-168
q47 198 187 275.5t303 77.5q189 0 291 -72t70 -224l-131 -617q-6 -28 1.5 -45t44.5 -17q12 0 27.5 1.5t33.5 4.5l-29 -133q-44 -12 -66.5 -15t-60.5 -3q-93 0 -121 66q-15 35 -10 99q-71 -72 -185 -125t-238 -53q-149 0 -224.5 90.5t-46.5 226.5q32 149 142.5 231t265.5 101
zM927 1185h-190l-168 289h163l112 -192l158 192h164z" />
    <glyph glyph-name="Icaron" unicode="&#x1cf;" horiz-adv-x="569" 
d="M513 1469h201l-312 -1469h-201zM724 1586h-190l-168 289h163l112 -192l158 192h164z" />
    <glyph glyph-name="icaron" unicode="&#x1d0;" horiz-adv-x="569" 
d="M415 1066h183l-226 -1066h-183zM617 1201h-190l-168 289h163l112 -192l158 192h164z" />
    <glyph glyph-name="Ocaron" unicode="&#x1d1;" horiz-adv-x="1593" 
d="M1633 1259q105 -195 40 -499q-70 -329 -283 -547q-251 -256 -614 -256q-339 0 -485 224q-127 216 -57 546q63 298 256 510q248 272 620 272q389 0 523 -250zM1468 757q55 259 -46.5 417t-336.5 158q-228 0 -405.5 -156.5t-242.5 -461.5q-52 -244 36 -411.5t365 -167.5
q263 0 420.5 188.5t209.5 433.5zM1282 1614h-190l-168 289h163l112 -192l158 192h164z" />
    <glyph glyph-name="ocaron" unicode="&#x1d2;" 
d="M986 553q32 150 4 244q-45 148 -231 148q-165 0 -266.5 -126t-139.5 -304q-36 -171 14.5 -285t213.5 -114q179 0 274.5 135.5t130.5 301.5zM1175 558q-55 -259 -217 -428t-427 -169q-221 0 -319 149.5t-45 401.5q58 270 229 430t402 160q207 0 320.5 -138t56.5 -406z
M938 1200h-190l-168 289h163l112 -192l158 192h164z" />
    <glyph glyph-name="Ucaron" unicode="&#x1d3;" horiz-adv-x="1479" 
d="M684 1469l-193 -908q-34 -160 3 -266q55 -160 266 -160q253 0 381 173q69 94 103 253l193 908h202l-176 -825q-57 -271 -161 -417q-191 -266 -563 -266t-448 266q-42 146 15 417l176 825h202zM1149 1549h-190l-168 289h163l112 -192l158 192h164z" />
    <glyph glyph-name="ucaron" unicode="&#x1d4;" 
d="M539 1071l-151 -711q-17 -82 -2 -134q27 -96 158 -96q188 0 292 168q56 90 89 247l112 526h180l-227 -1071h-170l35 158q-48 -61 -109 -103q-121 -84 -268 -84q-229 0 -279 153q-28 82 1 219l155 728h184zM879 1169h-190l-168 289h163l112 -192l158 192h164z" />
    <glyph glyph-name="Udieresismacron" unicode="&#x1d5;" horiz-adv-x="1479" 
d="M684 1469l-193 -908q-34 -160 3 -266q55 -160 266 -160q253 0 381 173q69 94 103 253l193 908h202l-176 -825q-57 -271 -161 -417q-191 -266 -563 -266t-448 266q-42 146 15 417l176 825h202zM1197 1769h187l-45 -208h-187zM867 1769h187l-45 -208h-187zM878 2005h640
l-23 -118h-640z" />
    <glyph glyph-name="udieresismacron" unicode="&#x1d6;" 
d="M539 1071l-151 -711q-17 -82 -2 -134q27 -96 158 -96q188 0 292 168q56 90 89 247l112 526h180l-227 -1071h-170l35 158q-48 -61 -109 -103q-121 -84 -268 -84q-229 0 -279 153q-28 82 1 219l155 728h184zM917 1368h187l-45 -208h-187zM587 1368h187l-45 -208h-187z
M581 1595h640l-23 -118h-640z" />
    <glyph glyph-name="Udieresisacute" unicode="&#x1d7;" horiz-adv-x="1479" 
d="M684 1469l-193 -908q-34 -160 3 -266q55 -160 266 -160q253 0 381 173q69 94 103 253l193 908h202l-176 -825q-57 -271 -161 -417q-191 -266 -563 -266t-448 266q-42 146 15 417l176 825h202zM1175 1747h187l-45 -208h-187zM845 1747h187l-45 -208h-187zM1479 2115
l-294 -289h-138l210 289h222z" />
    <glyph glyph-name="udieresisacute" unicode="&#x1d8;" 
d="M539 1071l-151 -711q-17 -82 -2 -134q27 -96 158 -96q188 0 292 168q56 90 89 247l112 526h180l-227 -1071h-170l35 158q-48 -61 -109 -103q-121 -84 -268 -84q-229 0 -279 153q-28 82 1 219l155 728h184zM925 1369h187l-45 -208h-187zM595 1369h187l-45 -208h-187z
M1220 1743l-294 -289h-138l210 289h222z" />
    <glyph glyph-name="Udieresiscaron" unicode="&#x1d9;" horiz-adv-x="1479" 
d="M684 1469l-193 -908q-34 -160 3 -266q55 -160 266 -160q253 0 381 173q69 94 103 253l193 908h202l-176 -825q-57 -271 -161 -417q-191 -266 -563 -266t-448 266q-42 146 15 417l176 825h202zM1186 1747h187l-45 -208h-187zM856 1747h187l-45 -208h-187zM1241 1838h-190
l-168 289h163l112 -192l158 192h164z" />
    <glyph glyph-name="udieresiscaron" unicode="&#x1da;" 
d="M539 1071l-151 -711q-17 -82 -2 -134q27 -96 158 -96q188 0 292 168q56 90 89 247l112 526h180l-227 -1071h-170l35 158q-48 -61 -109 -103q-121 -84 -268 -84q-229 0 -279 153q-28 82 1 219l155 728h184zM922 1348h187l-45 -208h-187zM592 1348h187l-45 -208h-187z
M975 1431h-190l-168 289h163l112 -192l158 192h164z" />
    <glyph glyph-name="Udieresisgrave" unicode="&#x1db;" horiz-adv-x="1479" 
d="M684 1469l-193 -908q-34 -160 3 -266q55 -160 266 -160q253 0 381 173q69 94 103 253l193 908h202l-176 -825q-57 -271 -161 -417q-191 -266 -563 -266t-448 266q-42 146 15 417l176 825h202zM1189 1726h187l-45 -208h-187zM859 1726h187l-45 -208h-187zM1309 1804h-137
l-244 289h223z" />
    <glyph glyph-name="udieresisgrave" unicode="&#x1dc;" 
d="M539 1071l-151 -711q-17 -82 -2 -134q27 -96 158 -96q188 0 292 168q56 90 89 247l112 526h180l-227 -1071h-170l35 158q-48 -61 -109 -103q-121 -84 -268 -84q-229 0 -279 153q-28 82 1 219l155 728h184zM914 1345h187l-45 -208h-187zM584 1345h187l-45 -208h-187z
M1069 1405h-137l-244 289h223z" />
    <glyph glyph-name="eturned" unicode="&#x1dd;" 
d="M192 153q-37 81 -32 189q0 74 34 236h785q30 163 -21 261.5t-202 98.5q-141 0 -245 -93q-59 -54 -94 -125h-177q19 59 74 131.5t114 118.5q99 80 226 108q68 16 150 16q200 0 308 -145.5t52 -407.5q-54 -258 -228.5 -419t-400.5 -161q-114 0 -209.5 53.5t-133.5 138.5z
M349 435q-14 -117 11 -187q47 -130 220 -130q124 0 227 89.5t137 227.5h-595z" />
    <glyph glyph-name="Adieresismacron" unicode="&#x1de;" horiz-adv-x="1366" 
d="M1037 602l-85 649l-375 -649h460zM895 1469h225l221 -1469h-218l-56 440h-581l-252 -440h-204zM1120 1746h187l-45 -208h-187zM790 1746h187l-45 -208h-187zM790 1957h640l-23 -118h-640z" />
    <glyph glyph-name="adieresismacron" unicode="&#x1df;" 
d="M486 117q95 0 194 44q165 73 201 239l30 145q-37 -21 -92 -35t-106 -20l-112 -14q-101 -13 -156 -41q-93 -47 -115 -150q-17 -78 30.5 -123t125.5 -45zM843 649q64 8 95 52q17 24 26 69q20 92 -37 133.5t-179 41.5q-141 0 -216 -76q-42 -42 -69 -125h-168
q47 198 187 275.5t303 77.5q189 0 291 -72t70 -224l-131 -617q-6 -28 1.5 -45t44.5 -17q12 0 27.5 1.5t33.5 4.5l-29 -133q-44 -12 -66.5 -15t-60.5 -3q-93 0 -121 66q-15 35 -10 99q-71 -72 -185 -125t-238 -53q-149 0 -224.5 90.5t-46.5 226.5q32 149 142.5 231t265.5 101
zM982 1411h187l-45 -208h-187zM652 1411h187l-45 -208h-187zM645 1639h640l-23 -118h-640z" />
    <glyph glyph-name="Adotmacron" unicode="&#x1e0;" horiz-adv-x="1366" 
d="M1037 602l-85 649l-375 -649h460zM895 1469h225l221 -1469h-218l-56 440h-581l-252 -440h-204zM967 1768h187l-45 -208h-187zM798 1952h640l-23 -118h-640z" />
    <glyph glyph-name="adotmacron" unicode="&#x1e1;" 
d="M486 117q95 0 194 44q165 73 201 239l30 145q-37 -21 -92 -35t-106 -20l-112 -14q-101 -13 -156 -41q-93 -47 -115 -150q-17 -78 30.5 -123t125.5 -45zM843 649q64 8 95 52q17 24 26 69q20 92 -37 133.5t-179 41.5q-141 0 -216 -76q-42 -42 -69 -125h-168
q47 198 187 275.5t303 77.5q189 0 291 -72t70 -224l-131 -617q-6 -28 1.5 -45t44.5 -17q12 0 27.5 1.5t33.5 4.5l-29 -133q-44 -12 -66.5 -15t-60.5 -3q-93 0 -121 66q-15 35 -10 99q-71 -72 -185 -125t-238 -53q-149 0 -224.5 90.5t-46.5 226.5q32 149 142.5 231t265.5 101
zM817 1433h187l-45 -208h-187zM625 1649h640l-23 -118h-640z" />
    <glyph glyph-name="AEmacron" unicode="&#x1e2;" horiz-adv-x="2048" 
d="M1012 1298l-420 -694h472l147 694h-199zM925 1469h1316l-37 -175h-796l-96 -451h730l-36 -166h-730l-106 -502h815l-37 -175h-1012l92 436h-541l-255 -436h-216zM1226 1711h640l-23 -118h-640z" />
    <glyph glyph-name="aemacron" unicode="&#x1e3;" horiz-adv-x="1821" 
d="M1674 621q31 157 -35.5 237.5t-186.5 80.5t-224 -80.5t-147 -237.5h593zM897 545q-28 -17 -54 -26.5t-89 -19.5l-158 -23q-115 -18 -169 -45q-89 -46 -109 -144q-18 -84 36 -129t140 -45q49 0 119 25t136 77q59 46 84 94q16 30 36 101zM822 649q53 7 84 36t43 82
q18 86 -28.5 131t-169.5 45q-100 0 -167 -32q-112 -59 -136 -170h-173q58 226 243 309q106 47 274 47q133 0 217 -49q71 -43 98 -112q76 77 173.5 119t208.5 42q117 0 207 -41.5t135 -138.5q42 -80 39.5 -184.5t-34.5 -254.5h-787q-30 -166 26.5 -263t195.5 -97
q130 0 210 57t128 161h182q-26 -80 -102 -164.5t-149 -126.5q-80 -46 -156 -63.5t-153 -17.5q-147 0 -244 76q-88 77 -101 152q-107 -121 -223 -174.5t-238 -53.5q-172 0 -248 86t-47 222q38 178 178 266q89 56 221 73zM879 1327h640l-23 -118h-640z" />
    <glyph glyph-name="Gstroke" unicode="&#x1e4;" horiz-adv-x="1619" 
d="M1058 374l30 142h220q18 49 30 105h-460l36 165h645l-58 -270h194l-30 -142h-194l-79 -374h-128l-8 189q-125 -111 -212 -154q-147 -74 -349 -74q-261 0 -413 169q-160 212 -81 582q78 369 325 587q234 208 536 208q207 0 341 -80q194 -115 182 -403h-197
q-2 161 -99 234.5t-269 73.5q-204 0 -376 -153t-237 -456q-56 -262 24.5 -426.5t340.5 -164.5q199 0 353 115q68 50 116 127h-183z" />
    <glyph glyph-name="gstroke" unicode="&#x1e5;" horiz-adv-x="1224" 
d="M938 1028q44 -35 82 -102l29 135h166l-95 -445h205l-30 -142h-205l-82 -387q-43 -204 -128 -322q-159 -218 -470 -218q-173 0 -274.5 77.5t-80.5 242.5h183q-2 -72 29 -111q48 -60 179 -60q207 0 302 146q56 86 100 307q-71 -82 -155.5 -122t-209.5 -40
q-174 0 -278.5 123.5t-43.5 408.5q57 269 220.5 420t349.5 151q126 0 207 -62zM688 474l30 142h232q18 142 -31 219q-62 96 -189 96q-190 0 -297 -178q-58 -95 -90 -249q-39 -181 14.5 -275.5t177.5 -94.5q194 0 310 175q48 73 76 165h-233z" />
    <glyph glyph-name="Gcaron" unicode="&#x1e6;" horiz-adv-x="1593" 
d="M1452 1427q194 -115 182 -403h-197q-2 161 -99 234.5t-269 73.5q-204 0 -376 -153t-237 -456q-56 -262 24.5 -426.5t340.5 -164.5q199 0 354 115.5t212 373.5h-460l36 165h645l-167 -786h-128l-8 189q-125 -111 -212 -154q-147 -74 -349 -74q-261 0 -413 169
q-160 212 -81 582q78 369 325 587q234 208 536 208q207 0 341 -80zM1242 1599h-190l-168 289h163l112 -192l158 192h164z" />
    <glyph glyph-name="gcaron" unicode="&#x1e7;" 
d="M948 1028q44 -35 82 -102l29 135h166l-207 -974q-43 -204 -128 -322q-159 -218 -470 -218q-173 0 -274.5 77.5t-80.5 242.5h183q-2 -72 29 -111q48 -60 179 -60q207 0 302 146q56 86 100 307q-71 -82 -155.5 -122t-209.5 -40q-174 0 -278.5 123.5t-43.5 408.5
q57 269 220.5 420t349.5 151q126 0 207 -62zM740 931q-190 0 -297 -178q-58 -95 -90 -249q-39 -181 14.5 -275.5t177.5 -94.5q194 0 310 175q65 99 93 231q43 199 -19 295t-189 96zM906 1201h-190l-168 289h163l112 -192l158 192h164z" />
    <glyph glyph-name="Kcaron" unicode="&#x1e8;" horiz-adv-x="1366" 
d="M468 1469h194l-152 -716l868 716h275l-737 -592l442 -877h-259l-358 737l-283 -225l-108 -512h-194zM1107 1542h-190l-168 289h163l112 -192l158 192h164z" />
    <glyph glyph-name="kcaron" unicode="&#x1e9;" horiz-adv-x="1024" 
d="M440 1469h173l-182 -853l559 455h230l-495 -401l291 -670h-230l-220 540l-180 -138l-85 -402h-173zM942 1532h-190l-168 289h163l112 -192l158 192h164z" />
    <glyph glyph-name="Oogonek" unicode="&#x1ea;" horiz-adv-x="1593" 
d="M1633 1259q105 -195 40 -499q-70 -329 -283 -547q-251 -256 -614 -256q-339 0 -485 224q-127 216 -57 546q63 298 256 510q248 272 620 272q389 0 523 -250zM1468 757q55 259 -46.5 417t-336.5 158q-228 0 -405.5 -156.5t-242.5 -461.5q-52 -244 36 -411.5t365 -167.5
q263 0 420.5 188.5t209.5 433.5zM880 -33l-73 -48q-90 -60 -120.5 -91.5t-40.5 -70.5q-11 -37 8 -64t70 -27q27 0 45.5 5t40.5 16l-37 -131q-38 -14 -65 -21q-54 -13 -106 -13q-96 0 -130.5 56t-14.5 126q22 81 99 146q61 52 177 117h147z" />
    <glyph glyph-name="oogonek" unicode="&#x1eb;" 
d="M986 553q32 150 4 244q-45 148 -231 148q-165 0 -266.5 -126t-139.5 -304q-36 -171 14.5 -285t213.5 -114q179 0 274.5 135.5t130.5 301.5zM1175 558q-55 -259 -217 -428t-427 -169q-221 0 -319 149.5t-45 401.5q58 270 229 430t402 160q207 0 320.5 -138t56.5 -406z
M643 -29l-73 -48q-90 -60 -120.5 -91.5t-40.5 -70.5q-11 -37 8 -64t70 -27q27 0 45.5 5t40.5 16l-37 -131q-38 -14 -65 -21q-54 -13 -106 -13q-96 0 -130.5 56t-14.5 126q22 81 99 146q61 52 177 117h147z" />
    <glyph glyph-name="Oogonekmacron" unicode="&#x1ec;" horiz-adv-x="1593" 
d="M1633 1259q105 -195 40 -499q-70 -329 -283 -547q-251 -256 -614 -256q-339 0 -485 224q-127 216 -57 546q63 298 256 510q248 272 620 272q389 0 523 -250zM1468 757q55 259 -46.5 417t-336.5 158q-228 0 -405.5 -156.5t-242.5 -461.5q-52 -244 36 -411.5t365 -167.5
q263 0 420.5 188.5t209.5 433.5zM880 -33l-73 -48q-90 -60 -120.5 -91.5t-40.5 -70.5q-11 -37 8 -64t70 -27q27 0 45.5 5t40.5 16l-37 -131q-38 -14 -65 -21q-54 -13 -106 -13q-96 0 -130.5 56t-14.5 126q22 81 99 146q61 52 177 117h147zM856 1729h640l-23 -118h-640z" />
    <glyph glyph-name="oogonekmacron" unicode="&#x1ed;" 
d="M986 553q32 150 4 244q-45 148 -231 148q-165 0 -266.5 -126t-139.5 -304q-36 -171 14.5 -285t213.5 -114q179 0 274.5 135.5t130.5 301.5zM1175 558q-55 -259 -217 -428t-427 -169q-221 0 -319 149.5t-45 401.5q58 270 229 430t402 160q207 0 320.5 -138t56.5 -406z
M643 -29l-73 -48q-90 -60 -120.5 -91.5t-40.5 -70.5q-11 -37 8 -64t70 -27q27 0 45.5 5t40.5 16l-37 -131q-38 -14 -65 -21q-54 -13 -106 -13q-96 0 -130.5 56t-14.5 126q22 81 99 146q61 52 177 117h147zM504 1332h640l-23 -118h-640z" />
    <glyph glyph-name="Ezhcaron" unicode="&#x1ee;" horiz-adv-x="1100" 
d="M656 831l100 10q172 0 203.5 -138.5t-2.5 -298.5q-34 -161 -142.5 -211t-254.5 -50q-112 0 -193 68.5t-81 187.5h-175q-15 -213 114 -311.5t316 -98.5q210 0 385 93.5t224 323.5q60 282 -44 439q-79 121 -224 148l426 312l35 164h-992l-35 -164h760l-652 -474h232z
M963 1613h-190l-141 289h163l94 -192l176 192h164z" />
    <glyph glyph-name="ezhcaron" unicode="&#x1ef;" horiz-adv-x="1002" 
d="M472 428l101 10q172 0 203.5 -138.5t-2.5 -298.5q-35 -161 -140.5 -221t-251.5 -60q-112 0 -146 78.5t-33 197.5h-175q-16 -213 66 -321.5t269 -108.5q210 0 382 103.5t221 333.5q60 282 -44 439q-79 121 -224 148l426 312l35 164h-892l-35 -164h660l-652 -474h232z
M840 1213h-190l-141 289h163l94 -192l176 192h164z" />
    <glyph glyph-name="jcaron" unicode="&#x1f0;" horiz-adv-x="455" 
d="M-95 -271q121 4 149 21.5t48 109.5l256 1206h180l-260 -1225q-25 -117 -75 -175q-84 -98 -259 -98q-13 0 -27.5 1t-44.5 4zM561 1202h-190l-168 289h163l112 -192l158 192h164z" />
    <glyph glyph-name="DZ" unicode="&#x1f1;" horiz-adv-x="2509" 
d="M674 170q101 0 170 21q124 39 222 150q78 89 133 228q33 83 48 154q58 273 -18.5 424t-317.5 151h-353l-239 -1128h355zM395 1469h595q303 0 424 -215q108 -194 43 -497q-49 -234 -178 -423q-225 -334 -603 -334h-593zM1327 170l1141 1129h-835l37 175h1091l-37 -171
l-1144 -1123h906l-37 -175h-1157z" />
    <glyph glyph-name="Dz" unicode="&#x1f2;" horiz-adv-x="2300" 
d="M701 170q101 0 170 21q124 39 222 150q78 89 133 228q33 83 48 154q58 273 -18.5 424t-317.5 151h-353l-239 -1128h355zM422 1469h595q303 0 424 -215q108 -194 43 -497q-49 -234 -178 -423q-225 -334 -603 -334h-593zM1374 142l798 768h-588l34 161h830l-31 -147
l-793 -763h650l-34 -161h-896z" />
    <glyph glyph-name="dz" unicode="&#x1f3;" horiz-adv-x="2043" 
d="M578 119q125 0 228 107.5t146 308.5q43 203 -19 300.5t-184 97.5q-136 0 -242.5 -104t-149.5 -306q-37 -172 11.5 -288t209.5 -116zM943 1038q42 -30 87 -105l115 541h173l-313 -1474h-162l31 149q-84 -99 -179.5 -143t-206.5 -44q-179 0 -278 150.5t-45 400.5
q49 234 205 405.5t378 171.5q123 0 195 -52zM1109 142l798 768h-588l34 161h830l-31 -147l-793 -763h650l-34 -161h-896z" />
    <glyph glyph-name="Gacute" unicode="&#x1f4;" horiz-adv-x="1593" 
d="M1452 1427q194 -115 182 -403h-197q-2 161 -99 234.5t-269 73.5q-204 0 -376 -153t-237 -456q-56 -262 24.5 -426.5t340.5 -164.5q199 0 354 115.5t212 373.5h-460l36 165h645l-167 -786h-128l-8 189q-125 -111 -212 -154q-147 -74 -349 -74q-261 0 -413 169
q-160 212 -81 582q78 369 325 587q234 208 536 208q207 0 341 -80zM1481 1877l-294 -289h-138l210 289h222z" />
    <glyph glyph-name="gacute" unicode="&#x1f5;" 
d="M948 1028q44 -35 82 -102l29 135h166l-207 -974q-43 -204 -128 -322q-159 -218 -470 -218q-173 0 -274.5 77.5t-80.5 242.5h183q-2 -72 29 -111q48 -60 179 -60q207 0 302 146q56 86 100 307q-71 -82 -155.5 -122t-209.5 -40q-174 0 -278.5 123.5t-43.5 408.5
q57 269 220.5 420t349.5 151q126 0 207 -62zM740 931q-190 0 -297 -178q-58 -95 -90 -249q-39 -181 14.5 -275.5t177.5 -94.5q194 0 310 175q65 99 93 231q43 199 -19 295t-189 96zM1158 1479l-294 -289h-138l210 289h222z" />
    <glyph glyph-name="Wynn" unicode="&#x1f7;" horiz-adv-x="1366" 
d="M487 1469h661q196 0 292.5 -110.5t53.5 -310.5q-36 -172 -176.5 -329.5t-381.5 -247.5l-494 -150l-68 -321h-199zM1220 1267q-60 31 -175 31h-396l-172 -809l428 150q145 50 245 127t143 281q34 162 -73 220z" />
    <glyph glyph-name="Ngrave" unicode="&#x1f8;" horiz-adv-x="1479" 
d="M468 1469h235l489 -1190l253 1190h189l-312 -1469h-223l-501 1189l-252 -1189h-190zM1241 1537h-137l-244 289h223z" />
    <glyph glyph-name="ngrave" unicode="&#x1f9;" 
d="M359 1071h171l-32 -152q96 94 189.5 135t197.5 41q228 0 274 -159q26 -87 -8 -249l-146 -687h-183l143 675q21 98 5 158q-27 100 -153 100q-64 0 -108 -13q-79 -22 -149 -88q-56 -53 -81.5 -109.5t-47.5 -161.5l-119 -561h-180zM1014 1220h-137l-244 289h223z" />
    <glyph glyph-name="Aringacute" unicode="&#x1fa;" horiz-adv-x="1366" 
d="M1037 602l-85 649l-375 -649h460zM895 1469h225l221 -1469h-218l-56 440h-581l-252 -440h-204zM1040 1631q52 0 98 37t59 89q12 52 -17 89t-81 37q-51 0 -96 -37t-57 -89q-13 -52 15 -89t79 -37zM1120 1966q86 0 133 -61.5t27 -147.5q-23 -86 -99 -147.5t-162 -61.5
t-132.5 61.5t-23.5 147.5q20 86 95.5 147.5t161.5 61.5zM1546 2331l-294 -289h-138l210 289h222z" />
    <glyph glyph-name="aringacute" unicode="&#x1fb;" 
d="M486 117q95 0 194 44q165 73 201 239l30 145q-37 -21 -92 -35t-106 -20l-112 -14q-101 -13 -156 -41q-93 -47 -115 -150q-17 -78 30.5 -123t125.5 -45zM843 649q64 8 95 52q17 24 26 69q20 92 -37 133.5t-179 41.5q-141 0 -216 -76q-42 -42 -69 -125h-168
q47 198 187 275.5t303 77.5q189 0 291 -72t70 -224l-131 -617q-6 -28 1.5 -45t44.5 -17q12 0 27.5 1.5t33.5 4.5l-29 -133q-44 -12 -66.5 -15t-60.5 -3q-93 0 -121 66q-15 35 -10 99q-71 -72 -185 -125t-238 -53q-149 0 -224.5 90.5t-46.5 226.5q32 149 142.5 231t265.5 101
zM863 1241q52 0 98 37t59 89q12 52 -17 89t-81 37q-51 0 -96 -37t-57 -89q-13 -52 15 -89t79 -37zM943 1576q86 0 133 -61.5t27 -147.5q-23 -86 -99 -147.5t-162 -61.5t-132.5 61.5t-23.5 147.5q20 86 95.5 147.5t161.5 61.5zM1364 1936l-294 -289h-138l210 289h222z" />
    <glyph glyph-name="AEacute" unicode="&#x1fc;" horiz-adv-x="2048" 
d="M1012 1298l-420 -694h472l147 694h-199zM925 1469h1316l-37 -175h-796l-96 -451h730l-36 -166h-730l-106 -502h815l-37 -175h-1012l92 436h-541l-255 -436h-216zM1819 1832l-294 -289h-138l210 289h222z" />
    <glyph glyph-name="aeacute" unicode="&#x1fd;" horiz-adv-x="1821" 
d="M1674 621q31 157 -35.5 237.5t-186.5 80.5t-224 -80.5t-147 -237.5h593zM897 545q-28 -17 -54 -26.5t-89 -19.5l-158 -23q-115 -18 -169 -45q-89 -46 -109 -144q-18 -84 36 -129t140 -45q49 0 119 25t136 77q59 46 84 94q16 30 36 101zM822 649q53 7 84 36t43 82
q18 86 -28.5 131t-169.5 45q-100 0 -167 -32q-112 -59 -136 -170h-173q58 226 243 309q106 47 274 47q133 0 217 -49q71 -43 98 -112q76 77 173.5 119t208.5 42q117 0 207 -41.5t135 -138.5q42 -80 39.5 -184.5t-34.5 -254.5h-787q-30 -166 26.5 -263t195.5 -97
q130 0 210 57t128 161h182q-26 -80 -102 -164.5t-149 -126.5q-80 -46 -156 -63.5t-153 -17.5q-147 0 -244 76q-88 77 -101 152q-107 -121 -223 -174.5t-238 -53.5q-172 0 -248 86t-47 222q38 178 178 266q89 56 221 73zM1486 1498l-294 -289h-138l210 289h222z" />
    <glyph glyph-name="Ostrokeacute" unicode="&#x1fe;" horiz-adv-x="1593" 
d="M840 135q268 0 447 224q132 166 181 398q28 130 13 239q-8 59 -34 129l-950 -846q52 -70 126 -107t217 -37zM124 -36l-53 62l213 180q-59 107 -70 240.5t20 280.5q65 304 267 520q245 263 600 263q177 0 291.5 -44.5t179.5 -121.5l189 165l51 -61l-193 -173
q42 -70 66 -177q29 -147 -12 -338q-77 -364 -330 -586q-246 -217 -559 -217q-187 0 -310 63q-79 40 -144 117zM1302 1281q-92 51 -224 51q-225 0 -400.5 -157.5t-240.5 -460.5q-20 -95 -20.5 -191t35.5 -175l955 846q-54 59 -105 87zM1417 1882l-294 -289h-138l210 289h222z
" />
    <glyph glyph-name="ostrokeacute" unicode="&#x1ff;" horiz-adv-x="1251" 
d="M818 945q-145 0 -258 -121.5t-154 -312.5q-15 -72 -14 -138q1 -37 10 -94l623 564q-19 43 -75 72.5t-132 29.5zM634 116q189 0 306 178q71 107 100 246q19 90 18 155q0 35 -9 82l-616 -564q37 -57 89.5 -77t111.5 -20zM92 4l157 135q-34 74 -41.5 166t19.5 218
q48 227 212 403.5t406 176.5q126 0 211 -46q50 -27 109 -88l156 142l41 -50l-159 -144q44 -92 46 -211q0 -77 -16 -154q-55 -258 -229.5 -425.5t-405.5 -167.5q-110 0 -189 32.5t-120 88.5l-149 -128zM1179 1492l-294 -289h-138l210 289h222z" />
    <glyph glyph-name="Adblgrave" unicode="&#x200;" horiz-adv-x="1366" 
d="M1037 602l-85 649l-375 -649h460zM895 1469h225l221 -1469h-218l-56 440h-581l-252 -440h-204zM957 1580h-127l-225 291h214zM1288 1580h-124l-228 291h216z" />
    <glyph glyph-name="adblgrave" unicode="&#x201;" 
d="M486 117q95 0 194 44q165 73 201 239l30 145q-37 -21 -92 -35t-106 -20l-112 -14q-101 -13 -156 -41q-93 -47 -115 -150q-17 -78 30.5 -123t125.5 -45zM843 649q64 8 95 52q17 24 26 69q20 92 -37 133.5t-179 41.5q-141 0 -216 -76q-42 -42 -69 -125h-168
q47 198 187 275.5t303 77.5q189 0 291 -72t70 -224l-131 -617q-6 -28 1.5 -45t44.5 -17q12 0 27.5 1.5t33.5 4.5l-29 -133q-44 -12 -66.5 -15t-60.5 -3q-93 0 -121 66q-15 35 -10 99q-71 -72 -185 -125t-238 -53q-149 0 -224.5 90.5t-46.5 226.5q32 149 142.5 231t265.5 101
zM779 1209h-127l-225 291h214zM1110 1209h-124l-228 291h216z" />
    <glyph glyph-name="Ainvertedbreve" unicode="&#x202;" horiz-adv-x="1366" 
d="M1037 602l-85 649l-375 -649h460zM895 1469h225l221 -1469h-218l-56 440h-581l-252 -440h-204zM1235 1512q-7 65 -34 98q-48 59 -166 59q-109 0 -171 -59q-35 -34 -60 -98h-99q39 147 131 212t234 65q177 0 239 -119q30 -62 26 -158h-100z" />
    <glyph glyph-name="ainvertedbreve" unicode="&#x203;" 
d="M486 117q95 0 194 44q165 73 201 239l30 145q-37 -21 -92 -35t-106 -20l-112 -14q-101 -13 -156 -41q-93 -47 -115 -150q-17 -78 30.5 -123t125.5 -45zM843 649q64 8 95 52q17 24 26 69q20 92 -37 133.5t-179 41.5q-141 0 -216 -76q-42 -42 -69 -125h-168
q47 198 187 275.5t303 77.5q189 0 291 -72t70 -224l-131 -617q-6 -28 1.5 -45t44.5 -17q12 0 27.5 1.5t33.5 4.5l-29 -133q-44 -12 -66.5 -15t-60.5 -3q-93 0 -121 66q-15 35 -10 99q-71 -72 -185 -125t-238 -53q-149 0 -224.5 90.5t-46.5 226.5q32 149 142.5 231t265.5 101
zM1069 1209q-7 65 -34 98q-48 59 -166 59q-109 0 -171 -59q-35 -34 -60 -98h-99q39 147 131 212t234 65q177 0 239 -119q30 -62 26 -158h-100z" />
    <glyph glyph-name="Edblgrave" unicode="&#x204;" horiz-adv-x="1366" 
d="M487 1469h1071l-39 -180h-877l-94 -446h811l-36 -170h-811l-106 -498h892l-37 -175h-1086zM1025 1571h-127l-225 291h214zM1356 1571h-124l-228 291h216z" />
    <glyph glyph-name="edblgrave" unicode="&#x205;" 
d="M1153 903q37 -81 32 -189q1 -74 -34 -236h-785q-30 -163 21.5 -261.5t202.5 -98.5q141 0 244 93q60 54 95 125h177q-20 -59 -74.5 -131.5t-113.5 -118.5q-99 -80 -226 -108q-69 -16 -151 -16q-200 0 -308 145.5t-52 407.5q55 258 229 419t400 161q114 0 210 -53.5
t133 -138.5zM996 621q14 117 -11 187q-46 130 -219 130q-124 0 -227 -89.5t-138 -227.5h595zM791 1209h-127l-225 291h214zM1122 1209h-124l-228 291h216z" />
    <glyph glyph-name="Einvertedbreve" unicode="&#x206;" horiz-adv-x="1366" 
d="M487 1469h1071l-39 -180h-877l-94 -446h811l-36 -170h-811l-106 -498h892l-37 -175h-1086zM1276 1571q-7 65 -34 98q-48 59 -166 59q-109 0 -171 -59q-35 -34 -60 -98h-99q39 147 131 212t234 65q177 0 239 -119q30 -62 26 -158h-100z" />
    <glyph glyph-name="einvertedbreve" unicode="&#x207;" 
d="M1153 903q37 -81 32 -189q1 -74 -34 -236h-785q-30 -163 21.5 -261.5t202.5 -98.5q141 0 244 93q60 54 95 125h177q-20 -59 -74.5 -131.5t-113.5 -118.5q-99 -80 -226 -108q-69 -16 -151 -16q-200 0 -308 145.5t-52 407.5q55 258 229 419t400 161q114 0 210 -53.5
t133 -138.5zM996 621q14 117 -11 187q-46 130 -219 130q-124 0 -227 -89.5t-138 -227.5h595zM1042 1209q-7 65 -34 98q-48 59 -166 59q-109 0 -171 -59q-35 -34 -60 -98h-99q39 147 131 212t234 65q177 0 239 -119q30 -62 26 -158h-100z" />
    <glyph glyph-name="Idblgrave" unicode="&#x208;" horiz-adv-x="569" 
d="M513 1469h201l-312 -1469h-201zM551 1593h-127l-225 291h214zM882 1593h-124l-228 291h216z" />
    <glyph glyph-name="idblgrave" unicode="&#x209;" horiz-adv-x="455" 
d="M366 1066h183l-226 -1066h-183zM434 1211h-127l-225 291h214zM765 1211h-124l-228 291h216z" />
    <glyph glyph-name="Iinvertedbreve" unicode="&#x20a;" horiz-adv-x="569" 
d="M513 1469h201l-312 -1469h-201zM851 1571q-7 65 -34 98q-48 59 -166 59q-109 0 -171 -59q-35 -34 -60 -98h-99q39 147 131 212t234 65q177 0 239 -119q30 -62 26 -158h-100z" />
    <glyph glyph-name="iinvertedbreve" unicode="&#x20b;" horiz-adv-x="455" 
d="M366 1066h183l-226 -1066h-183zM716 1222q-7 65 -34 98q-48 59 -166 59q-109 0 -171 -59q-35 -34 -60 -98h-99q39 147 131 212t234 65q177 0 239 -119q30 -62 26 -158h-100z" />
    <glyph glyph-name="Odblgrave" unicode="&#x20c;" horiz-adv-x="1593" 
d="M1633 1259q105 -195 40 -499q-70 -329 -283 -547q-251 -256 -614 -256q-339 0 -485 224q-127 216 -57 546q63 298 256 510q248 272 620 272q389 0 523 -250zM1468 757q55 259 -46.5 417t-336.5 158q-228 0 -405.5 -156.5t-242.5 -461.5q-52 -244 36 -411.5t365 -167.5
q263 0 420.5 188.5t209.5 433.5zM1085 1624h-127l-225 291h214zM1416 1624h-124l-228 291h216z" />
    <glyph glyph-name="odblgrave" unicode="&#x20d;" 
d="M986 553q32 150 4 244q-45 148 -231 148q-165 0 -266.5 -126t-139.5 -304q-36 -171 14.5 -285t213.5 -114q179 0 274.5 135.5t130.5 301.5zM1175 558q-55 -259 -217 -428t-427 -169q-221 0 -319 149.5t-45 401.5q58 270 229 430t402 160q207 0 320.5 -138t56.5 -406z
M789 1211h-127l-225 291h214zM1120 1211h-124l-228 291h216z" />
    <glyph glyph-name="Oinvertedbreve" unicode="&#x20e;" horiz-adv-x="1593" 
d="M1633 1259q105 -195 40 -499q-70 -329 -283 -547q-251 -256 -614 -256q-339 0 -485 224q-127 216 -57 546q63 298 256 510q248 272 620 272q389 0 523 -250zM1468 757q55 259 -46.5 417t-336.5 158q-228 0 -405.5 -156.5t-242.5 -461.5q-52 -244 36 -411.5t365 -167.5
q263 0 420.5 188.5t209.5 433.5zM1376 1606q-7 65 -34 98q-48 59 -166 59q-109 0 -171 -59q-35 -34 -60 -98h-99q39 147 131 212t234 65q177 0 239 -119q30 -62 26 -158h-100z" />
    <glyph glyph-name="oinvertedbreve" unicode="&#x20f;" 
d="M986 553q32 150 4 244q-45 148 -231 148q-165 0 -266.5 -126t-139.5 -304q-36 -171 14.5 -285t213.5 -114q179 0 274.5 135.5t130.5 301.5zM1175 558q-55 -259 -217 -428t-427 -169q-221 0 -319 149.5t-45 401.5q58 270 229 430t402 160q207 0 320.5 -138t56.5 -406z
M1062 1214q-7 65 -34 98q-48 59 -166 59q-109 0 -171 -59q-35 -34 -60 -98h-99q39 147 131 212t234 65q177 0 239 -119q30 -62 26 -158h-100z" />
    <glyph glyph-name="Rdblgrave" unicode="&#x210;" horiz-adv-x="1479" 
d="M1008 796q140 0 233.5 56t124.5 202q33 157 -69 214q-55 30 -157 30h-486l-106 -502h460zM492 1469h680q168 0 266 -49q187 -94 134 -347q-28 -132 -100.5 -216t-181.5 -135q79 -35 110 -92t9 -185l-35 -197q-15 -84 -12 -125q3 -70 45 -90l-7 -33h-244q-6 19 -6 49
t15 116l40 245q23 144 -66 193q-52 27 -174 27h-453l-133 -630h-199zM1097 1571h-127l-225 291h214zM1428 1571h-124l-228 291h216z" />
    <glyph glyph-name="rdblgrave" unicode="&#x211;" horiz-adv-x="682" 
d="M364 1071h171l-39 -185q32 54 130.5 131.5t205.5 77.5q5 0 17 -1t40 -4l-40 -190q-16 3 -29 4t-29 1q-136 0 -227.5 -87.5t-116.5 -201.5l-130 -616h-180zM627 1207h-127l-225 291h214zM958 1207h-124l-228 291h216z" />
    <glyph glyph-name="Rinvertedbreve" unicode="&#x212;" horiz-adv-x="1479" 
d="M1008 796q140 0 233.5 56t124.5 202q33 157 -69 214q-55 30 -157 30h-486l-106 -502h460zM492 1469h680q168 0 266 -49q187 -94 134 -347q-28 -132 -100.5 -216t-181.5 -135q79 -35 110 -92t9 -185l-35 -197q-15 -84 -12 -125q3 -70 45 -90l-7 -33h-244q-6 19 -6 49
t15 116l40 245q23 144 -66 193q-52 27 -174 27h-453l-133 -630h-199zM1235 1544q-7 65 -34 98q-48 59 -166 59q-109 0 -171 -59q-35 -34 -60 -98h-99q39 147 131 212t234 65q177 0 239 -119q30 -62 26 -158h-100z" />
    <glyph glyph-name="rinvertedbreve" unicode="&#x213;" horiz-adv-x="682" 
d="M364 1071h171l-39 -185q32 54 130.5 131.5t205.5 77.5q5 0 17 -1t40 -4l-40 -190q-16 3 -29 4t-29 1q-136 0 -227.5 -87.5t-116.5 -201.5l-130 -616h-180zM877 1207q-7 65 -34 98q-48 59 -166 59q-109 0 -171 -59q-35 -34 -60 -98h-99q39 147 131 212t234 65
q177 0 239 -119q30 -62 26 -158h-100z" />
    <glyph glyph-name="Udblgrave" unicode="&#x214;" horiz-adv-x="1479" 
d="M684 1469l-193 -908q-34 -160 3 -266q55 -160 266 -160q253 0 381 173q69 94 103 253l193 908h202l-176 -825q-57 -271 -161 -417q-191 -266 -563 -266t-448 266q-42 146 15 417l176 825h202zM1055 1571h-127l-225 291h214zM1386 1571h-124l-228 291h216z" />
    <glyph glyph-name="udblgrave" unicode="&#x215;" 
d="M539 1071l-151 -711q-17 -82 -2 -134q27 -96 158 -96q188 0 292 168q56 90 89 247l112 526h180l-227 -1071h-170l35 158q-48 -61 -109 -103q-121 -84 -268 -84q-229 0 -279 153q-28 82 1 219l155 728h184zM789 1209h-127l-225 291h214zM1120 1209h-124l-228 291h216z" />
    <glyph glyph-name="Uinvertedbreve" unicode="&#x216;" horiz-adv-x="1479" 
d="M684 1469l-193 -908q-34 -160 3 -266q55 -160 266 -160q253 0 381 173q69 94 103 253l193 908h202l-176 -825q-57 -271 -161 -417q-191 -266 -563 -266t-448 266q-42 146 15 417l176 825h202zM1306 1571q-7 65 -34 98q-48 59 -166 59q-109 0 -171 -59q-35 -34 -60 -98
h-99q39 147 131 212t234 65q177 0 239 -119q30 -62 26 -158h-100z" />
    <glyph glyph-name="uinvertedbreve" unicode="&#x217;" 
d="M539 1071l-151 -711q-17 -82 -2 -134q27 -96 158 -96q188 0 292 168q56 90 89 247l112 526h180l-227 -1071h-170l35 158q-48 -61 -109 -103q-121 -84 -268 -84q-229 0 -279 153q-28 82 1 219l155 728h184zM1040 1209q-7 65 -34 98q-48 59 -166 59q-109 0 -171 -59
q-35 -34 -60 -98h-99q39 147 131 212t234 65q177 0 239 -119q30 -62 26 -158h-100z" />
    <glyph glyph-name="Scommaaccent" unicode="&#x218;" horiz-adv-x="1366" 
d="M386 474q-19 -125 16 -203q68 -146 318 -146q112 0 211 32q191 62 225 222q26 120 -39 171q-65 50 -219 87l-190 45q-185 44 -255 97q-120 92 -81 275q42 198 206 325t415 127q231 0 368.5 -111.5t85.5 -356.5h-187q10 118 -25 181q-67 115 -285 115q-176 0 -268.5 -74
t-113.5 -172q-23 -108 56 -158q52 -32 250 -80l196 -47q142 -34 210 -93q119 -103 77 -299q-52 -244 -252 -349t-435 -105q-274 0 -399 140q-125 139 -72 377h187zM481 -519q58 9 94 77q20 36 27 70q1 6 1.5 10t0.5 10h-87l37 174h171l-34 -161q-20 -95 -74 -167t-152 -89z
" />
    <glyph glyph-name="scommaaccent" unicode="&#x219;" horiz-adv-x="1024" 
d="M310 336q-11 -90 16 -138q49 -87 217 -87q100 0 185.5 43.5t104.5 134.5q15 69 -39 105q-34 22 -143 51l-135 36q-130 34 -186 76q-101 73 -73 202q32 152 161.5 246t314.5 94q242 0 319 -142q48 -90 24 -194h-170q8 61 -20 111q-47 71 -200 71q-102 0 -162.5 -39
t-74.5 -103q-15 -70 45 -112q35 -25 109 -44l113 -29q184 -47 241 -91q90 -69 58 -217q-30 -143 -160.5 -247t-352.5 -104q-239 0 -315.5 108.5t-49.5 268.5h173zM306 -517q58 9 94 77q20 36 27 70q1 6 1.5 10t0.5 10h-87l37 174h171l-34 -161q-20 -95 -74 -167t-152 -89z
" />
    <glyph glyph-name="Tcommaaccent" unicode="&#x21a;" horiz-adv-x="1251" 
d="M1537 1469l-37 -175h-495l-275 -1294h-202l275 1294h-495l37 175h1192zM456 -476q58 10 94 78q20 35 27 69q1 6 1.5 10t0.5 10h-87l37 174h171l-34 -161q-20 -95 -74 -167t-152 -89z" />
    <glyph glyph-name="tcommaaccent" unicode="&#x21b;" horiz-adv-x="569" 
d="M459 1370h182l-64 -299h171l-31 -147h-171l-149 -699q-12 -56 22 -75q19 -11 68 -11q13 0 28 0.5t36 2.5l-30 -142q-33 -9 -67.5 -13t-73.5 -4q-126 0 -157.5 64.5t-9.5 167.5l151 709h-145l31 147h145zM122 -503q58 10 94 78q20 35 27 69q1 6 1.5 10t0.5 10h-87l37 174
h171l-34 -161q-20 -95 -74 -167t-152 -89z" />
    <glyph glyph-name="Yogh" unicode="&#x21c;" horiz-adv-x="1359" 
d="M709 110q176 0 296 96q112 81 142 226q58 272 -305 272q-27 0 -90 -4l35 162q206 3 301 48q121 48 153 196q25 120 -45.5 189t-218.5 69q-152 0 -403 -213l-109 129q301 244 559 244q238 0 350 -122q108 -117 66 -312q-37 -177 -252 -304q120 -58 155 -151q29 -80 1 -213
q-41 -193 -221 -330q-187 -141 -423 -141q-275 0 -506 157l166 109q186 -107 349 -107z" />
    <glyph glyph-name="yogh" unicode="&#x21d;" horiz-adv-x="1359" 
d="M618 -317q176 0 297 96q111 81 142 226q57 272 -306 272q-27 0 -89 -4l34 162q207 3 301 48q121 48 153 196q25 120 -45 189t-218 69q-152 0 -404 -213l-109 129q302 244 560 244q238 0 349 -122q108 -117 66 -312q-37 -177 -252 -304q120 -58 156 -151q29 -80 0 -213
q-41 -193 -221 -330q-187 -141 -423 -141q-275 0 -505 157l165 109q186 -107 349 -107z" />
    <glyph glyph-name="Hcaron" unicode="&#x21e;" horiz-adv-x="1479" 
d="M473 1469h201l-129 -607h764l129 607h201l-312 -1469h-201l146 687h-764l-146 -687h-201zM1168 1527h-190l-168 289h163l112 -192l158 192h164z" />
    <glyph glyph-name="hcaron" unicode="&#x21f;" 
d="M445 1474h180l-117 -548q82 81 140 114q99 57 229 57q233 0 281 -163q26 -89 -7 -247l-146 -687h-185l143 675q25 118 7 173q-31 88 -166 88q-112 0 -219 -77t-153 -291l-120 -568h-180zM955 1537h-190l-168 289h163l112 -192l158 192h164z" />
    <glyph glyph-name="uni0220" unicode="&#x220;" horiz-adv-x="1479" 
d="M482 1469h201l-15 -70q163 109 401 109q372 0 448 -266q42 -146 -15 -417l-260 -1222h-202l278 1305q34 160 -4 266q-55 160 -266 160q-253 0 -381 -173q-69 -94 -102 -253l-193 -908h-202z" />
    <glyph glyph-name="uni0226" unicode="&#x226;" horiz-adv-x="1366" 
d="M1037 602l-85 649l-375 -649h460zM895 1469h225l221 -1469h-218l-56 440h-581l-252 -440h-204zM974 1759h187l-45 -208h-187z" />
    <glyph glyph-name="uni0227" unicode="&#x227;" 
d="M486 117q95 0 194 44q165 73 201 239l30 145q-37 -21 -92 -35t-106 -20l-112 -14q-101 -13 -156 -41q-93 -47 -115 -150q-17 -78 30.5 -123t125.5 -45zM843 649q64 8 95 52q17 24 26 69q20 92 -37 133.5t-179 41.5q-141 0 -216 -76q-42 -42 -69 -125h-168
q47 198 187 275.5t303 77.5q189 0 291 -72t70 -224l-131 -617q-6 -28 1.5 -45t44.5 -17q12 0 27.5 1.5t33.5 4.5l-29 -133q-44 -12 -66.5 -15t-60.5 -3q-93 0 -121 66q-15 35 -10 99q-71 -72 -185 -125t-238 -53q-149 0 -224.5 90.5t-46.5 226.5q32 149 142.5 231t265.5 101
zM815 1472h187l-45 -208h-187z" />
    <glyph glyph-name="uni0228" unicode="&#x228;" horiz-adv-x="1366" 
d="M487 1469h1071l-39 -180h-877l-94 -446h811l-36 -170h-811l-106 -498h892l-37 -175h-1086zM749 0h97l-124 -128q31 9 77 9q70 0 107 -40.5t21 -115.5q-16 -76 -87.5 -131t-195.5 -55q-53 0 -107 15q-31 8 -79 28l52 81q35 -14 54 -20q37 -11 70 -11q37 0 68 11
q56 21 68 76q7 32 -14 55.5t-65 23.5q-22 0 -41 -4t-45 -13l-25 41z" />
    <glyph glyph-name="uni0229" unicode="&#x229;" 
d="M1153 903q37 -81 32 -189q1 -74 -34 -236h-785q-30 -163 21.5 -261.5t202.5 -98.5q141 0 244 93q60 54 95 125h177q-20 -59 -74.5 -131.5t-113.5 -118.5q-99 -80 -226 -108q-69 -16 -151 -16q-200 0 -308 145.5t-52 407.5q55 258 229 419t400 161q114 0 210 -53.5
t133 -138.5zM996 621q14 117 -11 187q-46 130 -219 130q-124 0 -227 -89.5t-138 -227.5h595zM523 -28h97l-124 -128q31 9 77 9q70 0 107 -40.5t21 -115.5q-16 -76 -87.5 -131t-195.5 -55q-53 0 -107 15q-31 8 -79 28l52 81q35 -14 54 -20q37 -11 70 -11q37 0 68 11
q56 21 68 76q7 32 -14 55.5t-65 23.5q-22 0 -41 -4t-45 -13l-25 41z" />
    <glyph glyph-name="uni022A" unicode="&#x22a;" horiz-adv-x="1593" 
d="M1633 1259q105 -195 40 -499q-70 -329 -283 -547q-251 -256 -614 -256q-339 0 -485 224q-127 216 -57 546q63 298 256 510q248 272 620 272q389 0 523 -250zM1468 757q55 259 -46.5 417t-336.5 158q-228 0 -405.5 -156.5t-242.5 -461.5q-52 -244 36 -411.5t365 -167.5
q263 0 420.5 188.5t209.5 433.5zM1316 1819h187l-45 -208h-187zM986 1819h187l-45 -208h-187zM979 2083h640l-23 -118h-640z" />
    <glyph glyph-name="uni022B" unicode="&#x22b;" 
d="M986 553q32 150 4 244q-45 148 -231 148q-165 0 -266.5 -126t-139.5 -304q-36 -171 14.5 -285t213.5 -114q179 0 274.5 135.5t130.5 301.5zM1175 558q-55 -259 -217 -428t-427 -169q-221 0 -319 149.5t-45 401.5q58 270 229 430t402 160q207 0 320.5 -138t56.5 -406z
M1014 1395h187l-45 -208h-187zM684 1395h187l-45 -208h-187zM693 1649h640l-23 -118h-640z" />
    <glyph glyph-name="uni022C" unicode="&#x22c;" horiz-adv-x="1593" 
d="M1633 1259q105 -195 40 -499q-70 -329 -283 -547q-251 -256 -614 -256q-339 0 -485 224q-127 216 -57 546q63 298 256 510q248 272 620 272q389 0 523 -250zM1468 757q55 259 -46.5 417t-336.5 158q-228 0 -405.5 -156.5t-242.5 -461.5q-52 -244 36 -411.5t365 -167.5
q263 0 420.5 188.5t209.5 433.5zM1248 1740q25 -12 47.5 -19t46.5 -7q56 0 86 35q15 19 26 57h105q-40 -127 -107.5 -175t-138.5 -48q-22 0 -54 8t-57 18l-50 19q-43 17 -72 25.5t-57 8.5q-35 0 -61 -23t-42 -70h-98q25 79 64 129q70 92 182 92q34 0 74 -10t106 -40z
M954 2000h640l-23 -118h-640z" />
    <glyph glyph-name="uni022D" unicode="&#x22d;" 
d="M986 553q32 150 4 244q-45 148 -231 148q-165 0 -266.5 -126t-139.5 -304q-36 -171 14.5 -285t213.5 -114q179 0 274.5 135.5t130.5 301.5zM1175 558q-55 -259 -217 -428t-427 -169q-221 0 -319 149.5t-45 401.5q58 270 229 430t402 160q207 0 320.5 -138t56.5 -406z
M894 1347q25 -12 47.5 -19t46.5 -7q56 0 86 35q15 19 26 57h105q-40 -127 -107.5 -175t-138.5 -48q-22 0 -54 8t-57 18l-50 19q-43 17 -72 25.5t-57 8.5q-35 0 -61 -23t-42 -70h-98q25 79 64 129q70 92 182 92q34 0 74 -10t106 -40zM582 1619h640l-23 -118h-640z" />
    <glyph glyph-name="uni022E" unicode="&#x22e;" horiz-adv-x="1593" 
d="M1633 1259q105 -195 40 -499q-70 -329 -283 -547q-251 -256 -614 -256q-339 0 -485 224q-127 216 -57 546q63 298 256 510q248 272 620 272q389 0 523 -250zM1468 757q55 259 -46.5 417t-336.5 158q-228 0 -405.5 -156.5t-242.5 -461.5q-52 -244 36 -411.5t365 -167.5
q263 0 420.5 188.5t209.5 433.5zM1121 1879h187l-45 -208h-187z" />
    <glyph glyph-name="uni022F" unicode="&#x22f;" 
d="M986 553q32 150 4 244q-45 148 -231 148q-165 0 -266.5 -126t-139.5 -304q-36 -171 14.5 -285t213.5 -114q179 0 274.5 135.5t130.5 301.5zM1175 558q-55 -259 -217 -428t-427 -169q-221 0 -319 149.5t-45 401.5q58 270 229 430t402 160q207 0 320.5 -138t56.5 -406z
M799 1461h187l-45 -208h-187z" />
    <glyph glyph-name="uni0230" unicode="&#x230;" horiz-adv-x="1593" 
d="M1633 1259q105 -195 40 -499q-70 -329 -283 -547q-251 -256 -614 -256q-339 0 -485 224q-127 216 -57 546q63 298 256 510q248 272 620 272q389 0 523 -250zM1468 757q55 259 -46.5 417t-336.5 158q-228 0 -405.5 -156.5t-242.5 -461.5q-52 -244 36 -411.5t365 -167.5
q263 0 420.5 188.5t209.5 433.5zM1116 1835h187l-45 -208h-187zM940 2034h640l-23 -118h-640z" />
    <glyph glyph-name="uni0231" unicode="&#x231;" 
d="M986 553q32 150 4 244q-45 148 -231 148q-165 0 -266.5 -126t-139.5 -304q-36 -171 14.5 -285t213.5 -114q179 0 274.5 135.5t130.5 301.5zM1175 558q-55 -259 -217 -428t-427 -169q-221 0 -319 149.5t-45 401.5q58 270 229 430t402 160q207 0 320.5 -138t56.5 -406z
M782 1406h187l-45 -208h-187zM590 1595h640l-23 -118h-640z" />
    <glyph glyph-name="uni0232" unicode="&#x232;" horiz-adv-x="1366" 
d="M354 1469h232l272 -706l572 706h233l-742 -877l-125 -592h-199l125 592zM740 1651h640l-23 -118h-640z" />
    <glyph glyph-name="uni0233" unicode="&#x233;" horiz-adv-x="1024" 
d="M1028 1071h199q-60 -103 -269 -470q-156 -276 -259 -450q-244 -410 -327 -500t-239 -90q-38 0 -58 3t-48 11l35 164q44 -13 64.5 -16t36.5 -3q50 0 77 16.5t48 40.5q7 8 53.5 82t68.5 110l-162 1102h204l102 -872zM485 1327h640l-23 -118h-640z" />
    <glyph glyph-name="dotlessj" unicode="&#x237;" horiz-adv-x="455" 
d="M-95 -271q121 4 149 21.5t48 109.5l256 1206h180l-260 -1225q-25 -117 -75 -175q-84 -98 -259 -98q-13 0 -27.5 1t-44.5 4z" />
    <glyph glyph-name="uni0238" unicode="&#x238;" horiz-adv-x="1906" 
d="M978 1038q42 -30 87 -105l115 541h180l-113 -533q75 77 165.5 117.5t186.5 40.5q200 0 295.5 -137.5t38.5 -405.5q-54 -254 -213 -422t-377 -168q-122 0 -193 59q-42 34 -82 109l-28 -134h-168l29 139q-80 -91 -171 -133q-96 -44 -207 -44q-179 0 -278 150.5t-45 400.5
q49 234 205 405.5t378 171.5q123 0 195 -52zM1747 547q36 169 -13 280t-190 111q-123 0 -235 -91q-91 -75 -138 -228l-32 -151q-14 -98 0 -166q33 -177 227 -177q146 0 243 116t138 306zM613 119q125 0 228 107q88 92 132 251l25 116q22 159 -30 242q-62 98 -184 98
q-136 0 -242.5 -104t-149.5 -306q-37 -172 11.5 -288t209.5 -116z" />
    <glyph glyph-name="uni0239" unicode="&#x239;" horiz-adv-x="1848" 
d="M1062 1066h7l1 5h171l-30 -143q68 70 138 109q104 60 227 60q182 0 279 -139.5t42 -398.5q-74 -350 -289 -500q-136 -95 -290 -95q-121 0 -192 53q-42 30 -85 103l-116 -547h-183l117 550q-61 -72 -149.5 -114.5t-207.5 -42.5q-171 0 -277.5 134t-48.5 408
q55 257 216.5 422t362.5 165q133 0 210 -67q39 -33 69 -96zM1710 542q27 128 9 220q-32 177 -218 177q-187 0 -296 -187q-36 -63 -63 -147l-41 -195q-6 -69 6 -123q34 -166 220 -166q126 0 232 105.5t151 315.5zM357 288q33 -167 211 -167q188 0 297 176q38 62 64 145
l41 192q8 82 -7 143q-40 159 -224 159q-117 0 -222 -101.5t-150 -313.5q-29 -139 -10 -233z" />
    <glyph glyph-name="uni023A" unicode="&#x23a;" horiz-adv-x="1366" 
d="M1037 602l-85 649l-375 -649h460zM895 1469h225l221 -1469h-218l-56 440h-581l-252 -440h-204zM1220 1669h152l-890 -1869h-152z" />
    <glyph glyph-name="uni023B" unicode="&#x23b;" horiz-adv-x="1479" 
d="M1222 1679h152l-88 -192q135 -35 211 -125q123 -147 100 -334h-194q-3 142 -84 225q-42 43 -112 64l-534 -1166q58 -14 129 -14q220 0 371 169q79 89 140 234h194q-75 -232 -254 -389q-216 -189 -513 -189q-80 0 -147 15l-86 -187h-152l107 234q-67 36 -119 93
q-185 205 -94 633q69 325 285 533q234 226 561 226q25 0 49 -2zM677 1183q-165 -152 -232 -467q-55 -258 31 -419q28 -52 71 -87l517 1126h-4q-217 0 -383 -153z" />
    <glyph glyph-name="uni023C" unicode="&#x23c;" horiz-adv-x="1024" 
d="M985 1269h152l-120 -226q20 -13 37 -29q95 -88 73 -303h-175q4 89 -30 151l-391 -738q13 -1 28 -1q112 0 192 68.5t130 187.5h175q-75 -213 -216 -311.5t-328 -98.5q-32 0 -61 4l-92 -173h-152l112 213q-68 38 -110 109q-92 154 -43 384q60 282 230.5 439t382.5 157
q61 0 112 -11zM745 941q-172 0 -282 -168q-71 -109 -105 -269q-35 -161 10 -271q14 -35 38 -58l402 761q-28 5 -63 5z" />
    <glyph glyph-name="uni023D" unicode="&#x23d;" 
d="M124 697l32 152h180l132 620h199l-132 -620h322l-33 -157l-322 1l-110 -518h744l-37 -175h-943l147 694z" />
    <glyph glyph-name="uni023E" unicode="&#x23e;" horiz-adv-x="1251" 
d="M1272 1679h152l-118 -210h231l-37 -175h-293l-324 -574l-153 -720h-202l31 147l-202 -357h-152l445 788l153 716h-495l37 175h809zM974 1151l81 143h-50z" />
    <glyph glyph-name="uni0241" unicode="&#x241;" 
d="M929 1488q197 0 291.5 -112.5t57.5 -287.5q-23 -106 -80.5 -172t-216.5 -194q-116 -93 -158 -157.5t-148 -564.5h-178q109 517 162 604.5t192 200.5l96 79q44 34 73 71q54 65 69 135q21 98 -22 170t-178 72q-167 0 -258 -124q-50 -69 -83 -199h-178q46 216 196 347.5
t363 131.5z" />
    <glyph glyph-name="uni0242" unicode="&#x242;" 
d="M847 1102q197 0 291.5 -112.5t57.5 -287.5q-23 -106 -80.5 -172t-216.5 -194q-116 -93 -158 -157.5t-66 -178.5h-178q27 131 80 218.5t192 200.5l96 79q44 34 73 71q54 65 69 135q21 98 -22 170t-178 72q-167 0 -258 -124q-50 -69 -83 -199h-178q46 216 196 347.5
t363 131.5z" />
    <glyph glyph-name="uni0243" unicode="&#x243;" horiz-adv-x="1482" 
d="M123 355l30 142h230l207 972h631q258 0 334 -154q45 -91 19 -210q-29 -139 -127 -228q-51 -47 -136 -86q103 -43 148 -97q79 -96 43 -265q-30 -142 -144 -257q-169 -172 -459 -172h-621l75 355h-230zM938 170q183 0 283 106q63 67 84 162q34 160 -97 218q-69 31 -194 31
h-395l-41 -190h215l-30 -142h-215l-39 -185h429zM1015 848q126 0 203 35q122 55 152 198q31 144 -75 194q-61 28 -191 28h-355l-96 -455h362z" />
    <glyph glyph-name="uni0244" unicode="&#x244;" horiz-adv-x="1734" 
d="M206 755l30 142h249l122 572h202l-122 -572h753l122 572h202l-122 -572h234l-30 -142h-234l-24 -111q-57 -271 -161 -417q-191 -266 -563 -266t-448 266q-42 146 15 417l24 111h-249zM619 295q55 -160 266 -160q253 0 381 173q69 94 103 253l41 194h-753l-41 -194
q-34 -160 3 -266z" />
    <glyph glyph-name="uni0245" unicode="&#x245;" horiz-adv-x="1366" 
d="M52 0l847 1469h211l224 -1469h-223l-152 1251l-687 -1251h-220z" />
    <glyph glyph-name="uni0246" unicode="&#x246;" horiz-adv-x="1366" 
d="M487 1469h639l96 210h152l-96 -210h280l-39 -180h-324l-204 -446h368l-36 -170h-410l-229 -498h614l-37 -175h-657l-97 -210h-152l97 210h-277zM548 843h291l204 446h-401zM406 175h126l229 498h-249z" />
    <glyph glyph-name="uni0247" unicode="&#x247;" 
d="M985 1269h152l-120 -226q1 -1 3 -2q96 -53 133 -138q37 -81 32 -189q1 -74 -34 -236h-433l-189 -356q29 -4 61 -4q141 0 244 93q60 54 95 125h177q-20 -59 -74.5 -131.5t-113.5 -118.5q-99 -80 -226 -108q-69 -16 -151 -16q-49 0 -92 9l-90 -171h-152l117 221
q-52 33 -91 86q-108 146 -52 408q55 258 229 419t400 161q40 0 79 -7zM766 938q-124 0 -227 -89.5t-138 -227.5h240l167 315q-20 2 -42 2zM387 216q10 -18 22 -33l157 295h-200q-30 -163 21 -262zM996 621q14 117 -11 187q-17 47 -51 77l-141 -264h203z" />
    <glyph glyph-name="uni0248" unicode="&#x248;" horiz-adv-x="1110" 
d="M970 438q-40 -186 -117 -289q-142 -188 -428 -188q-165 0 -263 89.5t-49 318.5l22 105h187l-22 -105q-26 -120 15 -180.5t154 -60.5q159 0 231 109q44 67 84 253l92 434h-159l30 142h159l86 403h197l-86 -403h151l-30 -142h-151z" />
    <glyph glyph-name="uni0249" unicode="&#x249;" horiz-adv-x="455" 
d="M432 566h178l-30 -142h-178l-124 -583q-25 -117 -75 -175q-84 -98 -259 -98q-13 0 -27.5 1t-44.5 4l33 156q121 4 149 21.5t48 109.5l120 564h-149l30 142h149l106 500h180zM580 1261h-180l44 208h180z" />
    <glyph glyph-name="uni024A" unicode="&#x24a;" horiz-adv-x="1761" 
d="M1604 -459q-286 0 -348 188q-33 103 6 289l27 126q-229 -187 -539 -187q-363 0 -504 256q-121 218 -51 547q65 304 252 499q240 250 629 250q318 0 461 -199l34 159h197l-298 -1399q-39 -186 -23 -253q25 -109 184 -109q2 0 1.5 -7t-2.5 -19t-4 -27t-5 -31
q-7 -37 -17 -83zM398 757q-52 -245 25.5 -433.5t340.5 -188.5q277 0 437 167q143 151 199 364l20 93q47 271 -55 416q-110 157 -338 157q-235 0 -404.5 -158t-224.5 -417z" />
    <glyph glyph-name="uni024B" unicode="&#x24b;" horiz-adv-x="1257" 
d="M1106 -427q-32 -3 -46.5 -4t-27.5 -1q-176 0 -218 98q-26 58 -1 175l46 217q-140 -97 -319 -97q-265 0 -355 169t-35 428q57 268 229.5 406t379.5 138q194 0 298 -113l16 77h180l-256 -1206q-20 -92 1 -109.5t141 -21.5zM337 553q-35 -166 2.5 -301.5t216.5 -135.5
q163 0 262.5 114t135.5 285q38 178 -10.5 304t-213.5 126q-186 0 -293 -148q-68 -94 -100 -244z" />
    <glyph glyph-name="uni024C" unicode="&#x24c;" horiz-adv-x="1599" 
d="M180 630l36 166h259l143 673h680q168 0 266 -49q187 -94 134 -347q-28 -132 -100.5 -216t-181.5 -135q79 -35 110 -92t9 -185l-35 -197q-15 -84 -12 -125q3 -70 45 -90l-7 -33h-244q-6 19 -6 49t15 116l40 245q23 144 -66 193q-52 27 -174 27h-453l-133 -630h-199
l133 630h-259zM1134 796q140 0 233.5 56t124.5 202q33 157 -69 214q-55 30 -157 30h-486l-106 -502h460z" />
    <glyph glyph-name="uni024D" unicode="&#x24d;" horiz-adv-x="799" 
d="M101 355l30 142h216l122 574h171l-39 -185q32 54 130.5 131.5t205.5 77.5q5 0 17 -1t40 -4l-40 -190q-16 3 -29 4t-29 1q-136 0 -227.5 -87.5t-116.5 -201.5l-25 -119h244l-30 -142h-244l-75 -355h-180l75 355h-216z" />
    <glyph glyph-name="uni024E" unicode="&#x24e;" horiz-adv-x="1582" 
d="M249 1055l30 142h293l-114 272h232l104 -272h519l221 272h233l-230 -272h272l-30 -142h-362l-392 -463l-125 -592h-199l125 592l-194 463h-383zM962 763l236 292h-349z" />
    <glyph glyph-name="uni024F" unicode="&#x24f;" horiz-adv-x="1257" 
d="M188 655l30 142h198l-40 274h204l32 -274h395l149 274h199q-42 -72 -157 -274h210l-30 -142h-261q-15 -26 -31 -54q-156 -276 -259 -450q-244 -410 -327 -500t-239 -90q-38 0 -58 3t-48 11l35 164q44 -13 64.5 -16t36.5 -3q50 0 77 16.5t48 40.5q7 8 53.5 82t68.5 110
l-101 686h-249zM682 199l248 456h-301z" />
    <glyph glyph-name="aturned" unicode="&#x250;" 
d="M914 943q-95 0 -193 -44q-166 -73 -201 -239l-31 -145q37 21 92 35t107 20l112 14q100 13 155 41q93 47 115 150q17 78 -30.5 123t-125.5 45zM557 411q-64 -8 -94 -52q-17 -24 -27 -69q-19 -92 37.5 -133.5t178.5 -41.5q141 0 216 76q42 42 70 125h168
q-47 -198 -187 -275.5t-303 -77.5q-189 0 -292 72q-102 72 -69 224l131 617q6 28 -2 45t-45 17q-12 0 -27.5 -1.5t-32.5 -4.5l28 133q44 12 67 15t61 3q93 0 121 -66q14 -35 10 -99q70 72 184 125t238 53q149 0 224.5 -90.5t46.5 -226.5q-32 -149 -142 -231t-265 -101z" />
    <glyph glyph-name="ascript" unicode="&#x251;" horiz-adv-x="1202" 
d="M913 154q-78 -86 -177.5 -135.5t-220.5 -49.5q-213 0 -305 159t-40 404q52 246 210.5 405t373.5 159q119 0 197.5 -49.5t121.5 -131.5l34 160h163l-178 -837q-18 -84 -6 -92.5t94 -16.5l-27 -129q-12 -6 -26 -8t-59 -2q-100 0 -130 41t-25 123zM747 942
q-144 0 -251.5 -99.5t-151.5 -310.5q-45 -208 20 -308.5t209 -100.5q143 0 250 99.5t152 309.5q44 209 -20.5 309.5t-207.5 100.5z" />
    <glyph glyph-name="ascriptturned" unicode="&#x252;" horiz-adv-x="1202" 
d="M522 910q78 86 177.5 135.5t220.5 49.5q213 0 305.5 -159t40.5 -404q-53 -246 -211.5 -405t-373.5 -159q-119 0 -197.5 49.5t-121.5 131.5l-34 -160h-163l178 837q18 84 6.5 92.5t-94.5 16.5l28 129q11 6 25 8t59 2q100 0 130 -41t25 -123zM688 122q144 0 251.5 99.5
t152.5 310.5q44 208 -20.5 308.5t-208.5 100.5q-143 0 -250.5 -99.5t-151.5 -309.5q-45 -209 19.5 -309.5t207.5 -100.5z" />
    <glyph glyph-name="uni0253" unicode="&#x253;" 
d="M750 1350q-121 -4 -149.5 -21.5t-47.5 -109.5l-59 -277q74 76 164.5 116.5t186.5 40.5q200 0 295.5 -137.5t38.5 -405.5q-54 -254 -213 -422t-377 -168q-122 0 -193 59q-43 35 -83 112l-29 -137h-166l166 783h-4l97 455q25 117 75 175q84 98 260 98q13 0 27 -1t45 -4z
M993 547q36 169 -13 280t-190 111q-123 0 -235 -91t-156 -300q-32 -151 -14 -245q33 -177 227 -177q146 0 243 116t138 306z" />
    <glyph glyph-name="oopen" unicode="&#x254;" horiz-adv-x="1024" 
d="M134 359h175q-5 -99 38 -164.5t169 -65.5q172 0 282 168q71 109 105 269q34 161 -10.5 271t-190.5 110q-112 0 -192 -68.5t-131 -187.5h-175q76 213 217 311.5t328 98.5q210 0 302 -153.5t43 -383.5q-60 -282 -230 -439t-382 -157q-181 0 -276 88t-72 303z" />
    <glyph glyph-name="uni0256" unicode="&#x256;" horiz-adv-x="1244" 
d="M1081 -427q-32 -3 -46.5 -4t-27.5 -1q-176 0 -218 98q-26 58 -1 175l59 277q-72 -75 -152 -112q-96 -44 -207 -44q-179 0 -278 150.5t-45 400.5q49 234 205 405.5t378 171.5q123 0 195 -52q42 -30 87 -105l115 541h173l-313 -1474h-3l-30 -140q-20 -92 1 -109.5
t141 -21.5zM578 119q125 0 228 107.5t146 308.5q43 203 -19 300.5t-184 97.5q-136 0 -242.5 -104t-149.5 -306q-37 -172 11.5 -288t209.5 -116z" />
    <glyph glyph-name="uni0257" unicode="&#x257;" horiz-adv-x="1213" 
d="M1461 1346q-122 -4 -150.5 -21.5t-47.5 -109.5l-258 -1215h-162l31 149q-84 -99 -179.5 -143t-206.5 -44q-179 0 -278 150.5t-45 400.5q49 234 205 405.5t378 171.5q123 0 195 -52q39 -29 82 -97l62 293q25 117 75 175q84 98 260 98q13 0 27 -1t45 -4zM578 119
q125 0 228 107.5t146 308.5q43 203 -19 300.5t-184 97.5q-136 0 -242.5 -104t-149.5 -306q-37 -172 11.5 -288t209.5 -116z" />
    <glyph glyph-name="ereversed" unicode="&#x258;" 
d="M351 903q75 85 193 138.5t232 53.5q226 0 332 -161t51 -419q-56 -262 -226 -407.5t-370 -145.5q-82 0 -143 16q-115 28 -180 108q-39 46 -63.5 118.5t-18.5 131.5h177q5 -71 41 -125q65 -93 206 -93q151 0 243.5 98.5t132.5 261.5h-785q35 162 66 236q41 108 112 189z
M983 621q25 138 -40 227.5t-189 89.5q-173 0 -275 -130q-55 -70 -91 -187h595z" />
    <glyph glyph-name="schwa" unicode="&#x259;" 
d="M192 153q-37 81 -32 189q0 74 34 236h785q30 163 -21 261.5t-202 98.5q-141 0 -245 -93q-59 -54 -94 -125h-177q19 59 74 131.5t114 118.5q99 80 226 108q68 16 150 16q200 0 308 -145.5t52 -407.5q-54 -258 -228.5 -419t-400.5 -161q-114 0 -209.5 53.5t-133.5 138.5z
M349 435q-14 -117 11 -187q47 -130 220 -130q124 0 227 89.5t137 227.5h-595z" />
    <glyph glyph-name="schwahook" unicode="&#x25a;" horiz-adv-x="1689" 
d="M1519 496q25 -9 52.5 -3t53 21t48.5 37.5t40 46.5q9 -12 19 -20t19.5 -15t19 -15t19.5 -20q-46 -72 -112.5 -110t-152.5 -44q-58 -6 -98 10.5t-63 50.5t-27.5 83.5t8.5 109.5q-44 -9 -90 -24q-35 -11 -72 -22q-10 -198 -120 -356q-135 -192 -366 -250q-116 -30 -228 -6
t-173 92q-61 64 -84 164q-20 67 -29 224l801 203q-14 156 -92.5 232.5t-232.5 37.5q-144 -37 -225 -148q-47 -65 -63 -138l-181 -46q5 59 41.5 139t83.5 137q80 99 201 157q66 32 150 54q203 51 353 -54q140 -97 161 -324q40 11 79 22q129 36 251 72q3 -45 -10 -92.5
t-22 -89.5t-4 -73t45 -43zM379 359q17 -110 62 -167q83 -106 259 -62q127 32 208 140.5t79 242.5z" />
    <glyph glyph-name="eopen" unicode="&#x25b;" horiz-adv-x="1067" 
d="M1049 330q-33 -152 -181 -251t-373 -99q-174 0 -278 83.5t-74 225.5q22 106 101 178t191 102q-81 41 -113.5 98.5t-11.5 159.5q26 123 151 196t291 73q232 0 301.5 -111t46.5 -219h-170q2 94 -51.5 136t-150.5 42q-118 0 -177.5 -38t-73.5 -105q-17 -80 27.5 -122
t158.5 -42h105l-30 -143h-119q-113 0 -191.5 -45.5t-101.5 -153.5q-19 -88 47 -131t160 -43q133 0 216.5 51t129.5 158h170z" />
    <glyph glyph-name="eopenreversed" unicode="&#x25c;" horiz-adv-x="1067" 
d="M323 330q0 -107 61.5 -158t194.5 -51q94 0 178 43t103 131q23 108 -35.5 153.5t-171.5 45.5h-119l30 143h105q114 0 176.5 42t79.5 122q14 67 -29.5 105t-161.5 38q-97 0 -168.5 -42t-109.5 -136h-170q23 108 139.5 219t348.5 111q166 0 260 -73t68 -196
q-21 -102 -78.5 -159.5t-156.5 -98.5q100 -30 148 -102t26 -178q-30 -142 -170 -225.5t-314 -83.5q-225 0 -331 99t-73 251h170z" />
    <glyph glyph-name="eopenreversedhook" unicode="&#x25d;" horiz-adv-x="1621" 
d="M1505 776q26 -9 53 -3t52.5 21t48.5 37.5t40 46.5q10 -12 19.5 -20t19 -15t19.5 -15t19 -20q-45 -72 -111.5 -110t-152.5 -44q-59 -6 -99 10.5t-62.5 50.5t-27 83.5t8.5 109.5q-44 -9 -90.5 -23.5t-92.5 -29.5q-33 -11 -66 -21l-2 -7q-21 -102 -78.5 -159.5t-156.5 -98.5
q100 -30 148 -102t26 -178q-30 -142 -170 -225.5t-314 -83.5q-225 0 -331 99t-73 251h170q0 -107 61.5 -158t194.5 -51q94 0 178 43t103 131q23 108 -35.5 153.5t-171.5 45.5h-119l30 143h105q114 0 176.5 42t79.5 122q14 67 -29.5 105t-161.5 38q-97 0 -168.5 -42
t-109.5 -136h-170q23 108 139.5 219t348.5 111q166 0 260 -73q39 -31 58 -71q86 25 174 50q129 36 252 72q2 -45 -11 -92.5t-22 -89.5t-3.5 -73t44.5 -43z" />
    <glyph glyph-name="eopenreversedclosed" unicode="&#x25e;" horiz-adv-x="1022" 
d="M408 985q83 79 223 101l128 10q164 -1 257 -73q94 -73 68 -196q-21 -102 -78.5 -159.5t-156.5 -98.5q100 -30 148 -102t26 -178q-30 -142 -170 -225.5t-314 -83.5q-22 0 -42 1q-144 28 -204.5 70.5t-114.5 145t-10 309.5q55 258 240 479zM727 941q-172 0 -282 -168
q-71 -109 -105 -269q-35 -161 10 -271q22 -54 68 -82q50 -21 81 -24.5t41 -4.5t62.5 -1t136.5 43t103 131q23 108 -35.5 153.5t-171.5 45.5l16 143q114 0 176.5 42t79.5 122q14 67 -30 105q-41 36 -150 38v-3z" />
    <glyph glyph-name="jdotlessstroke" unicode="&#x25f;" horiz-adv-x="569" 
d="M273 -339q-82 -92 -262 -92q-16 0 -34 1t-40 3l35 164q27 -2 39 -2.5t23 -0.5q82 0 107 42.5t62 216.5h-178l30 142h180l197 924h178l-197 -924h149l-30 -142h-149l-36 -168q-28 -112 -74 -164z" />
    <glyph glyph-name="uni0260" unicode="&#x260;" horiz-adv-x="1239" 
d="M1408 1125q-122 -4 -151 -22q-22 -13 -38 -72l-201 -944q-43 -204 -128 -322q-159 -218 -470 -218q-173 0 -274.5 77.5t-80.5 242.5h183q-2 -72 29 -111q48 -60 179 -60q207 0 302 146q56 86 100 307q-71 -82 -155.5 -122t-209.5 -40q-174 0 -278.5 123.5t-43.5 408.5
q57 269 220.5 420t349.5 151q126 0 207 -62q38 -30 71 -84l15 69q25 117 75 175q84 98 260 98q13 0 27 -1t45 -4zM740 931q-190 0 -297 -178q-58 -95 -90 -249q-39 -181 14.5 -275.5t177.5 -94.5q194 0 310 175q65 99 93 231q43 199 -19 295t-189 96z" />
    <glyph glyph-name="gscript" unicode="&#x261;" 
d="M948 1028q44 -35 82 -102l29 135h166l-207 -974q-43 -204 -128 -322q-159 -218 -470 -218q-173 0 -274.5 77.5t-80.5 242.5h183q-2 -72 29 -111q48 -60 179 -60q207 0 302 146q56 86 100 307q-71 -82 -155.5 -122t-209.5 -40q-174 0 -278.5 123.5t-43.5 408.5
q57 269 220.5 420t349.5 151q126 0 207 -62zM740 931q-190 0 -297 -178q-58 -95 -90 -249q-39 -181 14.5 -275.5t177.5 -94.5q194 0 310 175q65 99 93 231q43 199 -19 295t-189 96z" />
    <glyph glyph-name="hturned" unicode="&#x265;" 
d="M913 -427h-180l116 548q-81 -81 -139 -114q-99 -57 -229 -57q-233 0 -281 163q-27 89 7 247l146 687h185l-143 -675q-26 -118 -7 -173q30 -88 165 -88q112 0 219.5 77t152.5 291l121 568h180z" />
    <glyph glyph-name="uni0266" unicode="&#x266;" 
d="M773 1381q-122 -4 -150 -21.5t-48 -109.5l-20 -96h2l-49 -228q82 81 140 114q99 57 229 57q233 0 281 -163q26 -89 -7 -247l-146 -687h-185l143 675q25 118 7 173q-31 88 -166 88q-112 0 -219 -77t-153 -291l-120 -568h-180l173 814h-2l96 455q25 117 75 175
q84 98 260 98q13 0 27.5 -1t44.5 -4z" />
    <glyph glyph-name="uni0267" unicode="&#x267;" horiz-adv-x="1239" 
d="M1081 -427q-32 -3 -46.5 -4t-27.5 -1q-176 0 -218 98q-26 58 -1 175l34 159h-2l143 675q25 118 7 173q-31 88 -166 88q-112 0 -219 -77t-153 -291l-120 -568h-180l173 814h-2l96 455q25 117 75 175q84 98 260 98q13 0 27.5 -1t44.5 -4l-33 -156q-122 -4 -150 -21.5
t-48 -109.5l-20 -96h2l-49 -228q82 81 140 114q99 57 229 57q233 0 281 -163q26 -89 -7 -247l-146 -687h-3l-30 -140q-20 -92 1 -109.5t141 -21.5z" />
    <glyph glyph-name="istroke" unicode="&#x268;" horiz-adv-x="699" 
d="M196 760h237l65 306h183l-65 -306h220l-25 -118h-220l-136 -642h-183l136 642h-237zM584 1469h183l-44 -204h-183z" />
    <glyph glyph-name="iotalatin" unicode="&#x269;" horiz-adv-x="514" 
d="M465 0q-9 -4 -70.5 -8t-69.5 -4q-90 0 -129.5 57t-20.5 145l188 885h164l-178 -837q-7 -31 -5.5 -47.5t14 -32t40 -19.5t54.5 -4h41z" />
    <glyph glyph-name="Ismallipa" unicode="&#x26a;" horiz-adv-x="577" 
d="M74 184h157l147 695h-157l40 185h157v2h183v-2h162l-40 -185h-162l-147 -695h162l-40 -185h-502z" />
    <glyph glyph-name="lmiddletilde" unicode="&#x26b;" horiz-adv-x="755" 
d="M599 1469h180l-132 -622l9 -3q21 -7 45 -7q56 0 88 35q17 19 30 57h105q-48 -127 -117.5 -175t-140.5 -48q-20 0 -48 6l-151 -712h-180l163 771q-8 3 -16 5q-27 9 -55 9q-35 0 -62 -23t-45 -70h-98q29 79 70 129q77 92 189 92q22 0 47 -5z" />
    <glyph glyph-name="uni026D" unicode="&#x26d;" horiz-adv-x="546" 
d="M393 -427q-32 -3 -46.5 -4t-27.5 -1q-176 0 -218 98q-26 58 -1 175l96 455h3l250 1173h180l-312 -1469h-3l-30 -140q-20 -92 1 -109.5t141 -21.5z" />
    <glyph glyph-name="mturned" unicode="&#x26f;" horiz-adv-x="1706" 
d="M1576 23h-178l33 152q-81 -79 -141 -115q-102 -61 -215 -61q-128 0 -192 63q-37 36 -58 106q-78 -86 -168 -127.5t-191 -41.5q-216 0 -261 156q-24 84 6 226l152 713h187l-158 -744q-23 -107 22 -147t122 -40q106 0 197.5 71t127.5 237l132 623h183l-149 -699
q-23 -109 -7 -159q25 -75 137 -75q102 0 202 79t144 286l121 568h180z" />
    <glyph glyph-name="mlonglegturned" unicode="&#x270;" horiz-adv-x="1706" 
d="M1481 -427h-178l128 602q-81 -79 -141 -115q-102 -61 -215 -61q-128 0 -192 63q-37 36 -58 106q-78 -86 -168 -127.5t-191 -41.5q-216 0 -261 156q-24 84 6 226l152 713h187l-158 -744q-23 -107 22 -147t122 -40q106 0 197.5 71t127.5 237l132 623h183l-149 -699
q-23 -109 -7 -159q25 -75 137 -75q102 0 202 79t144 286l121 568h180z" />
    <glyph glyph-name="mhook" unicode="&#x271;" horiz-adv-x="1706" 
d="M1165 -271q122 4 150 21.5t48 109.5l30 140h-7l158 744q22 107 -23 147t-122 40q-106 0 -197.5 -71t-126.5 -237l-132 -623h-183l148 699q23 109 8 159q-25 75 -137 75q-102 0 -202.5 -79t-144.5 -286l-120 -568h-180l227 1071h178l-32 -152q81 79 140 115q102 61 215 61
q128 0 193 -63q36 -36 57 -106q79 86 168.5 127.5t190.5 41.5q216 0 261 -156q24 -84 -6 -226l-185 -872q-25 -117 -75 -175q-84 -98 -260 -98q-13 0 -27.5 1t-44.5 4z" />
    <glyph glyph-name="nhookleft" unicode="&#x272;" 
d="M-99 -271q121 4 149 21.5t48 109.5l256 1206h4l1 5h171l-1 -5h5l-30 -141q92 89 184 129q93 41 197 41q228 0 274 -159q26 -87 -8 -249l-146 -687h-183l143 675q21 98 5 158q-27 100 -153 100q-64 0 -108 -13q-79 -22 -149 -88q-56 -53 -81.5 -109.5t-47.5 -161.5
l-119 -561h-4l-34 -159q-25 -117 -75 -175q-84 -98 -259 -98q-13 0 -27.5 1t-44.5 4z" />
    <glyph glyph-name="uni0273" unicode="&#x273;" horiz-adv-x="1234" 
d="M1081 -427q-32 -3 -46.5 -4t-27.5 -1q-176 0 -218 98q-26 58 -1 175l177 834q21 98 5 158q-27 100 -153 100q-64 0 -108 -13q-79 -22 -149 -88q-56 -53 -81.5 -109.5t-47.5 -161.5l-119 -561h-180l227 1071h171l-32 -152q96 94 189.5 135t197.5 41q228 0 274 -159
q26 -87 -8 -249l-146 -687h-3l-30 -140q-20 -92 1 -109.5t141 -21.5z" />
    <glyph glyph-name="Nsmallipa" unicode="&#x274;" horiz-adv-x="1118" 
d="M311 1071h235l358 -792l168 792h189l-227 -1071h-223l-369 791l-168 -791h-190z" />
    <glyph glyph-name="uni0275" unicode="&#x275;" 
d="M1175 558q-55 -259 -217 -428t-427 -169q-221 0 -319 149.5t-45 401.5q58 270 229 430t402 160q207 0 320.5 -138t56.5 -406zM990 797q-45 148 -231 148q-165 0 -266 -126q-82 -101 -122 -234h621q23 128 -2 212zM367 230q51 -114 214 -114q179 0 274 135q70 100 108 216
h-619q-20 -140 23 -237z" />
    <glyph glyph-name="uni0276" unicode="&#x276;" horiz-adv-x="1933" 
d="M811 1099q169 0 263 -81q52 -45 88 -130q85 99 200 154t244 55q119 0 205 -48.5t132 -143.5q42 -87 38 -203q-3 -71 -34 -224h-794q-23 -132 1 -213q43 -154 236 -154q135 0 233 91q55 49 102 134h180q-80 -177 -229 -278t-323 -101q-118 0 -211.5 47t-149.5 171
q-96 -122 -210 -169t-227 -47q-208 0 -320.5 142.5t-52.5 421.5q52 247 220 411.5t409 164.5zM1789 616q17 116 -9 188q-46 134 -224 134q-89 0 -176 -53q-136 -83 -196 -269h605zM1000 549q42 197 -25 295.5t-203 98.5q-134 0 -247.5 -106t-160.5 -325q-39 -184 28 -291.5
t208 -107.5q113 0 230.5 95t169.5 341z" />
    <glyph glyph-name="philatin" unicode="&#x278;" horiz-adv-x="1479" 
d="M865 160q182 6 300 112q117 109 154 281q76 368 -286 401zM647 0q-239 4 -368 147q-134 142 -86 385q55 262 240 420q184 160 450 162l71 332h184l-71 -332q269 -2 384 -162q114 -158 61 -420q-56 -243 -248 -385q-191 -143 -433 -147l-89 -417h-184zM849 954
q-378 -33 -456 -401q-37 -172 39 -281q72 -106 249 -112z" />
    <glyph glyph-name="rturned" unicode="&#x279;" horiz-adv-x="682" 
d="M661 23h-171l40 185q-33 -54 -131.5 -131.5t-205.5 -77.5q-5 0 -16.5 1t-40.5 4l41 190q15 -3 28.5 -4t29.5 -1q136 0 227.5 87.5t115.5 201.5l131 616h180z" />
    <glyph glyph-name="rlonglegturned" unicode="&#x27a;" horiz-adv-x="682" 
d="M661 23h-171l40 185q-33 -54 -131.5 -131.5t-205.5 -77.5q-5 0 -16.5 1t-40.5 4l41 190q15 -3 28.5 -4t29.5 -1q136 0 227.5 87.5t115.5 201.5l211 991h180z" />
    <glyph glyph-name="uni027B" unicode="&#x27b;" horiz-adv-x="903" 
d="M737 -427q-32 -3 -46.5 -4t-27.5 -1q-176 0 -218 98q-26 58 -1 175l74 349q-36 -48 -119 -114q-99 -77 -206 -77q-5 0 -16.5 1t-40.5 4l41 190q15 -3 28.5 -4t29.5 -1q136 0 227.5 87.5t115.5 201.5l131 616h180l-170 -798h1l-92 -436q-20 -92 1 -109.5t141 -21.5z" />
    <glyph glyph-name="rlongleg" unicode="&#x27c;" horiz-adv-x="682" 
d="M364 1071h171l-39 -185q32 54 130.5 131.5t205.5 77.5q5 0 17 -1t40 -4l-40 -190q-16 3 -29 4t-29 1q-136 0 -227.5 -87.5t-116.5 -201.5l-196 -923h-180z" />
    <glyph glyph-name="uni027D" unicode="&#x27d;" horiz-adv-x="682" 
d="M393 -427q-32 -3 -46.5 -4t-27.5 -1q-176 0 -218 98q-26 58 -1 175l96 455h3l165 775h171l-39 -185q32 54 130.5 131.5t205.5 77.5q5 0 17 -1t40 -4l-40 -190q-16 3 -29 4t-29 1q-136 0 -227.5 -87.5t-116.5 -201.5l-130 -616h-3l-30 -140q-20 -92 1 -109.5t141 -21.5z
" />
    <glyph glyph-name="rfishhook" unicode="&#x27e;" horiz-adv-x="455" 
d="M617 875q-155 26 -183 8.5t-48 -109.5l-164 -774h-180l168 793q25 117 75 175q84 98 294 68q13 0 27 -1t45 -4z" />
    <glyph glyph-name="rfishhookreversed" unicode="&#x27f;" horiz-adv-x="455" 
d="M261 1031q31 3 46 4t28 1q222 30 264 -68q26 -58 1 -175l-168 -793h-180l164 774q20 92 -1 109.5t-188 -8.5z" />
    <glyph glyph-name="Rsmallipa" unicode="&#x280;" horiz-adv-x="1078" 
d="M679 580q102 0 170 41t91 147q12 59 -62 100q-40 22 -114 22h-243l-66 -310h224zM358 1071h496q123 0 194 -36q137 -68 98 -253q-21 -96 -74 -157t-132 -99q52 -53 74.5 -94.5t12.5 -107.5l-25 -143q-11 -61 -9 -91q2 -51 33 -66l-5 -24h-234q-5 14 -4.5 36t10.5 84
l29 179q11 77 -54 113q-37 19 -126 19h-219l-91 -431h-201z" />
    <glyph glyph-name="Rsmallinverted" unicode="&#x281;" horiz-adv-x="1078" 
d="M436 491l-66 -310h243q74 0 124 22q91 41 104 100q22 106 -28.5 147t-152.5 41h-224zM358 1071h201l-91 -431h219q89 0 134 19q80 36 102 113l47 179q16 62 25 84t19 36h234l-5 -24q-37 -15 -61 -66q-14 -30 -29 -91l-36 -143q-18 -66 -58 -107.5t-115 -94.5
q63 -38 90 -99t7 -157q-39 -185 -205 -253q-86 -36 -209 -36h-496z" />
    <glyph glyph-name="esh" unicode="&#x283;" horiz-adv-x="826" 
d="M696 1353q118 192 317 192q43 0 80 -9q23 -5 61 -19l-49 -162q-38 17 -61.5 25.5t-47.5 8.5q-90 0 -143 -91t-112 -317l-178 -683q-96 -364 -209 -541q-115 -177 -319 -177q-39 0 -67.5 7t-54.5 17l50 166q23 -13 44.5 -21t50.5 -8q85 0 145 77q58 76 114 281l239 882
q72 262 140 372z" />
    <glyph glyph-name="dotlessjstrokehook" unicode="&#x284;" horiz-adv-x="826" 
d="M90 118h232l234 863q72 262 140 372q118 192 317 192q43 0 80 -9q23 -5 61 -19l-49 -162q-38 17 -61.5 25.5t-47.5 8.5q-90 0 -143 -91t-112 -317l-178 -683q-26 -97 -52 -180h219l-25 -118h-234q-57 -148 -117 -243q-115 -177 -319 -177q-39 0 -67.5 7t-54.5 17l50 166
q23 -13 44.5 -21t50.5 -8q85 0 145 77q43 56 84 182h-222z" />
    <glyph glyph-name="eshsquatreversed" unicode="&#x285;" horiz-adv-x="873" 
d="M644 964q33 -60 18 -204l-51 -486q-12 -112 21 -154q34 -42 119 -42q29 0 54 4t52 11l-5 -91q-29 -5 -60 -9t-71 -4q-204 0 -260 97q-55 98 -31 298l47 376q15 124 -8 174q-22 50 -112 50q-24 0 -50.5 -4.5t-69.5 -14.5l4 89q42 8 67 11q40 5 83 5q199 0 253 -106z" />
    <glyph glyph-name="tturned" unicode="&#x287;" horiz-adv-x="569" 
d="M372 -18h-182l63 299h-171l31 147h171l149 699q12 56 -22 75q-19 11 -68 11q-13 0 -28 -0.5t-35 -2.5l30 142q33 9 67 13t73 4q126 0 157.5 -64.5t9.5 -167.5l-151 -709h145l-31 -147h-145z" />
    <glyph glyph-name="tretroflexhook" unicode="&#x288;" horiz-adv-x="569" 
d="M459 1370h182l-64 -299h171l-31 -147h-171l-239 -1126q-12 -56 22 -75q18 -11 67 -11q13 0 28 0.5t36 2.5l-30 -142q-33 -9 -67.5 -13t-73.5 -4q-126 0 -157 64.5t-10 167.5l242 1136h-145l31 147h145z" />
    <glyph glyph-name="ubar" unicode="&#x289;" horiz-adv-x="1321" 
d="M180 624l30 142h170l65 305h184l-65 -305h498l65 305h180l-65 -305h195l-30 -142h-195l-132 -624h-170l35 158q-48 -61 -109 -103q-121 -84 -268 -84q-229 0 -279 153q-28 82 1 219l60 281h-170zM476 226q27 -96 158 -96q188 0 292 168q56 90 89 247l17 79h-498l-56 -264
q-17 -82 -2 -134z" />
    <glyph glyph-name="upsilonlatin" unicode="&#x28a;" horiz-adv-x="1127" 
d="M1013 500q30 140 -11.5 247t-150.5 182l30 143h409l-30 -142h-272q83 -35 151 -142.5t30 -287.5q-47 -221 -206 -361t-403 -140q-243 0 -342 139.5t-52 361.5q38 180 151.5 287.5t211.5 142.5h-272l30 142h409l-30 -143q-142 -75 -228 -181t-116 -248q-35 -164 32.5 -254
t236.5 -90q173 0 280 89.5t142 254.5z" />
    <glyph glyph-name="vturned" unicode="&#x28c;" horiz-adv-x="1024" 
d="M791 -1l-100 872l-485 -872h-197l632 1071h192l167 -1071h-209z" />
    <glyph glyph-name="wturned" unicode="&#x28d;" horiz-adv-x="1479" 
d="M1242 -1l-26 844l-389 -844h-202l-31 839l-398 -839h-180l539 1071h187l42 -829l387 829h187l81 -1071h-197z" />
    <glyph glyph-name="yturned" unicode="&#x28e;" horiz-adv-x="1024" 
d="M219 0h-199q59 103 268 470q157 276 260 450q243 410 326 500t239 90q38 0 58 -3t48 -11l-34 -164q-45 13 -65 16t-36 3q-50 0 -77 -16.5t-48 -40.5q-7 -8 -54 -82t-68 -110l162 -1102h-204l-102 872z" />
    <glyph glyph-name="Ysmallipa" unicode="&#x28f;" horiz-adv-x="1015" 
d="M257 1071h232l136 -515l354 515h233l-514 -639l-91 -432h-199l91 432z" />
    <glyph glyph-name="ezh" unicode="&#x292;" horiz-adv-x="1025" 
d="M247 428l652 474h-660l35 164h892l-35 -164l-426 -312q145 -27 224 -148q104 -157 44 -439q-49 -230 -221 -333.5t-382 -103.5q-187 0 -269 108.5t-66 321.5h175q-1 -119 33 -197.5t146 -78.5q146 0 251.5 60t140.5 221q34 160 2.5 298.5t-203.5 138.5l-101 -10h-232z
" />
    <glyph glyph-name="glottalstop" unicode="&#x294;" 
d="M929 1488q197 0 291.5 -112.5t57.5 -287.5q-23 -106 -80.5 -172t-216.5 -194q-116 -93 -158 -157.5t-148 -564.5h-178q109 517 162 604.5t192 200.5l96 79q44 34 73 71q54 65 69 135q21 98 -22 170t-178 72q-167 0 -258 -124q-50 -69 -83 -199h-178q46 216 196 347.5
t363 131.5z" />
    <glyph glyph-name="glottalstopreversed" unicode="&#x295;" 
d="M907 1488q213 0 307 -131.5t48 -347.5h-178q23 130 1 199q-37 124 -204 124q-135 0 -209 -72t-95 -170q-15 -70 11 -135q15 -37 43 -71l64 -79q91 -113 106 -200.5t-94 -604.5h-178q106 500 91 564.5t-91 157.5q-105 128 -134.5 194t-6.5 172q37 175 179.5 287.5
t339.5 112.5z" />
    <glyph glyph-name="glottalstopinverted" unicode="&#x296;" 
d="M613 0q-213 0 -307.5 131.5t-48.5 347.5h178q-22 -130 -1 -199q38 -124 205 -124q135 0 208.5 72t94.5 170q15 70 -11 135q-14 37 -43 71l-63 79q-91 113 -106.5 200.5t94.5 604.5h178q-106 -500 -91.5 -564.5t90.5 -157.5q105 -128 134.5 -194t7.5 -172
q-38 -175 -180 -287.5t-339 -112.5z" />
    <glyph glyph-name="cstretched" unicode="&#x297;" horiz-adv-x="1028" 
d="M1126 711h-175q5 99 -38 164.5t-169 65.5q-172 0 -308 -288q-90 -199 -124 -359q-34 -161 -8.5 -360.5t171.5 -199.5q112 0 192 68.5t130 187.5h175q-75 -213 -216 -311.5t-328 -98.5q-210 0 -294 193t-14 523q82 382 264 594t394 212q181 0 275.5 -88t72.5 -303z" />
    <glyph glyph-name="bilabialclick" unicode="&#x298;" horiz-adv-x="1593" 
d="M1633 1259q105 -195 40 -499q-70 -329 -283 -547q-251 -256 -614 -256q-339 0 -485 224q-127 216 -57 546q63 298 256 510q248 272 620 272q389 0 523 -250zM1468 757q55 259 -46.5 417t-336.5 158q-228 0 -405.5 -156.5t-242.5 -461.5q-52 -244 36 -411.5t365 -167.5
q263 0 420.5 188.5t209.5 433.5zM867 847h209l-47 -218h-209z" />
    <glyph glyph-name="eopenclosed" unicode="&#x29a;" horiz-adv-x="1022" 
d="M1033 985q91 -221 36 -479q-44 -207 -142 -309.5t-176.5 -145t-234.5 -70.5q-20 -1 -42 -1q-174 0 -278 83.5t-74 225.5q22 106 101 178t191 102q-81 41 -113.5 98.5t-11.5 159.5q26 123 152 196q123 72 287 73l124 -10q132 -22 181 -101zM696 944q-109 -2 -166 -38
q-60 -38 -74 -105q-17 -80 27.5 -122t158.5 -42l-44 -143q-113 0 -191.5 -45.5t-101.5 -153.5q-19 -88 47 -131t118.5 -43t63.5 1t43 4.5t92 24.5q58 28 102 82q91 110 126 271q34 160 9 269q-38 168 -210 168v3z" />
    <glyph glyph-name="Hsmallipa" unicode="&#x29c;" horiz-adv-x="1220" 
d="M388 1072h201l-87 -413h484l87 413h201l-227 -1072h-201l106 502h-484l-106 -502h-201z" />
    <glyph glyph-name="kturned" unicode="&#x29e;" horiz-adv-x="1024" 
d="M931 -398h-173l181 853l-558 -455h-230l495 401l-291 670h230l219 -540l181 138l85 402h173z" />
    <glyph glyph-name="Lsmallipa" unicode="&#x29f;" horiz-adv-x="1008" 
d="M383 1071h199l-190 -896h544l-37 -175h-743z" />
    <glyph glyph-name="uni02A0" unicode="&#x2a0;" horiz-adv-x="1234" 
d="M1428 1202q-122 -4 -150 -21.5t-48 -109.5h2l-318 -1498h-181l117 550q-61 -72 -149.5 -114.5t-207.5 -42.5q-171 0 -277.5 134t-48.5 408q55 257 216.5 422t362.5 165q133 0 210 -67q37 -32 66 -90l32 152q25 117 75 175q84 98 260 98q13 0 27.5 -1t44.5 -4zM348 288
q33 -167 211 -167q188 0 297 176q59 97 91 248q30 139 7 232q-40 159 -224 159q-117 0 -222 -101.5t-150 -313.5q-29 -139 -10 -233z" />
    <glyph glyph-name="glottalstopstroke" unicode="&#x2a1;" 
d="M348 366h232q48 189 79 238q53 88 192 201l96 79q44 34 73 71q54 65 69 135q21 98 -22 170t-178 72q-167 0 -258 -124q-50 -69 -83 -199h-178q46 216 196 347.5t363 131.5q197 0 291.5 -112.5t57.5 -287.5q-23 -106 -80.5 -172t-216.5 -194q-116 -93 -159 -158
q-22 -35 -64 -198h230l-25 -118h-234q-25 -107 -54 -248h-178q29 139 54 248h-228z" />
    <glyph glyph-name="glottalstopstrokereversed" unicode="&#x2a2;" 
d="M984 248h-228q-21 -109 -50 -248h-178q29 141 50 248h-234l25 118h230q28 163 20 198q-15 65 -91 158q-105 128 -134.5 194t-6.5 172q37 175 179.5 287.5t339.5 112.5q213 0 307 -131.5t48 -347.5h-178q23 130 1 199q-37 124 -204 124q-135 0 -209 -72t-95 -170
q-15 -70 11 -135q15 -37 43 -71l64 -79q91 -113 106 -201q9 -49 -23 -238h232z" />
    <glyph glyph-name="uni02A3" unicode="&#x2a3;" horiz-adv-x="1906" 
d="M943 1038q42 -30 87 -105l115 541h173l-86 -403h813l-31 -147l-793 -763h650l-34 -161h-994l31 149q-84 -99 -179.5 -143t-206.5 -44q-179 0 -278 150.5t-45 400.5q49 234 205 405.5t378 171.5q123 0 195 -52zM578 119q125 0 228 107.5t146 308.5q43 203 -19 300.5
t-184 97.5q-136 0 -242.5 -104t-149.5 -306q-37 -172 11.5 -288t209.5 -116zM1769 910h-571l-147 -691z" />
    <glyph glyph-name="dezh" unicode="&#x2a4;" horiz-adv-x="1910" 
d="M1147 428l652 474h-636l-191 -902h-162l31 149q-84 -99 -179.5 -143t-206.5 -44q-179 0 -278 150.5t-45 400.5q49 234 205 405.5t378 171.5q123 0 195 -52q42 -30 87 -105l115 541h173l-87 -408h868l-35 -164l-426 -312q145 -27 224 -148q104 -157 44 -439
q-49 -230 -221 -333.5t-382 -103.5q-187 0 -269 108.5t-66 321.5h175q-1 -119 33 -197.5t146 -78.5q146 0 251.5 60t140.5 221q34 160 2.5 298.5t-203.5 138.5l-101 -10h-232zM545 119q125 0 228 107.5t146 308.5q43 203 -19 300.5t-184 97.5q-136 0 -242.5 -104
t-149.5 -306q-37 -172 11.5 -288t209.5 -116z" />
    <glyph glyph-name="uni02A6" unicode="&#x2a6;" horiz-adv-x="1376" 
d="M459 1370h182l-64 -299h171l-23 -111q24 24 52 45q130 94 315 94q242 0 319 -142q48 -90 24 -194h-170q8 61 -20 111q-47 71 -200 71q-102 0 -162.5 -39t-74.5 -103q-15 -70 45 -112q35 -25 109 -44l113 -29q184 -47 241 -91q90 -69 58 -217q-30 -143 -160.5 -247
t-352.5 -104q-239 0 -316 108l-8 12l-16 -79q-33 -9 -67.5 -13t-73.5 -4q-126 0 -157.5 64.5t-9.5 167.5l151 709h-145l31 147h145zM669 336q-11 -90 16 -138q49 -87 217 -87q100 0 185.5 43.5t104.5 134.5q15 69 -39 105q-34 22 -143 51l-135 36q-130 34 -186 76
q-101 73 -73 202q20 93 76 165h-146l-149 -699q-12 -56 22 -75q19 -11 68 -11h21q-31 86 -12 197h173z" />
    <glyph glyph-name="uni02A7" unicode="&#x2a7;" horiz-adv-x="1082" 
d="M903 1353q118 192 317 192q43 0 80 -9q23 -5 61 -19l-49 -162q-38 17 -61.5 25.5t-47.5 8.5q-90 0 -143 -91t-112 -317l-178 -683q-96 -364 -209 -541q-115 -177 -319 -177q-40 0 -68.5 7t-54.5 17l50 166q23 -13 45 -21t51 -8q85 0 145 77q42 55 81 175l-38 -6
q-34 -4 -73 -4q-126 0 -157.5 64.5t-9.5 167.5l151 709h-145l31 147h145l64 299h182l-64 -299h212q58 192 114 282zM397 225q-12 -56 22 -75q19 -11 68 -11h28q9 1 19 1l213 784h-201z" />
    <glyph glyph-name="uni02A9" unicode="&#x2a9;" horiz-adv-x="1486" 
d="M986 -271q122 4 150 21.5t48 109.5l30 140h-3l143 675q21 98 5 158q-27 100 -153 100q-64 0 -108 -13q-79 -22 -149 -88q-56 -53 -81.5 -109.5t-47.5 -161.5l-119 -561h-180l196 924h-166l-196 -924h-178l196 924h-149l30 142h149l36 168q28 112 74 164q82 92 262 92
q17 0 35 -1t40 -3l-35 -164q-27 2 -39.5 2.5t-23.5 0.5q-82 0 -107 -42.5t-62 -216.5h164l1 5h171l-32 -152q96 94 189.5 135t197.5 41q228 0 274 -159q26 -87 -8 -249l-180 -846q-25 -117 -75 -175q-84 -98 -260 -98q-13 0 -27.5 1t-44.5 4z" />
    <glyph glyph-name="uni02AA" unicode="&#x2aa;" horiz-adv-x="1218" 
d="M449 1469h180l-123 -576q41 64 107 112q130 94 315 94q242 0 319 -142q48 -90 24 -194h-170q8 61 -20 111q-47 71 -200 71q-102 0 -162.5 -39t-74.5 -103q-15 -70 45 -112q35 -25 109 -44l113 -29q184 -47 241 -91q90 -69 58 -217q-30 -143 -160.5 -247t-352.5 -104
q-239 0 -316 108q-22 32 -36 68l-28 -135h-180zM505 336q-11 -90 16 -138q49 -87 217 -87q100 0 185.5 43.5t104.5 134.5q15 69 -39 105q-34 22 -143 51l-135 36q-130 34 -186 76q-53 38 -71 92l-66 -313h117z" />
    <glyph glyph-name="uni02AB" unicode="&#x2ab;" horiz-adv-x="1208" 
d="M449 1469h180l-85 -398h797l-31 -147l-793 -763h650l-34 -161h-996zM1065 910h-555l-143 -671z" />
    <glyph glyph-name="uni02AC" unicode="&#x2ac;" horiz-adv-x="879" 
d="M263 637l15 -502l232 502h120l18 -499l237 499h107l-320 -637h-111l-26 493l-229 -493h-112l-48 637h117zM440 1469l15 -502l232 502h120l18 -499l237 499h107l-321 -637h-111l-25 493l-230 -493h-112l-47 637h117z" />
    <glyph glyph-name="uni02AD" unicode="&#x2ad;" horiz-adv-x="1362" 
d="M1375 603l-128 -603h-111l101 476h-921l-101 -476h-111l128 603h1143zM1550 1427l-128 -603h-111l101 476h-921l-101 -476h-111l128 603h1143z" />
    <glyph glyph-name="uni02AE" unicode="&#x2ae;" horiz-adv-x="1208" 
d="M331 1325q32 3 46.5 4t27.5 1q176 0 218 -98q26 -58 1 -175l-2 -10h6l-143 -675q-26 -118 -7 -173q30 -88 165 -88q112 0 219.5 77t152.5 291l121 568h180l-313 -1474h-180l116 548q-81 -81 -139 -114q-99 -57 -229 -57q-233 0 -281 163q-27 89 7 247l51 242h-1l93 436
q20 92 -1 109.5t-141 21.5z" />
    <glyph glyph-name="uni02AF" unicode="&#x2af;" horiz-adv-x="1323" 
d="M1171 -427q-32 -3 -46.5 -4t-27.5 -1q-176 0 -218 98q-26 58 -1 175l59 277q-80 -79 -137 -111q-99 -57 -229 -57q-233 0 -281 163q-27 89 7 247l51 242h-1l93 436q20 92 -1 109.5t-141 21.5l33 156q32 3 46.5 4t27.5 1q176 0 218 -98q26 -58 1 -175l-2 -10h6l-143 -675
q-26 -118 -7 -173q30 -88 165 -88q112 0 219.5 77t152.5 291l121 568h180l-256 -1204h-2q-14 -76 5 -92q21 -18 141 -22z" />
    <glyph glyph-name="uni02B0" unicode="&#x2b0;" horiz-adv-x="570" 
d="M377 1467h90l-58 -274q41 41 70 57q49 29 114 29q117 0 141 -82q14 -44 -3 -123l-73 -344h-93l72 338q12 59 3 86q-15 44 -83 44q-56 0 -109.5 -38.5t-76.5 -145.5l-60 -284h-90z" />
    <glyph glyph-name="uni02B1" unicode="&#x2b1;" horiz-adv-x="570" 
d="M542 1421q-61 -2 -75.5 -11t-23.5 -55l-11 -48h1l-24 -114q41 41 70 57q49 29 114 29q117 0 141 -82q14 -44 -3 -123l-73 -344h-93l72 338q12 59 3 86q-15 44 -83 44q-56 0 -109.5 -38.5t-76.5 -145.5l-60 -284h-90l86 407h-1l49 228q12 58 37 87q43 49 131 49
q6 0 13 -0.5t22 -1.5z" />
    <glyph glyph-name="uni02B2" unicode="&#x2b2;" horiz-adv-x="228" 
d="M445 1361h-90l22 104h90zM107 594q61 2 75 11t24 55l128 603h90l-130 -613q-13 -58 -38 -87q-41 -49 -129 -49q-7 0 -14.5 0.5l-22.5 1.5z" />
    <glyph glyph-name="uni02B3" unicode="&#x2b3;" horiz-adv-x="341" 
d="M338 1266h85l-20 -93q17 27 66 66t102 39q3 0 9 -0.5t20 -2.5l-21 -95q-7 2 -13.5 2.5t-14.5 0.5q-68 0 -114 -44t-58 -101l-65 -308h-90z" />
    <glyph glyph-name="uni02B4" unicode="&#x2b4;" horiz-adv-x="341" 
d="M486 742h-86l20 92q-16 -27 -65.5 -66t-103.5 -39q-2 0 -7.5 1t-20.5 2l20 95q8 -1 15 -1.5t15 -0.5q68 0 113.5 43.5t57.5 100.5l66 308h90z" />
    <glyph glyph-name="uni02B5" unicode="&#x2b5;" horiz-adv-x="452" 
d="M523 516l-22.5 -1.5t-13.5 -0.5q-88 0 -110 49q-13 29 0 87l37 175q-18 -24 -59 -57q-50 -39 -104 -39q-2 0 -7.5 1t-20.5 2l20 95q8 -1 15 -1.5t15 -0.5q68 0 113.5 43.5t57.5 100.5l66 308h90l-85 -399v0l-46 -218q-10 -46 0.5 -55t70.5 -11z" />
    <glyph glyph-name="Rsmallinvertedsuperior" unicode="&#x2b6;" horiz-adv-x="765" 
d="M460 1058l-46 -220h172q53 0 88 15q65 29 74 71q16 75 -20.5 104.5t-108.5 29.5h-159zM405 1469h143l-65 -306h155q63 0 96 14q56 25 72 80l33 127q11 44 18 59.5t14 25.5h166l-4 -17q-26 -10 -43 -46q-10 -22 -21 -65l-25 -102q-13 -46 -41.5 -75.5t-81.5 -67.5
q45 -27 64 -70.5t5 -111.5q-28 -131 -145 -179q-62 -26 -150 -26h-352z" />
    <glyph glyph-name="uni02B7" unicode="&#x2b7;" horiz-adv-x="740" 
d="M377 1266l13 -422l194 422h101l15 -420l200 420h90l-270 -536h-93l-21 415l-194 -415h-93l-41 536h99z" />
    <glyph glyph-name="uni02B8" unicode="&#x2b8;" horiz-adv-x="512" 
d="M670 1266h99q-30 -52 -134 -235q-79 -138 -130 -225q-122 -206 -163.5 -251t-119.5 -45q-19 0 -29 1.5t-25 5.5l18 82q23 -6 33 -7.5t18 -1.5q25 0 38 8t24 20q4 4 27 41t34 55l-80 552h102l50 -436z" />
    <glyph glyph-name="primemod" unicode="&#x2b9;" horiz-adv-x="341" 
d="M610 1464l-256 -578h-69l214 578h111z" />
    <glyph glyph-name="dblprimemod" unicode="&#x2ba;" horiz-adv-x="635" 
d="M610 1464l-256 -578h-69l214 578h111zM860 1464l-256 -578h-69l214 578h111z" />
    <glyph glyph-name="commaturnedmod" unicode="&#x2bb;" horiz-adv-x="455" 
d="M641 1389q-57 -9 -97 -62t-55 -123q-1 -6 -1.5 -11.5t-0.5 -12.5h109l-46 -218h-214l43 201q25 119 95 212.5t187 107.5z" />
    <glyph glyph-name="apostrophemod" unicode="&#x2bc;" horiz-adv-x="455" 
d="M391 1042q57 9 96.5 62t54.5 122q2 7 2.5 12.5t-0.5 12.5h-109l47 218h214l-43 -201q-27 -128 -99 -217.5t-183 -102.5z" />
    <glyph glyph-name="afii64937" unicode="&#x2bd;" horiz-adv-x="455" 
d="M585 948q-105 13 -139 102.5t-7 217.5l43 201h214l-47 -218h-109q-3 -7 -4.5 -12.5t-3.5 -12.5q-15 -69 2.5 -122t70.5 -62z" />
    <glyph glyph-name="uni02BE" unicode="&#x2be;" horiz-adv-x="425" 
d="M394 1208l18 83q52 0 97 37t56 89t-18.5 89t-81.5 37l18 83q86 0 134.5 -61.5t30.5 -147.5q-19 -86 -93.5 -147.5t-160.5 -61.5z" />
    <glyph glyph-name="uni02BF" unicode="&#x2bf;" horiz-adv-x="425" 
d="M603 1208q-86 0 -134.5 61.5t-29.5 147.5q18 86 92.5 147.5t160.5 61.5l-18 -83q-52 0 -96.5 -37t-55.5 -89t18 -89t81 -37z" />
    <glyph glyph-name="uni02C0" unicode="&#x2c0;" horiz-adv-x="570" 
d="M620 1474q98 0 145.5 -56t28.5 -144q-11 -53 -40 -86t-109 -97q-57 -46 -78 -78.5t-74 -282.5h-89q55 259 81 302.5t95 100.5l49 39q21 17 36 36q27 32 35 67q10 49 -11.5 85t-89.5 36q-83 0 -128 -62q-25 -34 -42 -99h-89q23 108 98 173.5t182 65.5z" />
    <glyph glyph-name="uni02C1" unicode="&#x2c1;" horiz-adv-x="570" 
d="M609 1474q106 0 153 -65.5t24 -173.5h-89q12 65 1 99q-19 62 -103 62q-67 0 -104 -36t-47 -85q-8 -35 5 -67q7 -19 22 -36l31 -39q46 -57 54 -100.5t-47 -302.5h-89q53 250 45.5 282.5t-46.5 78.5q-52 64 -66.5 97t-3.5 86q19 88 90 144t170 56z" />
    <glyph glyph-name="uni02C2" unicode="&#x2c2;" horiz-adv-x="598" 
d="M233 1033l634 229l-19 -90l-517 -180l440 -181l-19 -91l-537 230z" />
    <glyph glyph-name="uni02C3" unicode="&#x2c3;" horiz-adv-x="598" 
d="M800 949l-633 -229l19 91l516 181l-439 180l19 90l536 -229z" />
    <glyph glyph-name="uni02C4" unicode="&#x2c4;" horiz-adv-x="598" 
d="M621 1284l105 -585h-90l-78 478l-283 -478h-91l354 585h83z" />
    <glyph glyph-name="uni02C5" unicode="&#x2c5;" horiz-adv-x="598" 
d="M413 699l-105 585h91l80 -478l281 478h90l-353 -585h-84z" />
    <glyph glyph-name="circumflex" unicode="&#x2c6;" horiz-adv-x="682" 
d="M776 1502l158 -289h-164l-104 192l-166 -192h-163l249 289h190z" />
    <glyph glyph-name="caron" unicode="&#x2c7;" horiz-adv-x="682" 
d="M634 1213h-190l-168 289h163l112 -192l158 192h164z" />
    <glyph glyph-name="uni02C8" unicode="&#x2c8;" horiz-adv-x="391" 
d="M429 1458h102l-66 -311h-102z" />
    <glyph glyph-name="uni02C9" unicode="&#x2c9;" horiz-adv-x="682" 
d="M305 1400h640l-25 -118h-640z" />
    <glyph glyph-name="uni02CA" unicode="&#x2ca;" horiz-adv-x="682" 
d="M917 1502l-329 -289h-138l245 289h222z" />
    <glyph glyph-name="uni02CB" unicode="&#x2cb;" horiz-adv-x="682" 
d="M720 1213h-137l-206 289h223z" />
    <glyph glyph-name="uni02CC" unicode="&#x2cc;" horiz-adv-x="391" 
d="M89 -142h102l-66 -311h-102z" />
    <glyph glyph-name="uni02CD" unicode="&#x2cd;" horiz-adv-x="682" 
d="M-34 -200h639l-25 -118h-639z" />
    <glyph glyph-name="uni02CE" unicode="&#x2ce;" horiz-adv-x="682" 
d="M380 -387h-137l-206 289h223z" />
    <glyph glyph-name="uni02CF" unicode="&#x2cf;" horiz-adv-x="682" 
d="M577 -98l-329 -289h-138l245 289h222z" />
    <glyph glyph-name="colontriangularmod" unicode="&#x2d0;" horiz-adv-x="425" 
d="M29 -17l12 59l222 313h61l87 -313l-12 -59h-154v0h-61v0h-155zM605 955l-12 -59l-222 -313h-61l-87 313l12 59h154v0h61v0h155z" />
    <glyph glyph-name="colontriangularhalfmod" unicode="&#x2d1;" horiz-adv-x="425" 
d="M542 655l-13 -59l-221 -313h-61l-88 313l13 59h154v0h61v0h155z" />
    <glyph glyph-name="uni02D2" unicode="&#x2d2;" horiz-adv-x="425" 
d="M224 408l18 83q52 0 97 37t56 89t-18.5 89t-81.5 37l18 83q86 0 134.5 -61.5t30.5 -147.5q-19 -86 -93.5 -147.5t-160.5 -61.5z" />
    <glyph glyph-name="uni02D3" unicode="&#x2d3;" horiz-adv-x="425" 
d="M433 408q-86 0 -134.5 61.5t-29.5 147.5q18 86 92.5 147.5t160.5 61.5l-18 -83q-52 0 -96.5 -37t-55.5 -89t18 -89t81 -37z" />
    <glyph glyph-name="uni02D4" unicode="&#x2d4;" horiz-adv-x="598" 
d="M45 -1l18 84h218l94 440h85l-94 -440h218l-18 -84h-218l1 1h-85l-1 -1h-218z" />
    <glyph glyph-name="uni02D5" unicode="&#x2d5;" horiz-adv-x="598" 
d="M678 523l-18 -84h-218l-94 -440h-85l94 440h-218l18 84h218l-1 -1h85l1 1h218z" />
    <glyph glyph-name="uni02D6" unicode="&#x2d6;" horiz-adv-x="598" 
d="M92 219l18 84h218l47 220h85l-47 -220h218l-18 -84h-218l-46 -219h-85l46 219h-218z" />
    <glyph glyph-name="uni02D7" unicode="&#x2d7;" horiz-adv-x="682" 
d="M198 532h502l-20 -93h-502z" />
    <glyph glyph-name="breve" unicode="&#x2d8;" horiz-adv-x="682" 
d="M400 1500q13 -65 41 -98q52 -59 170 -59q109 0 167 59q33 34 53 98h99q-30 -147 -118.5 -212t-230.5 -65q-177 0 -244 119q-36 62 -39 158h102z" />
    <glyph glyph-name="dotaccent" unicode="&#x2d9;" horiz-adv-x="682" 
d="M554 1445h187l-45 -208h-187z" />
    </font>
</defs>
</svg>
