<?xml version="1.0" standalone="no"?>
<!DOCTYPE svg PUBLIC "-//W3C//DTD SVG 1.1//EN" "http://www.w3.org/Graphics/SVG/1.1/DTD/svg11.dtd" >
<svg xmlns="http://www.w3.org/2000/svg">
<metadata>Generated by IcoMoon</metadata>
<defs>
<font id="icomoon" horiz-adv-x="1024">
<font-face units-per-em="1024" ascent="1024" descent="0" />
<missing-glyph horiz-adv-x="1024" />
<glyph unicode="&#x20;" d="" />
<glyph unicode="&#xf101;" glyph-name="behance" d="M332 780q38 0 69-6t53-21 34-40 12-63-18-65-52-43q48-14 71-49t23-85q0-40-15-69t-41-47-59-27-69-9h-254v524h246zM318 568q30 0 50 15t20 49q0 18-6 30t-18 18-25 9-29 3h-110v-124h118zM340 558q16 0 32 3t27 11 18 21 7 33q0 42-22 59t-60 17h-142v-144h140zM704 560q24-24 68-24 32 0 54 16t28 34h92q-22-68-67-98t-111-30q-44 0-80 15t-61 41-39 63-14 80 14 80 40 64 62 42 78 15q50 0 85-18t59-50 34-72 8-84h-290q0-24 7-44t19-30h14zM810 758q-20 22-60 22-24 0-41-8t-27-21-14-27-4-26h170q-4 38-24 60zM538 706h212v40h-212v-40z" />
<glyph unicode="&#xf102;" glyph-name="google-alt" d="M512 938q-116 0-214-57t-155-155-57-214 57-214 155-155 214-57 214 57 155 155 57 214-57 214-155 155-214 57zM510 256q-70 0-129 34t-93 93-34 129 34 129 93 93 129 34q100 0 172-66l-74-72q-40 38-98 38-64 0-109-46t-45-110 45-110 110-46 103 38q30 30 36 70h-140v94h240q6-28 6-52 0-110-68-180t-178-70z" />
<glyph unicode="&#xf103;" glyph-name="google" d="M512 590v-160h236q-12-66-60-114-66-66-174-66-70 0-129 35t-94 95-35 131 35 131 94 95 129 35q96 0 164-62l120 118q-118 110-284 110-116 0-214-57t-156-155-58-214 58-214 156-155 214-57q120 0 213 53t144 148 51 215q0 40-10 88h-400z" />
<glyph unicode="&#xf200;" glyph-name="github" d="M512 938q-116 0-214-57t-155-155-57-214q0-140 81-251t211-153q14-4 21 3t7 17v72q-42-8-72-2-26 6-44 22-14 10-22 24l-6 14q-12 30-32 50-8 8-16 12v0q-24 16-12 22 6 4 16 4v0q18-2 36-12 12-10 22-22l6-10q26-42 68-46 28-2 56 10 6 38 28 58-88 10-132 48-62 52-62 162 0 66 44 114-8 18-8 40-4 36 12 74h12q16 0 38-8 30-12 68-36 50 14 106 14t106-14q52 34 90 42 20 4 28 2v0q14-38 12-74 0-22-8-40 44-48 44-114 0-110-62-162-46-38-132-48 28-24 28-80v-116q0-10 7-17t23-3q128 42 209 153t81 251q0 116-57 214t-155 155-214 57z" />
<glyph unicode="&#xf201;" glyph-name="dribbble" d="M512 86q-116 0-214 57t-155 155-57 214 57 214 155 155 214 57 214-57 155-155 57-214-57-214-155-155-214-57zM872 454q-32 10-76 16-78 10-152 0 52-138 72-260 62 42 103 105t53 139zM654 176q-22 132-78 276h-2q-130-46-218-136-46-48-68-92 98-76 224-76 74 0 142 28zM242 268q28 50 80 102 98 100 216 138l14 4q-12 30-30 62-114-34-250-46-70-6-124-6v-10q0-70 24-132t70-112zM156 586q46 0 110 6 118 10 226 38-62 112-134 212-78-38-132-105t-70-151zM426 866q74-98 136-214 82 32 142 80 32 28 50 52-50 44-112 68t-130 24q-44 0-86-10zM794 742q-18-26-54-56-64-52-150-88 14-26 24-52l8-20q78 10 168 2 50-6 86-14 0 128-82 228z" />
<glyph unicode="&#xf202;" glyph-name="twitter-alt" d="M776.6 928h141.2l-308.4-352.4 362.8-479.6h-284l-222.6 290.8-254.4-290.8h-141.4l329.8 377-347.8 455h291.2l201-265.8 232.6 265.8zM727 180.4h78.2l-504.8 667.6h-84l510.6-667.6z" />
<glyph unicode="&#xf203;" glyph-name="facebook" d="M854 896h-684q-18 0-30-12t-12-30v-684q0-18 12-30t30-12h368v298h-100v116h100v84q0 74 41 114t109 40q54 0 88-4v-104h-60q-34 0-46-14t-12-42v-74h114l-14-116h-100v-298h196q18 0 30 12t12 30v684q0 18-12 30t-30 12z" />
<glyph unicode="&#xf205;" glyph-name="wordpress" d="M518 478l-114-334q52-16 108-16 66 0 128 22l-4 6zM128 512q0-112 60-205t156-141l-182 502q-34-74-34-156zM770 532q0 50-30 106l-6 6q-16 28-22 42-10 22-10 42 0 26 18 47t46 21l6-2q-54 48-120 75t-140 27q-98 0-183-47t-137-127h24q26 0 66 2l36 4q10 0 15-8t1-16-14-8l-44-4 140-416 84 252-60 164q-20 0-40 4v0q-10 0-13 8t2 16 15 8l36-4q40-2 65-2t65 2l36 4q10 0 15-8t1-16-14-8l-44-4 140-412 38 128q28 74 28 124zM848 696q4-18 4-40 0-64-30-136l-118-340q88 52 140 140t52 192q0 98-48 184zM512 86q-116 0-214 57t-155 155-57 214 57 214 155 155 214 57 214-57 155-155 57-214-57-214-155-155-214-57z" />
<glyph unicode="&#xf206;" glyph-name="google-plus" d="M512 938q-116 0-214-57t-155-155-57-214 57-214 155-155 214-57 214 57 155 155 57 214-57 214-155 155-214 57zM430 340q-72 0-122 50t-50 122 50 122 120 50 118-44l-50-48q-26 26-67 26t-72-31-31-75 31-75 74-31 69 26q20 20 26 46h-96v66h162q4-20 4-36 0-74-46-121t-120-47zM810 480h-52v-54h-64v54h-54v64h54v54h64v-54h52v-64z" />
<glyph unicode="&#xf207;" glyph-name="linkedin" d="M840 896h-656q-24 0-40-16t-16-40v-656q0-24 16-40t40-16h656q24 0 40 16t16 40v656q0 24-16 40t-40 16zM356 242h-114v366h114v-366zM298 658q-26 0-46 19t-20 47 20 47 47 19 46-19 19-47-19-47-47-19zM782 242h-114v178q0 44-8 64-12 32-52 32t-56-28q-10-22-10-66v-180h-114v366h108v-50h2q12 24 38 40 32 20 70 20 80 0 112-52 24-38 24-124v-200z" />
<glyph unicode="&#xf209;" glyph-name="pinterest" d="M512 938q-116 0-214-57t-155-155-57-214q0-134 75-242t195-156q-8 80 2 124l50 212-6 16q-6 22-6 46 0 44 22 74t54 30q26 0 40-17t14-42-20-87q-10-38-14-56-8-32 11-55t51-23q58 0 96 55t38 141q0 76-50 125t-128 49q-86 0-142-58-50-52-50-128 0-26 9-53t23-43q4-6 2-12l-12-50q-2-10-14-6-38 18-62 67t-24 99q0 70 33 129t93 93q66 36 156 36 72 0 132-32t95-88 35-127-28-132-79-97-113-36q-32 0-60 15t-38 35l-28-102q-10-44-52-112 60-18 126-18 116 0 214 57t155 155 57 214-57 214-155 155-214 57z" />
<glyph unicode="&#xf210;" glyph-name="pinterest-alt" d="M524 938q-116 0-204-46-80-44-123-118t-43-160q0-62 30-122 34-64 84-86 14-8 18 6l16 62q2 8-4 14-18 22-30 56t-12 68q0 60 31 113t85 85q60 34 138 34 102 0 168-61t66-157q0-108-50-177t-126-69q-42 0-68 29t-16 69q6 22 22 68 24 80 24 111t-18 53-52 22q-42 0-72-38t-30-92q0-30 8-58l10-22-66-268q-12-44-6-120 4-42 10-76 0-4 4-5t6 3q14 18 40 62 40 66 52 110l34 128q14-26 51-44t79-18q82 0 148 45t104 121 38 168q0 88-46 159t-125 111-175 40z" />
<glyph unicode="&#xf211;" glyph-name="flickr" d="M278 726q-58 0-107-29t-78-78-29-107 29-107 78-78 107-29 107 29 77 78 28 107-28 107-77 78-107 29zM746 726q-58 0-107-29t-77-78-28-107 28-107 77-78 107-29 107 29 78 78 29 107-29 107-78 78-107 29z" />
<glyph unicode="&#xf212;" glyph-name="vimeo" d="M956 718q-6-130-182-354-180-236-306-236-78 0-132 144l-72 262q-38 144-84 144-10 0-70-42l-42 54q68 60 130 116 88 74 132 78 102 10 126-140 26-164 36-204 30-136 66-136 28 0 84 88t60 134q8 76-60 76-32 0-66-14 66 214 250 208 138-4 130-178z" />
<glyph unicode="&#xf213;" glyph-name="youtube" d="M930 682q-4 16-8 34-10 36-26 52-18 20-44 28-14 4-36 6l-6 2q-118 8-298 8h-104q-120-4-194-8l-6-2q-22-2-36-6-26-8-44-28-16-16-26-52-6-18-8-34l-4-42q-4-52-4-96v-64q0-44 4-96l4-42 8-34q10-34 27-52t41-26q16-4 40-8l12-2q68-6 290-8l104 2q120 2 194 6l6 2q22 2 36 6 26 8 44 28 16 18 26 52l8 34 4 42q4 52 4 96v64q0 44-4 96zM424 402v240l230-122z" />
<glyph unicode="&#xf214;" glyph-name="tumblr" d="M810 896h-596q-36 0-61-25t-25-61v-596q0-36 25-61t61-25h596q36 0 61 25t25 61v596q0 36-25 61t-61 25zM574 288q-72-2-112 42-32 38-32 86v156h-50v62q48 16 74 60 16 30 20 68 2 4 4 4h70v-122h96v-72h-96v-150q2-48 46-46 24 0 40 8l22-68q-6-10-32-19t-50-9z" />
<glyph unicode="&#xf215;" glyph-name="instagram" d="M512 826q106 0 156-2 42-2 69-12t46-29 29-46 12-69q2-50 2-156t-2-156q-2-42-12-69t-29-46-46-29-69-12q-50-2-156-2t-156 2q-42 2-69 12t-46 29-29 46-12 69q-2 50-2 156t2 156q2 42 12 69t29 46 46 29 69 12q50 2 156 2zM512 896q-108 0-160-2t-91-18-68-45-45-68-18-91-2-160 2-160 18-91 45-68 68-45 91-18 160-2 160 2 91 18 68 45 45 68 18 91 2 160-2 160-18 91-45 68-68 45-91 18-160 2zM512 640q-82 0-140-58t-58-139 58-139 140-58 140 58 58 138q0 56-28 119t-70 103q-48 46-100 46v-70zM512 384q-54 0-91 37t-37 91 37 91 91 37 91-37 37-91-37-91-91-37zM716 764q-18 0-32-14t-14-33 14-33 33-14 33 14 14 33-14 33-34 14z" />
<glyph unicode="&#xf216;" glyph-name="codepen" d="M940 646v2l-6 12-6 8-396 264q-8 6-20 6t-20-6l-398-264-8-14-2-276 10-22 398-264q8-6 20-6t20 6l392 260 12 14 2 6zM548 834l288-192-128-86-160 106v172zM476 834v-172l-160-106-128 86zM158 574l92-62-92-62v124zM476 190l-288 192 128 86 160-106v-172zM512 426l-130 86 130 86 130-86zM548 190v172l160 106 128-86zM866 450l-92 62 92 62v-124z" />
<glyph unicode="&#xf217;" glyph-name="polldaddy" d="M512 938q-116 0-214-57t-155-155-57-214 57-214 155-155 214-57 214 57 155 155 57 214-57 214-155 155-214 57zM554 866q76-2 146-37t118-95q18-22 34-46-46 58-114 92t-144 34-142-31-112-85l-8-8q-70-76-70-178 0-72 35-132t96-95 131-35q36 0 70 8-60-26-128-23t-126 38-97 96-48 131 15 140 76 122 123 80 145 24zM698 504q-2 64-45 116t-105 62-118-23-73-91 9-113 80-75 107 4 72 75-7 101-75 62-93-19-46-79q0-22 8-43t24-36 38-21 43-2 37 17 25 31 8 39-11 37-26 26-35 11-35-7-26-22-12-31 4-33v0q6-20 24-34t40-14q-24-2-42 8-16 8-26 23t-12 32 3 35 19 30q26 30 67 27t65-37 16-76-47-65-82-12-67 52-15 86 49 74 92 25 86-40 40-91-23-98-82-63-106-5-89 62-40 105 25 108 83 79 117 24 113-41q40-30 65-75t29-97v0q0-62-30-113t-82-82-112-31q-42 0-82 18 56-14 110 2 66 20 108 75t38 123zM512 124q-106 0-195 52t-141 141-52 195q0 100 47 186t130 140 181 62l-16-4q-86-14-157-64t-113-123-45-160 31-162 101-128 146-66 158 14 133 84 71 137-9 154q-18 58-60 104t-98 68q112-20 186-98 78-80 78-192 0-62-28-126-50-96-143-155t-205-59z" />
<glyph unicode="&#xf218;" glyph-name="google-plus-alt" d="M342 554h282q4-26 4-48 0-130-79-211t-207-81q-82 0-151 40t-109 108-40 150 40 150 109 108 151 40q116 0 200-78l-82-78q-48 46-118 46-78 0-132-55t-54-133 54-133 132-55 126 48q36 36 42 80h-168v102zM982 554h-86v86h-86v-86h-84v-84h84v-86h86v86h86v84z" />
<glyph unicode="&#xf219;" glyph-name="path" d="M810 896h-596q-36 0-61-25t-25-61v-596q0-36 25-61t61-25h596q36 0 61 25t25 61v596q0 36-25 61t-61 25zM636 418q-28-14-56-14-40 0-62 10v-42q0-88-80-88-16 0-34 4t-24 16v66q14-16 37-16t23 24v234h78v-138q20-6 40-6 40 0 67 24t27 62q0 58-46 88-38 26-98 26-56 0-96-28-42-32-42-86 0-36 20-58l-56-50q-24 26-32 49t-8 59q0 86 64 138 60 50 146 50 92 0 156-46 70-50 70-138 0-46-25-83t-69-57z" />
<glyph unicode="&#xf220;" glyph-name="skype" d="M432 908l4 2 4-2h-8zM116 588v-4l2-4zM908 436v4l-2 6zM578 120q2 0 2-2h8zM938 324q0-46-18-90t-51-78-77-52-92-18q-62 0-118 32h6l-10 2 4-2q-34-6-70-6-82 0-155 31t-129 86-87 129-31 156q0 34 6 70l2-4-2 8v-4q-30 54-30 116 0 46 18 90t51 78 77 52 92 18q60 0 112-28l-4-2h8l-4 2q38 8 76 8 82 0 156-32t129-87 87-129 32-156q0-36-8-74l-2 6 2-10v4q30-54 30-116zM718 420q0 112-130 140l-94 22q-36 8-52 16-26 14-26 38t22 40 61 16 67-14q16-10 34-32 12-14 20-18 12-8 26-8 22 0 37 12t15 32q0 46-61 80t-131 34q-82 0-136-34-62-40-62-116 0-46 22-76 30-40 100-56l126-32q48-12 48-52 0-26-24-45t-67-19-71 18q-16 10-36 36-14 18-22 24-12 10-31 10t-33-13-14-33q0-28 23-56t67-46q50-20 118-20 98 0 152 44 52 40 52 108z" />
<glyph unicode="&#xf222;" glyph-name="reddit" d="M938 520q0 40-28 69t-67 29-67-28q-100 66-240 72l50 158 136-32q0-32 23-55t56-23 57 23 24 56-24 57-56 24q-26 0-45-13t-29-35l-150 34q-6 2-12-1t-8-9l-58-182q-72-2-137-21t-117-51q-28 24-64 24-40 0-68-28t-28-68q0-26 12-48t34-34q-4-16-4-28 0-70 52-129t139-93 191-34 191 34 139 93 52 129q0 12-2 26 22 12 35 35t13 49zM802 836q18 0 32-13t14-33-14-34-33-14-33 14-14 33 14 33 34 14zM118 520q0 26 19 45t45 19q20 0 36-12-56-44-78-100-22 18-22 48zM510 188q-94 0-174 30t-127 80-47 111 47 111 127 80 174 30 174-30 127-80 47-111-47-111-127-80-174-30zM880 470q-20 56-76 102 16 12 38 12 26 0 45-19t19-45q0-32-26-50zM384 396q-24 0-42 18t-18 42 18 41 42 17 41-17 17-42-17-42-41-17zM700 456q0-24-17-42t-42-18-42 18-17 42 17 41 42 17 42-17 17-41zM650 312q4-6 4-13t-4-11q-44-44-138-44v0q-96 0-138 44-4 4-4 11t5 12 11 5 12-4q32-34 114-34v0q82 0 114 34 6 4 12 4t12-4z" />
<glyph unicode="&#xf223;" glyph-name="stumbleupon" d="M512 840q-80 0-135-55t-55-135v-272q0-18-14-31t-32-13-32 13-14 31v122h-144v-126q0-80 56-135t135-55 134 55 55 135v276q0 18 14 32t32 14 32-14 14-32v-56l60-26 84 26v56q0 80-55 135t-135 55zM558 496v-122q0-80 55-135t134-55 135 55 56 135v120h-144v-120q0-18-14-32t-32-14-32 14-14 32v122l-84-26z" />
<glyph unicode="&#xf224;" glyph-name="pocket" d="M936 846q-8 22-28 36t-46 14h-698q-24 0-44-14t-28-36q-6-14-6-28v-256l4-52q8-86 51-161t115-129l6-4q76-56 166-74 42-8 84-8t80 8l12 2q88 20 160 72l6 4q72 54 115 129t51 161l4 52v256q0 16-4 28zM754 576l-200-192q-16-16-40-16t-40 16l-202 192q-18 18-18 42t17 42 41 18 42-16l160-154 160 154q18 16 42 16t41-18 16-42-19-42z" />
<glyph unicode="&#xf225;" glyph-name="dropbox" d="M512 762l-254-156-172 138 250 164zM86 468l250-164 176 146-254 156zM512 450l176-146 250 164-172 138zM938 746l-250 162-176-146 254-156 172 138v2zM512 418l-176-146-76 50v-56l252-150 252 150v56l-76-50z" />
<glyph unicode="&#xf226;" glyph-name="foursquare" d="M750 938h-456l-20-12q-24-16-40-32-20-20-20-32v-724q0-38 28-50 10-4 24-2 20 2 30 14l218 254 6 4h146q36 0 56 24 10 14 16 42v2q4 12 46 224l36 180q12 54-5 81t-65 27zM704 716q-2-8-11-15t-17-7h-178q-14 0-24-9t-10-25v-22q0-14 10-24t24-10h150l14-10q14-10 12-20l-20-98q-2-8-9-15t-19-7h-122q-18 0-26-4t-18-18l-150-180q-2-2-2 0v564q0 12 8 20t20 8h364q10 0 18-8t4-20z" />
<glyph unicode="&#xf410;" glyph-name="mail" d="M854 854h-684q-34 0-59-25t-25-61v-512q0-36 25-61t59-25h684q34 0 59 25t25 61v512q0 36-25 61t-59 25zM854 672l-342-208-342 208v96h684v-96z" />
<glyph unicode="&#xf413;" glyph-name="feed" d="M86 654v-142q116 0 214-57t155-155 57-214h142q0 154-78 286-74 130-204 204-132 78-286 78zM86 938v-142q192 0 358-96 160-96 256-256 96-166 96-358h142q0 232-116 430-112 194-306 306-198 116-430 116zM192 298q-44 0-75-31t-31-75 31-75 75-31 75 31 31 75-31 75-75 31z" />
<glyph unicode="&#xf415;" glyph-name="share" d="M768 342q-50 0-86-36l-302 176q4 18 4 30t-4 30l300 176q38-36 90-36t89 38 37 91-37 90-91 37-91-37-37-91q0-12 4-30l-300-174q-38 34-90 34t-89-37-37-91 37-91 89-37 90 34l300-176q-4-14-4-28 0-54 37-91t91-37 91 37 37 90-37 91-91 38z" />
<glyph unicode="&#xf469;" glyph-name="print" d="M384 342h256v-86h-256v86zM938 298h-128v-128q0-34-25-59t-59-25h-428q-34 0-59 25t-25 59v128h-128v342q0 36 25 61t59 25h44v84q0 36 25 61t59 25h428q34 0 59-25t25-61v-84h44q34 0 59-25t25-61v-342zM298 726h428v84h-428v-84zM726 426h-428v-256h428v256zM854 576q0 26-19 45t-46 19-45-19-18-45 18-45 45-19 46 19 19 45z" />
<glyph unicode="&#xf515;" glyph-name="spotify" d="M512 938q-116 0-214-57t-155-155-57-214 57-214 155-155 214-57 214 57 155 155 57 214-57 214-155 155-214 57zM708 324q-6-10-17-13t-19 3q-152 92-376 42-10-2-20 3t-12 16 4 20 16 13q246 56 414-48 10-6 13-17t-3-19zM760 440q-8-12-21-15t-25 3q-86 54-205 68t-221-18q-12-4-24 3t-16 20 2 25 20 16q116 36 248 20t230-76q12-8 16-21t-4-25zM764 560q-98 58-250 70-140 12-246-20-16-6-30 2t-19 24 3 31 24 19q120 36 276 24 170-14 284-80 14-10 18-26t-5-30-25-18-30 4z" />
<glyph unicode="&#xf516;" glyph-name="twitch" d="M704 678h-70v-208h70v208zM512 678h-70v-208h70v208zM180 888l-52-140v-558h192v-104h104l106 104h156l210 210v488h-716zM826 434l-122-122h-192l-104-104v104h-158v506h576v-384z" />
<glyph unicode="&#xf600;" glyph-name="amazon" d="M580 674q-12 0-34-2-68-8-100-14-58-8-94-26-60-24-94-74-36-52-36-124 0-90 52-140 50-48 130-48 64 0 107 19t93 69l8-14q16-22 24-32 14-16 38-34 16-10 28 2v0q46 42 94 80 6 6 6 15t-6 17l-8 10q-20 26-26 42-12 26-12 60v210q0 70-6 102-12 52-48 86-32 32-86 48-46 12-96 12-100 0-168-38-84-48-104-146-2-12 4-18t14-8l118-14q8 2 14 8t8 16q6 34 33 53t63 19q22 0 40-8t28-23 14-39q2-12 2-40v-26zM556 422q-14-24-36-39t-48-15q-34 0-53 24t-19 64q0 70 56 100 44 22 124 22v-32q0-44-4-64-4-32-20-60zM882 198q-72-54-176-84-98-28-194-28-130 0-247 45t-207 127q-8 6-3 12t13 2q98-58 215-89t239-31q178 0 346 70 12 6 19-4t-5-20zM910 126q-6-6-10-3t-2 9v0q40 98 27 115t-117 3h-2q-6 0-7 5t5 9q26 18 66 26 32 4 61 0t36-11 2-37-17-60q-18-36-42-56z" />
<glyph unicode="&#xf601;" glyph-name="blogger-alt" d="M844 602h-42q-20 0-34 13t-16 33v0q0 68-34 125t-91 90-123 33h-126q-66 0-123-33t-91-90-34-125v-272q0-68 34-125t91-90 123-33h268q66 0 123 33t91 90 34 125v176q0 20-15 35t-35 15zM372 694h140q20 0 34-14t14-33-14-33-34-14h-140q-20 0-34 14t-14 33 14 33 34 14zM654 326h-282q-18 0-32 13t-14 32 14 32 32 13h282q18 0 32-13t14-32-14-32-32-13z" />
<glyph unicode="&#xf602;" glyph-name="blogger" d="M628 426q0-12-8-20t-20-8h-174q-12 0-20 8t-8 20 8 20 20 8h174q12 0 20-8t8-20zM426 568h86q12 0 21 8t9 21-9 21-21 8h-86q-12 0-21-8t-9-21 9-21 21-8zM896 810v-596q0-36-25-61t-61-25h-596q-36 0-61 25t-25 61v596q0 36 25 61t61 25h596q36 0 61-25t25-61zM748 538q0 12-9 21t-21 9h-26q-12 0-21 9t-11 21v0q0 64-45 109t-107 45h-78q-64 0-109-45t-45-109v-168q0-64 45-109t109-45h164q64 0 109 45t45 109v108z" />
<glyph unicode="&#xf603;" glyph-name="eventbrite" d="M770 856l-516 40q-52 0-89-37t-37-89v-516q0-52 37-89t89-37l516 40q54 2 90 38t36 88v436q0 52-36 88t-90 38zM722 676q-6-18-15-24t-35-6l-196 2-20-90h130q26 0 38-4 16-4 20-20 2-10-2-26-8-28-26-32-10-4-28-4h-150l-20-100 198 2q46 2 42-36-2-16-9-31t-21-19q-8-2-28-2l-162-4q-54-2-82-2-40 0-48 32-2 14 2 36l70 332q4 20 8 30 12 20 34 26 12 4 42 2l210-2q24 0 38-6t16-20-6-34z" />
<glyph unicode="&#xf604;" glyph-name="path-alt" d="M734 326q-52-26-100-26-72 0-110 18v-76q0-156-144-156-28 0-54 6-36 10-46 28v120q12-12 29-21t36-9 30 11 11 31v416h138v-244q34-12 72-12 68 0 116 43t48 111q0 102-80 156-68 46-176 46-62 0-118-24t-90-66q-36-50-36-114t38-104l-102-86q-40 44-54 86t-14 106q0 100 52 178 50 74 135 113t187 39 190-34q94-38 146-108 60-76 60-182 0-82-44-147t-120-99z" />
<glyph unicode="&#xf605;" glyph-name="squarespace" d="M890 628q-48 48-116 48t-116-48l-262-262q-12-12-12-29t12-29 29-12 29 12l262 262q24 24 58 24t58-24 24-58-24-58l-256-258q24-24 58-24t58 24l198 200q48 48 48 116t-48 116zM804 542q-12 12-30 12t-30-12l-262-262q-24-26-58-26t-58 26q-12 12-29 12t-29-12-12-30 12-30q48-48 116-48t118 48l262 262q12 12 12 30t-12 30zM716 804q-48 48-116 48t-118-48l-262-262q-12-12-12-30t12-30 30-12 30 12l262 262q24 26 58 26t58-26q12-12 29-12t29 12 12 30-12 30zM628 716q-12 12-29 12t-29-12l-262-262q-24-24-58-24t-58 24-24 58 24 58l256 258q-24 24-58 24t-58-24l-198-200q-48-48-48-116t48-116 116-48 116 48l262 262q12 12 12 29t-12 29z" />
<glyph unicode="&#xf606;" glyph-name="telegram" d="M512 938q-116 0-214-57t-155-155-57-214 57-214 155-155 214-57 214 57 155 155 57 214-57 214-155 155-214 57zM644 310l-4-8q-6-6-15-9t-21 3l-108 82-70-64h-4q-4-2-8 0l-4 2q-4 6-8 18l-38 128-108 36-8 4q-10 6-10 14-2 12 18 20l438 170q10 4 18 1t8-13z" />
<glyph unicode="&#xf607;" glyph-name="tumblr-alt" d="M714 282q-28-14-66-14-44-2-64 26-14 20-14 54v256h164v124h-164v208h-120q-6 0-6-6-8-66-36-116-42-74-126-104v-106h84v-268q0-50 24-98 28-56 78-86 60-36 144-36 44 2 87 17t55 31z" />
<glyph unicode="&#xf608;" glyph-name="whatsapp" d="M88 86l60 218q-58 98-58 212t57 211 155 154 212 57q84 0 162-32t137-92 91-137 32-161q0-116-57-213t-154-154-211-57v0q-108 0-202 52zM322 220l12-8q84-48 180-48v0q96 0 176 47t128 128 48 177q0 70-27 134t-77 114-114 77-134 27q-96 0-177-48t-128-128-47-176q0-102 54-188l8-12-36-130zM726 414q-2 4-14 10l-6 4q-60 30-70 33t-15 3-11-8q-8-12-32-40-10-10-24-4l-6 4q-44 18-78 48t-60 74q-6 10 6 22l16 18q4 6 8 14l2 4q4 8-2 18l-32 78q-8 18-22 18l-22 2q-16 0-28-14l-2-2q-34-38-34-88t42-108l2-2q80-114 178-158 28-12 59-21t69-5q16 4 40 19t30 32 8 32-2 19v-2z" />
<glyph unicode="&#xf609;" glyph-name="xanga" d="M384 640h256v-256h-256v256zM128 640h256v256h-256v-256zM640 640h256v256h-256v-256zM640 128h256v256h-256v-256zM128 128h256v256h-256v-256z" />
<glyph unicode="&#xf610;" glyph-name="twitter" d="M192 960c-70.6 0-128-57.4-128-128v-640c0-70.6 57.4-128 128-128h640c70.6 0 128 57.4 128 128v640c0 70.6-57.4 128-128 128h-640zM786.2 792l-207.6-237.2 244.2-322.8h-191.2l-149.6 195.8-171.4-195.8h-95l222 253.8-234.2 306.2h196l135.4-179 156.4 179h95zM710.6 288.8l-339.8 449.4h-56.6l343.6-449.4h52.6z" />
<glyph unicode="&#xf61c;" glyph-name="ghost" d="M436 128h-308v154h308v-154zM896 282h-308v-154h308v154zM896 588h-768v-152h768v152zM588 896h-460v-154h460v154zM896 896h-154v-154h154v154z" />
<glyph unicode="&#xf623;" glyph-name="medium" d="M894 714l-232-378-168 272 134 216q8 14 22 14l12-4 232-116q2-2 0-4zM420 658v-248l220-108zM672 284l182-90q18-8 30-3t12 21v434zM382 718l-226 112q-6 4-12 4-16 0-16-20v-490q0-8 6-19t16-15l198-100q8-2 16-2t14 6 6 18v504q0 2-2 2z" />
</font>
</defs>
</svg>
