<?xml version="1.0" standalone="no"?>
<!DOCTYPE svg PUBLIC "-//W3C//DTD SVG 1.1//EN" "http://www.w3.org/Graphics/SVG/1.1/DTD/svg11.dtd" >
<svg xmlns="http://www.w3.org/2000/svg">
<metadata>Generated by IcoMoon</metadata>
<defs>
<font id="flowplayer" horiz-adv-x="1024">
<font-face units-per-em="1024" ascent="819.8005865102639" descent="-204.19941348973606" />
<missing-glyph horiz-adv-x="1024" />
<glyph unicode="&#x20;" horiz-adv-x="256.25024437927664" d="" />
<glyph unicode="&#xe001;" glyph-name="uniE001" d="M702 101q11-21 10-35 0-4-1-6 0-6-4-12-4-7-12-13-13-8-36-8h-293q-17 0-31 5-14 8-20 21-2 9-2 13-1 14 10 35l146 254q3 4 5 7 3 4 5 7 18 20 39 16h2q2-1 4-1l4-2t3-1q2-1 4-3 11-8 21-23zM811 623q24 0 42-17 18-18 18-43v-371q0-26-18-43-18-18-42-18h-64q-2 4-3 5l-146 256q-32 54-85 54-54 0-86-54l-146-256q-1-1-3-5h-64q-24 0-42 18-18 17-18 43v371q0 25 18 43 18 17 42 17h597z" />
<glyph unicode="&#xe002;" glyph-name="uniE002" d="M181 70l88 327q3 12 12 20t20 12q11 3 22 0 12-3 21-12l240-240q9-9 12-21 3-11 0-22-4-11-12-20t-20-12l-327-88q-13-3-24 0-12 4-20 12-9 8-12 20-3 11 0 24v0zM844 621l-88-327q-3-12-12-20t-20-12q-11-3-22 0-12 3-21 12l-240 240q-9 9-12 21-3 11 0 22 4 11 12 20t20 12l327 88q13 3 24 0 12-3 20-12 9-8 12-20 3-11 0-24v0z" />
<glyph unicode="&#xe003;" glyph-name="uniE003" d="M466 38q-31 0-50 27l-180 316q-15 22-11 48 5 25 26 40 21 14 46 10 26-4 40-26l123-186 321 461q10 18 28 25t33-2q17-10 23-26 5-17-6-36l-338-619q-8-15-22-23-13-8-29-9h-4z" />
<glyph unicode="&#xe004;" glyph-name="uniE004" d="M511 693q1 18 9 34t20 29q12 12 28 18 16 7 35 7 37-1 63-27t26-63q0-21-8-38-9-17-23-30-6-6-15-14-8-7-8-15 0-10 5-17t13-13q8-5 18-8 10-2 19 0l117 17 20-193q2-21-12-37t-36-16h-6q-32 0-51 23-26 30-68 30-19 0-36-7-17-8-30-21-12-13-19-31-6-18-5-37 2-33 26-57 25-25 59-26 21-2 40 7 18 8 33 23 18 23 50 23h7q22 0 35-16 14-15 12-37l-19-168h-471q-1 0-1 1l19 153q1 11-2 23-3 13-11 22-7 10-17 16t-22 6q-11 0-20-8-9-9-16-17-26-28-66-28-37 0-64 26-26 26-26 63 0 19 6 34 7 16 19 29 12 12 28 20 15 7 34 7 42 2 68-27 8-9 17-17 9-9 20-9h1q12 0 22 6t17 16 10 22q4 12 3 24l-20 178 175-19q8-1 17 1 10 3 18 8t13 13q5 7 5 17v1q0 8-9 15-9 8-15 14-31 26-31 70v0z" />
<glyph unicode="&#xe005;" glyph-name="uniE005" d="M176 192q42-7 72-37 29-29 36-71 3-11-5-19-6-9-19-9h-88q-10 0-17 7-6 7-6 17v88q0 12 8 19 8 8 19 5v0zM172 305q46 0 87-18 41-17 72-48t48-72q18-41 18-87 0-12-9-20-8-9-20-9-11 0-19 9-9 8-9 20 0 35-13 65t-36 53-54 37q-30 13-65 13-12 0-20 8-9 9-9 21 0 11 9 19 8 9 20 9v0zM172 420q71 0 132-26 62-27 108-73t73-108q26-62 26-133 0-12-8-20-8-9-19-9-13 0-21 9-8 8-8 20 0 58-22 110-23 51-61 89-39 39-90 61-51 23-110 23-12 0-20 9-9 8-9 20 0 11 9 20 8 8 20 8v0zM780 599q34 0 57-24 24-23 24-57v-323q0-34-24-58-23-23-57-23h-214q-6 72-37 135-30 64-79 112-48 48-112 78-63 30-136 36v43q0 34 24 57 24 24 57 24h497z" />
<glyph unicode="&#xe006;" glyph-name="uniE006" d="M821 126q-16-12-36-19-19-7-42-7h-461q-23 0-42 7-20 7-36 19l218 190 42-36q20-19 49-19 27 0 48 19l42 36zM391 343l-216-187q-21 33-21 72v235q0 38 19 69zM201 563q34 29 81 29h461q47 0 81-29l-290-252q-9-9-21-9-13 0-22 9zM634 343l218 189q19-31 19-69v-235q0-39-21-72z" />
<glyph unicode="&#xe007;" glyph-name="uniE007" d="M223 566q0 30 10 51 10 20 27 30t39 8q23-2 48-17l424-245q25-15 38-34 13-18 13-37 0-20-13-38-13-19-38-34l-424-245q-25-15-48-17-22-2-39 8t-27 30q-10 21-10 51v489z" />
<glyph unicode="&#xe008;" glyph-name="uniE008" d="M341 18q-42 0-71 29t-29 72v453q0 43 29 72 29 30 71 30 43 0 73-30 29-29 29-72v-453q0-43-29-72-30-29-73-29v0zM684 18q-43 0-73 29-29 29-29 72v453q0 43 29 72 30 30 73 30 42 0 71-30 29-29 29-72v-453q0-43-29-72t-71-29v0z" />
<glyph unicode="&#xe009;" glyph-name="uniE009" d="M743 383q18 13 18 34t-18 33l-151 111q-9 6-19 1-9-4-9-16v-71h-26q-62 0-115-24-52-23-87-64-36-41-52-96-16-54-6-116 4-26 14-53 2-5 8-5 5 1 6 7 7 46 29 87 22 40 56 69 33 30 76 47 42 16 91 16h6v-60q0-11 9-16 10-5 19 2l151 114zM773 679q30 0 51-22 22-21 22-51v-521q0-30-22-51-21-22-51-22h-521q-30 0-51 22-22 21-22 51v521q0 30 22 51 21 22 51 22h521z" />
<glyph unicode="&#xe00a;" glyph-name="uniE00A" d="M639 418h-75v41q0 18 4 26 5 8 29 8h42v82h-67q-59 0-84-28-24-28-24-80v-49h-49v-82h49v-240h100v240h66zM513 704q73 0 139-28 65-28 114-77 49-48 77-114t28-139q0-74-28-140-28-65-77-114-48-49-114-77t-139-28q-74 0-140 28t-114 77q-49 49-77 114-28 66-28 140 0 73 28 139t77 114q48 49 114 77t140 28z" />
<glyph unicode="&#xe00b;" glyph-name="uniE00B" d="M452 625q9 9 19 10 11 1 20-3t15-12q6-9 6-20v-509q0-11-6-20-6-8-15-12t-19-3q-11 1-20 10l-136 125h-59q-32 0-60 12t-49 33-33 50q-13 28-13 60 0 31 13 59 12 29 33 50t49 33 60 12h59l136 125z" />
<glyph unicode="&#xe00c;" glyph-name="uniE00C" d="M706 418q28 21 49 51-26-12-56-16 15 9 26 23t17 31q-30-17-61-24-29 31-71 31-21 0-38-8t-30-21q-13-12-21-30-7-18-7-38v-11l2-11q-62 3-113 30t-87 71q-5-11-9-23t-4-26q0-25 12-46 11-21 31-34-23 1-44 12v-1q0-36 22-62t55-33q-11-3-24-3h-10l-9 2q9-30 34-48 25-19 56-20-24-19-55-30t-65-11h-11l-11 1q32-20 69-31 38-12 79-12 66 0 117 25 52 26 87 65t53 88 18 97q0 8-1 12v0zM513 704q74 0 139-28 66-28 114-77 49-48 77-114t28-139q0-75-28-140t-77-114q-48-49-114-77-65-28-139-28t-140 28q-65 28-114 77t-77 114-28 140q0 73 28 139t77 114q48 49 114 77t140 28z" />
<glyph unicode="&#xe00d;" glyph-name="uniE00D" d="M908 257q15-14 15-34t-15-34q-14-15-34-15-18 0-35 15l-88 88-88-88q-14-15-34-15-18 0-34 15-15 14-15 34t15 34l89 89-89 88q-15 14-15 34t15 34q14 15 34 15t34-15l88-88 88 88q15 15 35 15t34-15q15-14 15-34t-15-34l-88-88zM452 625q9 9 19 10 11 1 20-3t15-12q6-9 6-20v-509q0-11-6-20-6-8-15-12t-19-3q-11 1-20 10l-136 125h-59q-32 0-60 12t-49 33-33 50q-13 28-13 60 0 31 13 59 12 29 33 50t49 33 60 12h59l136 125z" />
<glyph unicode="&#xe00e;" glyph-name="uniE00E" d="M734 473q19 19 19 46t-19 48q-22 19-47 19-26 0-47-19l-59-60q-27-27-17-63l25 26q10 10 23 10 14 0 25-10 10-11 10-25 0-13-10-23l-26-25q36-10 63 17l60 59zM444 184q27 27 17 63l-25-26q-10-9-24-9-13 0-24 9-10 11-10 25 0 13 10 23l26 25q-5 1-9 2h-7q-29 0-47-19l-60-59q-19-19-19-46t19-48q21-19 48-19t46 19l59 60zM781 614q20-19 29-44 10-25 10-50 0-26-10-50-9-25-29-45l-59-59q-20-19-44-29t-51-10q-36 0-66 19l-48-49q22-38 17-83t-38-78l-59-59q-20-20-45-29-24-10-50-10-25 0-50 10-25 9-44 29-20 19-29 44-10 25-10 50 0 26 10 50 9 25 29 45l59 59q33 33 78 38t83-17l48 48q-22 38-17 83t38 78l59 59q20 20 45 29 24 10 50 10 25 0 50-10 25-9 44-29v0z" />
<glyph unicode="&#xe00f;" glyph-name="uniE00F" d="M801 152q19-21 19-48t-19-47q-20-19-48-19-12 0-24 5-13 4-23 14l-193 194-194-194q-10-10-23-14-12-5-24-5-28 0-48 19-19 20-19 47t19 48l194 194-194 193q-19 21-19 48t19 47q20 19 47 19t48-19l194-194 193 194q21 19 48 19t47-19q19-20 19-47t-19-48l-194-193z" />
<glyph unicode="&#xe010;" glyph-name="uniE010" d="M195 282q-28 0-47 19-20 20-20 48t20 48q19 19 47 19t48-19q19-20 19-48t-19-48q-20-19-48-19v0zM195 406q-24 0-40-17-17-17-17-40 0-24 17-40 16-17 40-17 23 0 40 17 17 16 17 40 0 23-17 40t-40 17zM178 370q0 7 8 4l36-20q7-5 0-10l-36-20q-8-4-8 4v42zM325 390q-4 2-7 2-9 0-9-11v-7h14v-16h-14v-57h-21v57h-11v16h11v8q0 26 26 26 8 0 11-2v-16zM353 301h-21v106h21v-106zM395 300q-17 0-27 11-9 10-9 26 0 18 9 28 10 10 27 10 15 0 25-10 9-10 9-28 0-16-9-26-10-11-25-11zM395 359q-9 0-12-6-4-6-4-16 0-8 4-14 3-6 12-6 8 0 11 6 4 6 4 14 0 10-4 16-3 6-11 6zM501 328l13 46h19l-22-73h-18l-12 45-12-45h-18l-23 73h21l12-46 13 46h15zM558 275h-20v99h20v-6q5 7 18 7 15 0 24-11t9-27q0-15-9-26t-24-11q-13 0-18 8v-33zM558 326q3-8 13-8 17 0 17 19 0 21-17 21-10 0-13-8v-24zM636 301h-21v106h21v-106zM687 301v5q-2-3-7-4-6-2-12-2-11 0-19 7-7 6-7 17 0 10 8 16 8 7 20 7 11 0 17-5v6q0 11-13 11-9 0-10-6h-19q2 10 10 16t20 6q30 0 30-27v-47h-18zM687 326q-4 7-14 7-5 0-9-2t-4-7 4-7 9-2q10 0 14 6v5zM724 275l11 26-28 73h21l17-48 17 48h19l-37-99h-20zM847 325q-5-25-33-25-16 0-25 11-10 10-10 26 0 18 10 28 9 10 25 10t24-10q9-9 9-26v-6h-49q3-17 16-17 11 0 13 9h20zM798 346h29q0 13-13 13-12 0-16-13zM897 354q-5 3-10 3-12 0-14-10v-46h-20v73h20v-7q5 8 17 8 6 0 7-1v-20z" />
<glyph unicode="&#xe011;" glyph-name="uniE011" d="M314 396l284 284q22 22 54 24 33 2 56-20 13-12 18-26 6-14 6-30 0-15-6-29-5-15-17-27l-226-226 226-227q24-23 24-54 0-32-24-56-11-11-25-17-15-5-29-5-33 0-55 22l-286 287q-21 21-21 50t21 50v0z" />
<glyph unicode="&#xe012;" glyph-name="uniE012" d="M711 396q21-21 21-50t-21-50l-286-287q-22-22-55-22-14 0-29 5-14 6-25 17-24 24-24 56 0 31 24 54l226 227-226 226q-12 12-17 27-6 14-6 29 0 16 6 30 5 14 18 26 23 22 56 20 32-2 54-24l284-284z" />
<glyph unicode="&#xe013;" glyph-name="uniE013" d="M820 346q0-64-24-120-24-57-66-98-41-42-98-66-56-24-119-24-64 0-120 24-57 24-98 66-42 41-66 98-24 56-24 120 0 63 24 119 24 57 66 98 41 42 98 66 56 24 119 24 64 0 120-24 57-24 98-66 42-41 66-98 24-56 24-119z" />
<glyph unicode="&#xe014;" glyph-name="uniE014" d="M512-13q-73 0-139 28-65 28-114 77t-77 114q-28 66-28 140 0 73 28 139t77 114q48 49 114 77t139 28q74 0 140-28t114-77q49-48 77-114t28-139q0-74-28-140-28-65-77-114-48-49-114-77t-140-28zM513 655q-64 0-120-25-57-24-99-66t-66-99q-25-56-25-119 0-64 25-120 24-57 66-99t99-66q56-25 119-25 64 0 120 25 57 24 99 66t66 99q25 56 25 120 0 63-25 119-24 57-66 99t-99 66q-56 25-120 25h1zM425 442q0 23 15 32 14 8 35-3l167-97q20-12 20-28 0-17-20-29l-167-97q-21-11-35-3-15 9-15 32v193z" />
<glyph unicode="&#xe015;" glyph-name="uniE015" d="M512-13q-73 0-139 28-65 28-114 77t-77 114q-28 66-28 140 0 73 28 139t77 114q48 49 114 77t139 28q74 0 140-28t114-77q49-48 77-114t28-139q0-74-28-140-28-65-77-114-48-49-114-77t-140-28zM513 655q-64 0-120-25-57-24-99-66t-66-99q-25-56-25-119 0-64 25-120 24-57 66-99t99-66q56-25 119-25 64 0 120 25 57 24 99 66t66 99q25 56 25 120 0 63-25 119-24 57-66 99t-99 66q-56 25-120 25h1zM440 206q-18 0-31 12-12 13-12 31v193q0 18 12 31 13 13 31 13 17 0 30-13t13-31v-193q0-18-13-31-13-12-30-12zM585 206q-17 0-30 12-13 13-13 31v193q0 18 13 31t30 13q18 0 31-13 12-13 12-31v-193q0-18-12-31-13-12-31-12v0z" />
<glyph unicode="&#xe016;" glyph-name="uniE016" d="M522 408l83 312q3 12 12 20 8 7 19 10t22 1q10-3 20-12l228-228q9-10 12-20 2-11-1-22t-10-19q-8-9-20-12l-312-83q-12-3-24 0-11 3-19 10-7 8-10 19-3 12 0 24v0zM503 283l-83-312q-3-12-12-20-8-7-19-10t-22-1q-10 3-20 12l-228 228q-9 10-12 20-2 11 1 22t10 19q8 9 20 12l312 83q12 3 24 0 11-3 19-10 7-8 10-19 3-12 0-24v0z" />
<glyph unicode="&#xe101;" glyph-name="uniE101" d="M747 29v0 0h-458l229 396 145-252zM871 621v-492h-120l-191 332-42 72-41-72-193-332h-130v492h717z" />
<glyph unicode="&#xe102;" glyph-name="uniE102" d="M179 12l122 453 331-331zM846 679l-122-453-331 331z" />
<glyph unicode="&#xe103;" glyph-name="uniE103" d="M448 38l-221 368 75 53 134-190 304 487 58-32z" />
<glyph unicode="&#xe104;" glyph-name="uniE104" d="M510 699q0 39 28 66 27 26 66 26t65-26q27-27 27-66 0-25-12-46-13-22-33-34v-66h179v-218h-78q-12 21-32 33-21 12-47 12-39 0-66-27t-27-66 27-66q27-26 66-26 26 0 47 12 20 12 32 33h78v-217h-485v217h-60q-12-21-33-33t-47-12q-39 0-66 26-26 27-26 66t26 66q27 27 66 27 26 0 47-12t33-33h60v218h211v66q-21 12-33 33-13 22-13 47v0z" />
<glyph unicode="&#xe105;" glyph-name="uniE105" d="M150 178q24 0 45-9t38-25q16-17 25-38 10-22 10-46v-6h-124v124h6zM150 292q48 0 90-18 42-19 74-50 31-31 49-74 18-42 18-90v-6h-58v6q0 35-14 67t-37 56q-24 23-55 37t-67 14h-7v58h7zM150 411q72 0 136-28 64-27 111-75 48-48 76-112 27-64 27-136v-6h-58v6q0 60-23 113-23 54-63 94-39 40-93 63-53 23-113 23h-7v58h7zM861 596v-501h-304q-7 75-38 140-32 65-82 115-51 50-116 81-66 30-141 36v129h681z" />
<glyph unicode="&#xe106;" glyph-name="uniE106" d="M871 544v-401l-231 200zM855 100h-685l248 215 94-82 95 82zM861 592l-348-303-349 303h697zM154 143v401l231-201z" />
<glyph unicode="&#xe107;" glyph-name="uniE107" d="M800 321l-576-333v666z" />
<glyph unicode="&#xe108;" glyph-name="uniE108" d="M443 18h-202v656h202v-656zM784 18h-202v656h202v-656z" />
<glyph unicode="&#xe109;" glyph-name="uniE109" d="M788 417l-224 164v-106h-26q-62 0-115-24-52-23-87-64-36-41-52-96-16-54-6-116 4-26 14-53 2-5 8-5 5 1 6 7 7 46 29 87 22 40 56 69 33 30 76 47 42 16 91 16h6v-96zM846 679v-667h-667v667h667z" />
<glyph unicode="&#xe10a;" glyph-name="uniE10A" d="M630 413h-70v38q0 15 5 23t25 8h39v77h-61q-55 0-78-26-22-27-22-74v-46h-46v-76h46v-222h92v222h61zM846 679v-667h-667v667h667z" />
<glyph unicode="&#xe10b;" glyph-name="uniE10B" d="M287 498l195 179v-663l-195 179h-184v305h184z" />
<glyph unicode="&#xe10c;" glyph-name="uniE10C" d="M689 410q26 18 46 47-27-11-52-14 28 17 40 50-15-8-29-14-13-5-30-8-12 14-29 22-17 7-36 7-39 0-66-26-27-27-27-65 0-5 1-11 0-5 1-10-57 3-105 28-48 26-82 67-12-21-12-46 0-24 11-44t28-32q-22 2-40 12v-2q0-33 20-57 20-25 52-32-11-3-23-3h-10l-8 2q8-28 32-46t53-18q-23-18-51-28-29-11-61-11h-11l-11 1q62-41 139-41 63 0 112 24 48 24 82 61 33 37 50 84 17 46 17 91 0 8-1 12v0zM846 679v-667h-667v667h667z" />
<glyph unicode="&#xe10d;" glyph-name="uniE10D" d="M804 346l119-119-68-68-119 119-120-119-68 68 120 119-120 118 68 68 120-119 119 119 68-68zM287 498l195 179v-663l-195 179h-184v305h184z" />
<glyph unicode="&#xe10e;" glyph-name="uniE10E" d="M550 423l47 47 42-38-49-49 20-19 130 129-80 80-129-130zM475 268l-46-45-44 35 50 50-20 19-130-129 80-80 129 130zM550 343l-35-35 60-60-210-210-160 160 210 210 60-60 35 35-60 60 210 210 160-160-210-210z" />
<glyph unicode="&#xe10f;" glyph-name="uniE10F" d="M600 346l220-221-87-87-220 220-221-220-87 87 220 221-220 220 87 87 221-220 220 220 87-87z" />
<glyph unicode="&#xe110;" glyph-name="uniE110" d="M657 368q16-9 16-22 0-14-16-23l-196-113q-15-9-26-2-12 6-12 25v225q0 19 12 25 11 7 26-2l196-113zM513 39q63 0 119 24t97 66q42 41 66 97t24 120q0 63-24 119t-66 97q-41 42-97 66t-119 24q-64 0-120-24t-97-66q-42-41-66-97t-24-119q0-64 24-120t66-97q41-42 97-66t120-24zM512 704q74 0 140-28 65-28 114-77 49-48 77-114t28-139q0-74-28-140-28-65-77-114-48-49-114-77t-139-28q-74 0-140 28t-114 77q-49 49-77 114-28 66-28 140 0 73 28 139t77 114q48 49 114 77t139 28z" />
<glyph unicode="&#xe111;" glyph-name="uniE111" d="M642 704l100-101-257-257 257-258-100-101-359 359z" />
<glyph unicode="&#xe112;" glyph-name="uniE112" d="M742 346l-359-359-100 101 257 258-257 257 100 101z" />
<glyph unicode="&#xe113;" glyph-name="uniE113" d="M769 89h-513v513h513v-513z" />
<glyph unicode="&#xe114;" glyph-name="uniE114" d="M512-13q-73 0-139 28-65 28-114 77t-77 114q-28 66-28 140 0 73 28 139t77 114q48 49 114 77t139 28q74 0 140-28t114-77q49-48 77-114t28-139q0-74-28-140-28-65-77-114-48-49-114-77t-140-28zM513 655q-64 0-120-25-57-24-99-66t-66-99q-25-56-25-119 0-64 25-120 24-57 66-99t99-66q56-25 119-25 64 0 120 25 57 24 99 66t66 99q25 56 25 120 0 63-25 119-24 57-66 99t-99 66q-56 25-120 25h1zM682 346l-256-148v295z" />
<glyph unicode="&#xe115;" glyph-name="uniE115" d="M512-13q-73 0-139 28-65 28-114 77t-77 114q-28 66-28 140 0 73 28 139t77 114q48 49 114 77t139 28q74 0 140-28t114-77q49-48 77-114t28-139q0-74-28-140-28-65-77-114-48-49-114-77t-140-28zM513 655q-64 0-120-25-57-24-99-66t-66-99q-25-56-25-119 0-64 25-120 24-57 66-99t99-66q56-25 119-25 64 0 120 25 57 24 99 66t66 99q25 56 25 120 0 63-25 119-24 57-66 99t-99 66q-56 25-120 25h1zM484 209h-84v273h84v-273zM625 209h-84v273h84v-273z" />
<glyph unicode="&#xe116;" glyph-name="uniE116" d="M522 355l116 432 316-316zM503 336l-116-432-316 316z" />
<glyph unicode="&#xe201;" glyph-name="uniE201" d="M662 80v2q-1 0-1 1l-147 254q0 1-2 2v-1q-1 0-1-1l-147-254q0-2-1-3h299zM702 107q18-31 5-53-12-22-48-22h-293q-36 0-48 22-13 22 5 53l146 254q19 31 44 31 24 0 43-31zM811 618q24 0 42-18t18-43v-371q0-25-18-43t-42-18h-64l-3 6-24 42h91q12 0 12 13v371q0 13-12 13h-597q-5 0-8-4-4-4-4-9v-371q0-6 4-9 3-4 8-4h91l-24-42-3-6h-64q-24 0-42 18t-18 43v371q0 25 18 43t42 18h597z" />
<glyph unicode="&#xe202;" glyph-name="uniE202" d="M846 645v-2l-29-262q-2-12-11-20t-21-8h-4q-13 2-22 11-9 10-7 25l19 169-186-186q-9-9-22-9-14 0-24 9-9 10-9 24 0 13 9 22l186 186-169-19q-15-2-25 7-9 9-11 22-2 14 6 24t22 12l263 29h7q1-1 4-1 1-1 2-1 2-1 3-1l2-1 4-4t3-2q1-2 4-5 0-1 2-2l2-4q0-2 1-3 0-2 1-4v-6zM469 106q15 2 25-7 9-9 11-22 2-14-6-24t-22-12l-262-29h-3q-14 0-23 10-10 9-10 23v3l29 262q2 14 12 22t24 6q13-2 22-11 9-10 7-25l-19-169 186 186q9 9 22 9 14 0 24-9 9-9 9-23t-9-23l-186-186 169 19z" />
<glyph unicode="&#xe203;" glyph-name="uniE203" d="M827 720q6-21-4-39l-341-616q-14-25-41-27h-3q-26 0-41 22l-162 298q-12 17-8 38 5 21 21 32 16 13 37 8 20-3 33-21l115-220 302 534q11 18 31 24 19 7 38-4 18-10 23-29v0z" />
<glyph unicode="&#xe204;" glyph-name="uniE204" d="M792 216q1 13-7 25-10 10-23 10h-7q-22 0-37-17-31-36-79-33-36 2-63 28t-29 62q-3 43 26 74 14 14 33 23 18 8 39 8 20 0 40-8 19-9 34-25 14-17 36-17h7q14 0 23 11 8 8 8 23l-18 166-107-14q-12-2-25 2-14 4-24 13-17 15-17 34 0 12 7 20 8 9 16 15l3 3q24 21 24 53 0 29-20 50-20 20-50 20h-1q-27 0-48-20-20-20-22-47-1-17 6-31 7-15 18-25l3-3q8-6 16-15 8-8 8-20v-1q0-19-17-34-10-9-23-13-14-5-26-3l-133 16 15-149q3-33-19-58-18-20-42-20h-1q-14 0-24 9-10 8-18 16l-2 3q-22 22-54 22-28-1-48-21-20-21-20-51 1-28 21-49 21-20 49-20 31 0 52 22l2 2q8 8 18 17t24 9q24 0 43-21 11-11 16-27t3-30l-15-128h412l17 144zM762 288q30 0 51-22 19-25 16-54l-18-157q-1-9-8-15t-16-6h-440q-11 0-17 8-8 8-6 19l17 143q2 15-10 29-2 2-6 5-3 3-8 3-3-1-17-14l-2-2q-32-34-78-34-21 0-41 8-19 8-34 23t-24 34q-8 20-8 41 0 22 7 41 8 20 22 35 15 15 34 23 20 9 41 10h3q46 0 78-34l2-2q14-13 17-14 5 0 8 3 4 3 6 5 12 13 10 29l-17 167q-2 10 7 19 6 6 16 6h4l149-18h2q9 0 19 7 3 3 3 5l-3 3-6 5q-1 2-2 3-2 0-3 2-17 15-27 37-9 22-9 47 1 21 9 40 9 19 23 33 15 15 34 23 20 8 41 8h2q22 0 41-9 20-8 34-23t23-35q8-19 8-41 0-49-36-82-2-1-4-3-8-7-9-8l4-4q6-6 17-6h2l121 16h3q9 0 15-4 7-6 9-16l19-181q3-30-17-53-21-22-51-22h-7q-39 0-65 29-18 21-45 21t-44-20q-19-18-17-45 2-23 18-39 16-15 39-17h4q27 0 45 20 28 30 65 30h7z" />
<glyph unicode="&#xe205;" glyph-name="uniE205" d="M170 183q40-8 69-36 29-29 35-68 2-8-4-15-6-8-14-8h-89q-8 0-13 6t-5 14v88q0 8 6 14 7 7 15 5v0zM166 296q46 0 86-17 40-18 70-48 31-30 48-70t17-86q0-9-6-16-7-7-16-7-10 0-17 7t-7 16q0 36-14 68-13 31-37 55-24 25-55 38-32 14-69 14-9 0-16 7t-7 16q0 10 7 17 7 6 16 6v0zM166 412q70 0 131-27 62-26 107-72 46-45 73-107 26-61 26-131 0-9-6-16-7-7-16-7-11 0-17 7-7 7-7 16 0 60-23 113t-62 92q-40 40-93 63-52 23-113 23-9 0-16 7-7 6-7 17 0 9 7 15 7 7 16 7v0zM779 598q34 0 58-24 24-23 24-58v-325q0-34-24-58-24-23-58-23h-215q-2 23-6 45h221q15 0 26 11 10 10 10 25v325q0 15-10 26-11 11-26 11h-500q-16 0-26-11t-10-26v-50q-24 5-46 7v43q0 35 24 58 24 24 58 24h500z" />
<glyph unicode="&#xe206;" glyph-name="uniE206" d="M785 143h4l-199 172-17-16q-26-22-60-22-35 0-61 22l-17 16-199-172h549zM402 343l-203 177q-1-4-2-7v-327q0-11 3-18zM240 548h-8l249-217q14-11 31-11 18 0 32 11l249 217h-553zM828 505v8q-1 3-2 7l-203-177 202-175q3 7 3 18v319zM785 592q18 0 33-7 16-7 28-19 12-11 19-27 6-15 6-34v-319q0-19-6-34-7-16-19-27-12-12-28-19-15-6-33-6h-545q-18 0-33 6-16 7-28 19-12 11-19 27-6 15-6 34v319q0 19 6 34 7 16 19 27 12 12 28 19 15 7 33 7h545z" />
<glyph unicode="&#xe207;" glyph-name="uniE207" d="M305 12q-22 0-40 11-44 25-44 92v461q0 67 44 92 44 26 102-8l400-230q57-34 57-84 0-51-57-85l-400-230q-33-19-62-19v0zM305 641q-11 0-21-5-25-15-25-60v-461q0-22 6-37 7-15 19-23 26-14 63 9l400 230q39 22 39 52 0 29-39 51l-400 230q-22 14-42 14v0z" />
<glyph unicode="&#xe208;" glyph-name="uniE208" d="M351 18q-24 0-45 8-20 9-35 24-16 16-24 36-9 21-9 44v431q0 23 9 44 8 20 24 36 15 15 35 24 21 9 45 9 22 0 43-9 20-9 35-24 16-16 25-36 8-21 8-44v-431q0-23-8-44-9-20-25-36-15-15-35-24-21-8-43-8zM351 641q-33 0-57-24-23-23-23-56v-431q0-33 23-56 24-24 57-24 16 0 30 6 15 7 25 17 11 11 17 26t6 31v431q0 16-6 31t-17 26q-10 10-25 17-14 6-30 6v0zM674 18q-23 0-43 8-20 9-35 24-16 16-25 36-8 21-8 44v431q0 23 8 44 9 20 25 36 15 15 35 24t43 9q24 0 45-9 20-9 35-24 16-16 24-36 9-21 9-44v-431q0-23-9-44-8-20-24-36-15-15-35-24-21-8-45-8v0zM674 641q-16 0-30-6-15-7-25-17-11-11-17-26t-6-31v-431q0-16 6-31t17-26q10-10 25-17 14-6 30-6 33 0 57 24 23 23 23 56v431q0 33-23 56-24 24-57 24v0z" />
<glyph unicode="&#xe209;" glyph-name="uniE209" d="M801 609q0 10-8 17-7 8-17 8h-527q-10 0-17-8-8-7-8-17v-527q0-10 8-17 7-8 17-8h527q10 0 17 8 8 7 8 17v527zM776 679q29 0 49-21 21-20 21-49v-527q0-29-21-49-20-21-49-21h-527q-29 0-49 21-21 20-21 49v527q0 29 21 49 20 21 49 21h527zM740 444q9-6 9-18 0-11-9-17l-175-139q-7-5-14-5-11 0-17 8t-5 17 8 15l125 99h-115q-33 0-69-10-36-11-65-39-30-29-48-80-19-50-19-131 0-10-6-16-6-7-16-7-9 0-15 7-7 6-7 16 0 146 64 226 63 79 181 79h115l-125 98q-7 7-8 16t5 16q5 8 14 9 10 0 17-5l175-139z" />
<glyph unicode="&#xe20a;" glyph-name="uniE20A" d="M546 428h72l-9-77h-63v-226h-92v226h-47v77h47v47q0 48 22 74t79 26h62v-78h-39q-21 0-27-7-5-8-5-24v-38zM513 29q65 0 122 25 58 25 101 68t68 101q25 57 25 123 0 65-25 123-25 57-68 100t-100 68q-58 25-123 25-66 0-123-25-58-25-101-68t-68-100q-25-58-25-123 0-66 25-123 25-58 68-101t100-68q58-25 124-25zM512 704q74 0 140-28 65-28 114-77 49-48 77-114t28-139q0-74-28-140-28-65-77-114-48-49-114-77t-139-28q-74 0-140 28t-114 77q-49 49-77 114-28 66-28 140 0 73 28 139t77 114q48 49 114 77t139 28z" />
<glyph unicode="&#xe20b;" glyph-name="uniE20B" d="M519 597q0 8-4 12-5 4-7 5t-7 2q-6 0-12-5l-146-129h-64q-29 0-55-10-25-11-44-29-19-19-30-44-12-25-12-53 0-29 11-55 10-25 28-44 19-19 44-31 25-11 54-11l65-1 143-132q5-6 11-6 6 1 8 2t6 5 6 12zM523 646q14-6 23-20 9-13 9-29l-7-513q0-35-32-48-13-5-22-5-19 0-36 14l-132 124h-51q-36 0-68 15-32 14-55 37-23 24-36 56-13 33-13 69 0 35 14 67t38 55q23 23 56 36 32 14 68 14h51l135 120q12 11 28 13 15 2 30-5v0z" />
<glyph unicode="&#xe20c;" glyph-name="uniE20C" d="M512 29q66 0 123 25 58 25 101 68t68 101q25 57 25 123 0 65-25 123-25 57-68 100t-100 68q-58 25-123 25-66 0-123-25-58-25-101-68t-68-100q-25-58-25-123 0-66 25-123 25-58 68-101t100-68q58-25 123-25zM512 704q74 0 140-28 65-28 114-77 49-48 77-114t28-139q0-74-28-140-28-65-77-114-48-49-114-77t-139-28q-74 0-140 28t-114 77q-49 49-77 114-28 66-28 140 0 73 28 139t77 114q48 49 114 77t139 28zM700 475q-10-30-35-44 25 3 46 12-8-11-18-22t-22-19v-10q0-39-14-79-15-39-44-72-28-32-70-52-42-21-96-21-66 0-120 35 5-1 9-1h9q56 0 98 34-26 0-46 15-20 16-27 39 4-1 14-1 12 0 21 3-27 5-45 27-18 21-18 50v1q15-8 35-10-15 11-25 28t-10 37q0 23 12 40 29-35 71-57 41-23 91-25-2 11-2 18 0 33 23 56t55 23q35 0 58-25 14 2 26 7 13 5 24 13v0z" />
<glyph unicode="&#xe20d;" glyph-name="uniE20D" d="M914 226q5-6 5-13 0-8-5-13t-12-5q-6 0-13 5l-110 113-112-110q-7-5-13-5-5 0-12 5-5 5-5 13 1 8 6 13l111 109-109 112q-5 5-5 13t5 13 13 5q7 0 12-5l110-113 113 110q5 5 12 5t12-5q6-6 6-13 0-8-6-13l-112-110zM519 597q0 8-4 12-5 4-7 5t-7 2q-6 0-12-5l-146-129h-64q-29 0-55-10-25-11-44-29-19-19-30-44-12-25-12-53 0-29 11-55 10-25 28-44 19-19 44-31 25-11 54-11l65-1 143-132q5-6 11-6 6 1 8 2t6 5 6 12zM523 646q14-6 23-20 9-13 9-29l-7-513q0-35-32-48-13-5-22-5-19 0-36 14l-132 124h-51q-36 0-68 15-32 14-55 37-23 24-36 56-13 33-13 69 0 35 14 67t38 55q23 23 56 36 32 14 68 14h51l135 120q12 11 28 13 15 2 30-5v0z" />
<glyph unicode="&#xe20e;" glyph-name="uniE20E" d="M750 470q12 11 17 26 6 15 6 30t-6 30q-5 15-17 27-11 12-26 18-16 6-31 6-33 0-56-24l-62-61q-19-20-23-46-3-26 10-48l38 37q7 8 16 8t16-8q8-6 8-15 0-10-8-17l-37-38q22-13 48-10 26 4 46 23l61 62zM450 169q19 20 23 46 3 26-10 50l-38-39q-7-8-16-8-10 0-16 8-8 7-8 16t8 16l38 38q-17 11-38 11-33 0-57-24l-61-62q-12-11-18-26t-6-30 6-30 18-27 27-18 30-6 30 6 26 18l62 61zM783 616q19-18 28-42 9-23 9-48 0-24-9-47-9-24-28-42l-61-62q-19-18-42-27-24-10-48-10-40 0-71 23l-64-64q12-18 18-39t4-43q-1-21-11-42-9-20-25-37l-62-61q-18-19-42-28-23-9-47-9t-48 9-42 28q-19 18-28 42t-9 48 9 47q9 24 28 42l61 62q17 16 37 25 21 10 42 11 22 2 43-4t39-18l64 64q-12 18-18 39t-4 43q1 21 11 42 9 20 25 37l62 61q18 19 42 28 23 9 47 9 25 0 48-9 24-9 42-28v0z" />
<glyph unicode="&#xe20f;" glyph-name="uniE20F" d="M812 88q8-8 8-20 0-13-8-22-10-8-22-8t-20 8l-257 257-258-257q-8-8-20-8t-22 8q-8 9-8 22 0 12 8 20l257 258-257 257q-8 8-8 20 0 13 8 22 9 8 22 8 12 0 20-8l258-257 257 257q8 8 20 8 13 0 22-8 8-9 8-22 0-12-8-20l-257-257z" />
<glyph unicode="&#xe210;" glyph-name="uniE210" d="M167 409q-6 2-10 2-12 0-12-13v-9h19v-22h-19v-75h-27v75h-16v22h16v11q0 16 9 25t25 9q7 0 15-2v-23zM203 292h-27v140h27v-140zM258 290q-20 0-34 14-13 14-13 36 0 23 13 37 14 14 34 14 21 0 34-14t13-37q0-22-13-36t-34-14zM258 368q-10 0-15-8-5-7-5-20 0-11 5-19t15-8q11 0 16 8t5 19q0 13-5 20-5 8-16 8v0zM399 327l17 62h26l-29-97h-25l-15 60-16-60h-25l-29 97h27l17-62 16 62h20zM475 257h-27v132h27v-9q3 4 9 8 6 3 14 3 21 0 32-15 12-15 12-36 0-20-12-35-11-15-32-15-8 0-14 3t-9 7v-43zM475 325q5-11 17-11 11 0 17 7 6 8 6 19 0 12-6 19-6 8-17 8-12 0-17-11v-31zM577 292h-27v140h27v-140zM645 292v5q-8-6-24-6-14 0-25 8-11 9-11 23t11 22q11 9 26 9t23-6v7q0 6-4 10-4 5-13 5t-13-9h-26q2 13 13 22t27 9q20 0 30-10t10-27v-62h-24zM645 326q-5 8-18 8-7 0-12-3t-5-9 5-9q5-2 12-2 13 0 18 8v7zM694 257l14 35-37 97h28l23-64 21 64h27l-50-132h-26zM856 324q-3-15-14-25-11-9-29-9-21 0-33 14-13 14-13 36t13 36q12 15 33 15 20 0 32-14 11-13 11-35v-7h-64q2-23 21-23 15 0 18 12h25zM793 351h37q0 8-4 13-5 5-13 5-17 0-20-18v0zM923 362q-7 3-14 3-15 0-18-13v-60h-27v97h27v-10q7 12 21 12 8 0 11-2v-27z" />
<glyph unicode="&#xe211;" glyph-name="uniE211" d="M327 372l321 321q10 10 24 11 15 1 25-8 11-10 12-25 0-15-11-25l-299-300 298-299q10-10 11-24t-8-24q-11-12-26-12t-24 10l-323 322q-11 11-11 27 0 15 11 26v0z" />
<glyph unicode="&#xe212;" glyph-name="uniE212" d="M698 372q11-11 11-26 0-16-11-27l-323-322q-9-10-24-10-16 0-26 12-9 10-8 24t11 24l298 299-299 300q-11 10-11 25 1 15 12 25 10 9 25 8 14-1 24-11l321-321z" />
<glyph unicode="&#xe213;" glyph-name="uniE213" d="M743 346q0-49-18-90-18-42-50-73-31-32-73-50t-89-18q-49 0-90 18-42 18-73 50-32 31-50 73-18 41-18 90 0 47 18 89t50 73q31 32 73 50 41 18 90 18 47 0 89-18t73-50q32-31 50-73t18-89v0z" />
<glyph unicode="&#xe214;" glyph-name="uniE214" d="M452 206q-9 0-16 4-19 10-19 39v193q0 28 19 39 18 9 42-3l168-98q23-12 23-34 0-21-23-35l-168-98q-12-7-26-7v0zM452 470q-5 0-8-4-10-4-10-24v-193q0-20 10-24 10-8 26 3l168 96q16 10 16 22 0 11-16 21l-168 96q-11 7-18 7v0zM512-13q-73 0-139 28-65 28-114 77t-77 114q-28 66-28 140 0 73 28 139t77 114q48 49 114 77t139 28q74 0 140-28t114-77q49-48 77-114t28-139q0-74-28-140-28-65-77-114-48-49-114-77t-140-28zM513 689q-71 0-134-27-62-27-109-74t-74-109q-27-63-27-133 0-71 27-134 27-62 74-109t109-74q63-27 133-27 71 0 134 27 62 27 109 74t74 109q27 63 27 134 0 70-27 133-27 62-74 109t-109 74q-63 27-133 27z" />
<glyph unicode="&#xe215;" glyph-name="uniE215" d="M512-13q-73 0-139 28-65 28-114 77t-77 114q-28 66-28 140 0 73 28 139t77 114q48 49 114 77t139 28q74 0 140-28t114-77q49-48 77-114t28-139q0-74-28-140-28-65-77-114-48-49-114-77t-140-28zM513 689q-71 0-134-27-62-27-109-74t-74-109q-27-63-27-133 0-71 27-134 27-62 74-109t109-74q63-27 133-27 71 0 134 27 62 27 109 74t74 109q27 63 27 134 0 70-27 133-27 62-74 109t-109 74q-63 27-133 27zM441 202q-21 0-35 15t-14 35v190q0 20 14 35 14 14 35 14 20 0 35-14 15-15 15-35v-190q0-20-15-35t-35-15zM441 477q-15 0-25-11-10-10-10-24v-190q0-14 10-25t25-11q14 0 25 11t11 25v190q0 14-11 24-11 11-25 11v0zM584 202q-20 0-35 15t-15 35v190q0 20 15 35 15 14 35 14 21 0 35-14 14-15 14-35v-190q0-20-14-35t-35-15zM584 477q-14 0-25-11-11-10-11-24v-190q0-14 11-25t25-11q15 0 25 11t10 25v190q0 14-10 24-10 11-25 11v0z" />
<glyph unicode="&#xe216;" glyph-name="uniE216" d="M505 305v-3l-28-261q-1-12-11-20-9-9-21-9h-3q-15 2-23 12t-7 24l18 169-185-184q-9-10-23-10-13 0-22 10-10 9-10 22 0 14 10 23l184 186-169-19q-13-1-23 7-11 8-13 23-2 13 7 23 9 11 22 12l262 28h10q1-1 3-1l2-1q2 0 4-2 1 0 2-1 2-1 5-4l3-3q0-1 1-2t1-2l2-4q0-1 1-2v-1t1-2v-8zM810 446q14 1 24-7t12-23q2-13-7-23-9-11-22-12l-261-28h-5q-13 0-22 9t-9 22v5l28 261q1 13 12 22 10 9 23 7 15-2 23-12 9-10 7-24l-18-169 185 185q9 9 23 9 13 0 23-9 9-10 9-23 0-14-9-23l-185-185 169 18z" />
<glyph unicode="&#xe301;" glyph-name="uniE301" d="M664 78l-146 253-146-253h292zM518 426l229-396h-458zM871 611v-493h-120l-27 48h99v397h-621v-397h111l-29-48h-130v493h717z" />
<glyph unicode="&#xe302;" glyph-name="uniE302" d="M846 675l-34-314-67 7 19 176-193-191-47 47 192 193-176-20-7 68zM501 282l-192-192 176 19 7-67-313-34 34 313 67-7-19-177 193 193z" />
<glyph unicode="&#xe303;" glyph-name="uniE303" d="M815 711l-392-677-213 338 78 47 127-205 317 548z" />
<glyph unicode="&#xe304;" glyph-name="uniE304" d="M792 524h-167v85l6 4q36 22 36 63 0 29-21 50-22 21-51 21-30 0-51-21t-21-50q0-42 35-63l7-4v-85h-197v-203h-79l-4 7q-9 18-26 26-16 9-36 9-29 0-51-21-21-21-21-51t21-51q22-22 51-22 20 0 36 10 17 9 26 25l4 7h79v-203h424v176h-51q-14-21-36-32-21-10-46-10-42 0-71 29t-29 71 29 71q29 30 71 30 25 0 46-12 22-11 36-30h51v174zM830 562v-250h-109l-3 4-5 7q-8 14-22 23-14 8-32 8-26 0-44-19-18-18-18-44t18-44 44-18q36 0 54 29l5 8 3 5h109v-251h-500v203h-20q-16-21-38-32-23-11-49-11-23 0-43 9t-35 24-24 35q-8 20-8 43t8 43q9 20 24 35t35 24 43 9q26 0 49-11 22-12 38-32h20v203h196v26q-20 16-31 39t-11 49q0 22 9 42 8 20 24 35 15 15 35 24 20 8 43 8 22 0 43-8 20-9 35-24t23-35q9-20 9-42 0-26-11-49-10-23-31-39v-26h167z" />
<glyph unicode="&#xe305;" glyph-name="uniE305" d="M143 164q24 0 45-9 20-9 35-25 16-15 25-36 9-20 9-44h-114v114zM143 279q48 0 89-18 42-18 73-49 31-32 49-73 18-42 18-89h-47q0 38-14 71-15 33-39 57-25 25-58 39-34 15-71 15v47zM143 399q72 0 136-28 63-28 110-75 48-47 75-110 28-64 28-136h-47q0 63-24 118-23 55-64 96t-96 64q-55 24-118 24v47zM861 590v-504h-306q-3 11-4 24-2 12-4 23h267v410h-592v-88q-22 4-47 6v129h686z" />
<glyph unicode="&#xe306;" glyph-name="uniE306" d="M828 164v350l-201-176zM232 137h561l-198 174-82-72-82 72zM197 514v-350l201 174zM798 544h-571l285-249zM871 587v-493h-717v493h717z" />
<glyph unicode="&#xe307;" glyph-name="uniE307" d="M235 8v667l576-334zM267 619v-555l480 277z" />
<glyph unicode="&#xe308;" glyph-name="uniE308" d="M462 13h-224v656h224v-656zM271 46h158v591h-158v-591zM787 13h-224v656h224v-656zM596 46h158v591h-158v-591z" />
<glyph unicode="&#xe309;" glyph-name="uniE309" d="M796 625h-567v-569h567v569zM846 675v-667h-667v667h667zM538 405q-37 0-76-11-39-12-70-43-32-31-52-86-20-56-20-144h-48q0 159 69 246 69 86 197 86h125l-136 108 31 39 214-171-214-171-30 38 135 109h-125z" />
<glyph unicode="&#xe30a;" glyph-name="uniE30A" d="M454 346h-47v77h47v47q0 48 22 74 22 27 79 27h62v-78h-39q-21 0-27-8-5-7-5-23v-39h72l-9-77h-63v-225h-92v225zM829 657h-633v-632h633v632zM871 700v-717h-717v717h717z" />
<glyph unicode="&#xe30b;" glyph-name="uniE30B" d="M316 484h-178v-277h178l174-159v595zM302 520l223 204v-757l-223 204h-200v349h200z" />
<glyph unicode="&#xe30c;" glyph-name="uniE30C" d="M322 193q4-1 9-1h9q29 0 54 9t46 26q-27 0-47 15-20 16-28 40 5-1 15-1h11l10 2q-28 6-46 28-18 21-18 51v1q15-8 36-10-16 11-26 28-10 18-10 38 0 23 11 40 30-36 73-58 42-23 93-25-3 11-3 19 0 33 24 56 24 24 56 24 36 0 59-26 14 2 27 7t24 13q-9-29-36-45 26 4 47 13-8-12-18-22-10-11-23-19 1-4 1-12 0-40-14-80-15-40-45-73-29-33-71-54-43-20-98-20-34 0-65 9t-57 27v0zM806 614h-587v-587h587v587zM846 654v-666h-667v666h667z" />
<glyph unicode="&#xe30d;" glyph-name="uniE30D" d="M796 346l127-127-25-25-127 127-126-127-25 25 126 127-126 126 25 25 126-127 127 127 25-25zM316 484h-178v-277h178l174-159v595zM302 520l223 204v-757l-223 204h-200v349h200z" />
<glyph unicode="&#xe30e;" glyph-name="uniE30E" d="M551 409l49 47 30-24-50-52 35-34 149 149-97 98-149-150zM473 274l-50-49-27 27 49 49-35 35-149-149 97-98 149 150zM552 353l-51-52 63-62-206-205-153 153 205 205 63-62 51 50-63 63 206 206 153-154-205-205z" />
<glyph unicode="&#xe30f;" glyph-name="uniE30F" d="M556 341l264-264-43-43-264 264-265-264-43 43 264 264-264 265 43 43 265-265 264 265 43-43z" />
<glyph unicode="&#xe310;" glyph-name="uniE310" d="M458 307q-14-9-24-3t-10 22v195q0 15 10 21 10 5 24-3l168-97q15-8 15-19t-15-19l-168-97zM501 687q-54 0-102-21-48-20-84-56t-57-84q-20-48-20-103 0-54 20-102 21-48 57-84t84-57 102-21q56 0 104 21t84 57 56 84q21 48 21 102 0 55-21 103-20 48-56 84t-84 56q-48 21-104 21zM501 114q-63 0-120 24-56 24-98 66t-66 98q-24 57-24 121t24 120q24 57 66 99t98 66q57 24 120 24 65 0 121-24 57-24 99-66t66-99q24-56 24-120t-24-121q-24-56-66-98t-99-66q-56-24-121-24v0zM862 26q7 0 9-2v-23q-6 2-11 2-13 0-16-11v-52h-24v84h24v-9q7 11 18 11v0zM790-9q0 15-15 15-14 0-18-15h33zM775 26q18 0 28-12t10-30v-7h-56q3-20 19-20 12 0 15 10h22q-2-13-12-21t-25-8q-19 0-30 12t-11 32q0 19 11 31 11 13 29 13v0zM738 24l-44-115h-23l13 31-33 84h24l20-56 19 56h24zM627-32q-3 9-14 9-5 0-10-4-5-3-5-8t5-7q5-3 10-3 11 0 14 8v5zM615 26q35 0 35-33v-53h-23v5q-4-6-19-6-13 0-23 6-9 7-9 20t9 20q10 7 24 7 12 0 18-4v6q0 12-13 12-9 0-12-7h-22q2 11 11 19 10 8 24 8v0zM545 62h24v-122h-24v122zM495-42q9 0 14 7 6 6 6 17 0 10-6 17-5 6-14 6-11 0-16-9v-28q5-10 16-10v0zM500 26q18 0 28-14 10-13 10-30 0-18-10-31t-28-13q-7 0-13 3-5 3-8 6v-38h-23v115h23v-8q7 10 21 10v0zM428 24h23l-26-84h-21l-13 51-15-51h-21l-25 84h23l15-54 13 54h19l13-54zM290-42q17 0 17 24 0 11-4 18-5 6-13 6t-13-6q-5-7-5-18 0-24 18-24v0zM290 26q19 0 30-13 11-12 11-31 0-20-11-32t-30-12q-18 0-30 12-11 12-11 32 0 19 11 31 12 13 30 13zM218 62h24v-122h-24v122zM167 34q0 14 8 22t22 8q8 0 13-3v-20q-3 2-8 2-11 0-11-11v-8h17v-19h-17v-65h-24v65h-13v19h13v10z" />
<glyph unicode="&#xe311;" glyph-name="uniE311" d="M666 700l52-50-309-309 309-308-52-50-358 358z" />
<glyph unicode="&#xe312;" glyph-name="uniE312" d="M718 341l-359-358-51 50 308 308-308 309 51 50z" />
<glyph unicode="&#xe313;" glyph-name="uniE313" d="M718 136h-410v410h410v-410z" />
<glyph unicode="&#xe314;" glyph-name="uniE314" d="M419 180v323l280-161zM435 477v-269l232 134zM513-17q-74 0-140 28-65 28-114 77-49 48-77 114t-28 139q0 74 28 140 28 65 77 114 48 49 114 77t139 28q74 0 140-28t114-77q49-49 77-114 28-66 28-140 0-73-28-139t-77-114q-48-49-114-77t-139-28zM513 684q-71 0-134-27-62-28-109-74t-74-108q-27-63-27-134 0-70 27-133 27-62 74-109t109-74q63-27 133-27 71 0 134 27 62 27 109 74t74 109q27 63 27 133 0 71-27 134-27 62-74 108t-109 74q-63 27-133 27z" />
<glyph unicode="&#xe315;" glyph-name="uniE315" d="M512-17q-73 0-139 28-65 28-114 77-49 48-77 114t-28 139q0 74 28 140 28 65 77 114 48 49 114 77t139 28q74 0 140-28t114-77q49-49 77-114 28-66 28-140 0-73-28-139t-77-114q-48-49-114-77t-140-28zM513 684q-71 0-134-27-62-28-109-74t-74-108q-27-63-27-134 0-70 27-133 27-62 74-109t109-74q63-27 133-27 71 0 134 27 62 27 109 74t74 109q27 63 27 133 0 71-27 134-27 62-74 108t-109 74q-63 27-133 27zM491 197h-98v288h98v-288zM407 211h70v260h-70v-260zM632 197h-98v288h98v-288zM548 211h70v260h-70v-260z" />
<glyph unicode="&#xe316;" glyph-name="uniE316" d="M497 325l-33-313-64 8 18 176-187-193-46 48 186 193-171-19-6 66zM841 630l-188-191 171 18 7-66-303-34 33 312 64-7-18-176 187 193z" />
</font>
</defs>
</svg>
